#TITLE:Pumptris Quattro;
#SUBTITLE:;
#ARTIST:Yahpp;
#TITLETRANSLIT:;
#SUBTITLETRANSLIT:;
#ARTISTTRANSLIT:;
#GENRE:;
#CREDIT:;
#MUSIC:Pumptris Quattro.ogg;
#BANNER:Pumptris Quattro.png;
#BACKGROUND:Pumptris Quattro-BG.png;
#CDTITLE:;
#SAMPLESTART:6.906;
#SAMPLELENGTH:9.984;
#SELECTABLE:YES;
#OFFSET:-0.288;
#BPMS:0.000=153.000
,51.000=76.500
,51.500=153.000
,52.500=76.500
,53.000=153.000
,54.000=76.500
,54.500=153.000
,55.500=76.500
,56.000=153.000
,57.000=76.500
,57.500=153.000
,58.500=76.500
,59.000=153.000
,60.000=76.500
,60.500=153.000
,61.500=76.500
,62.000=153.000
,63.000=76.500
,63.500=153.000
,64.500=76.500
,65.000=153.000
,66.000=76.500
,66.500=153.000
,67.500=76.500
,68.000=153.000
,109.000=76.500
,109.500=153.000
,112.500=76.500
,113.000=153.000
,116.000=76.500
,116.500=153.000
,119.500=76.500
,120.000=153.000
,123.000=76.500
,123.500=153.000
,126.500=76.500
,127.000=153.000
,130.000=76.500
,130.500=153.000
,153.500=76.500
,154.000=153.000
,157.000=76.500
,157.500=153.000
,160.500=76.500
,161.000=153.000
,164.000=76.500
,164.500=153.000
,167.500=76.500
,168.000=153.000
,171.000=76.500
,171.500=153.000
,174.500=76.500
,175.000=153.000
;
#STOPS:;
#BGCHANGES:;
#FGCHANGES:;

//--------------- dance-single - Alex ----------------
#NOTES:
     dance-single:
     Alex:
     Beginner:
     2:
     0,0,0,0,0:
0000
0000
0000
0000
,
0000
0000
0000
0000
,
0000
0000
0000
0000
,
0000
0000
0000
0000
,
0000
1001
0000
0000
,
0000
1000
0000
0000
,
0000
0010
0000
0010
,
0000
0010
0000
0000
,
0000
0110
0000
0000
,
0000
0001
0000
0000
,
0000
1000
0000
1000
,
0000
2000
0000
3000
,
0000
0000
0000
1001
,
0000
0000
0110
0000
,
0000
1001
0000
0000
,
0110
0000
0000
1010
,
0000
0000
0101
0000
,
0000
0001
0000
0001
,
0000
0100
0000
0100
,
0000
0010
0000
0000
,
0000
0010
0000
0000
,
0000
1000
0000
0000
,
0000
0001
0000
0000
,
0000
1000
0000
0000
,
0000
0100
0000
0000
,
0000
1000
0000
0001
,
0000
2000
0000
3000
,
0000
1001
0000
0000
,
0000
0010
0000
0000
0000
0000
0000
0000
,
0100
0000
0000
0000
0000
0000
0000
0001
,
0000
0000
0000
1000
,
0000
0000
0000
0000
0000
0010
0000
0000
,
0000
0000
0100
0000
,
0000
0000
0000
0001
0000
0001
0000
0001
,
0000
0000
0000
1000
0000
0000
0000
1000
,
0000
0000
0000
0010
0000
0000
0000
0010
,
0000
0000
0000
1000
0000
0000
0000
0000
,
0000
0000
0000
0001
0000
0000
0000
0000
,
0000
0000
0000
1001
0000
0000
0000
0000
,
0000
1000
0000
0000
,
0000
0010
0000
0000
0000
0000
0000
0000
,
0100
0000
0000
0000
0000
0000
0000
0001
,
0000
0000
0000
0001
,
0000
0000
0000
0000
0000
1000
0000
0000
,
0000
0000
0010
0010
,
0010
0000
0110
0000
,
0000
0000
1000
0000
,
0000
0000
0001
0000
,
0000
0000
0100
0100
,
0100
0000
0020
0000
,
0030
0000
0020
0000
,
0030
0000
2000
0000
,
3000
0000
0002
0000
,
0003
0000
1000
0000
,
0000
0000
0010
0000
,
0000
0000
0100
0000
,
0100
0000
0100
0100
,
0100
0000
1001
0000
,
0000
0000
0001
0000
,
0000
0000
1000
0000
,
1000
0000
1000
1000
,
1000
0000
0110
0000
,
0000
0000
0110
0000
,
1001
0000
0000
0000
;

//--------------- dance-single - Alex ----------------
#NOTES:
     dance-single:
     Alex:
     Easy:
     4:
     0,0,0,0,0:
0000
0000
0000
0000
,
0000
0000
0000
0000
,
0000
0001
1000
0001
,
1000
0010
0010
0200
,
0300
0001
0010
0001
,
0000
0100
0001
0100
,
0000
0010
1000
0010
,
1000
2002
0000
3003
,
0000
0001
1000
0001
,
0000
1000
0100
1000
,
0000
0010
0010
0100
,
0100
0001
1000
2020
,
0000
0000
0000
3030
0000
0000
1001
0000
,
0000
0101
0000
0000
0110
0000
0000
1010
,
0000
0000
1100
0000
0000
0011
0000
0000
,
0101
0000
0000
0110
0000
0000
1001
0000
,
0000
0011
0000
0000
1100
0000
0000
1010
,
0000
0010
0010
1000
,
0001
1000
1000
0001
,
0001
0101
0000
0101
,
0000
0110
0000
0110
,
0000
1010
0000
1010
,
0000
1000
1000
0001
,
0001
1000
0000
0001
,
0000
1000
0000
0010
,
0000
0100
0000
0001
,
0000
1000
0001
1000
,
0001
0000
1001
0000
0000
0001
0000
0100
,
0000
0001
0000
0000
1000
0000
0010
0000
,
1000
0000
0000
0001
0000
1000
0000
0001
,
0000
0100
0010
0100
,
0000
0010
0000
1000
0000
0010
0000
0000
,
1000
0000
0100
0000
1000
0000
0000
0001
,
0000
0100
0000
0001
0000
1000
0000
0020
,
0000
0030
0000
1001
0000
0000
0000
0110
,
0000
0000
0000
0010
0000
1000
0000
0010
,
0000
0000
0000
1100
0000
0000
0000
1100
,
0000
0000
0000
0001
0000
0100
0000
0001
,
0000
0000
0000
1001
0000
0000
1000
0000
,
0010
0000
1000
0000
0000
0001
0000
0100
,
0000
0001
0000
0000
0010
0000
0100
0000
,
0010
0000
0000
0001
0000
1000
0000
0001
,
0000
1000
1000
1000
,
0000
0010
0000
0010
0000
0100
0000
0000
,
0001
0001
1000
1000
,
0020
0030
1000
0100
,
1000
0000
0001
0100
,
0001
0000
1000
0010
,
1000
0001
0100
0010
,
2002
3003
1001
0000
,
0110
0000
0100
0001
,
0100
0000
1010
0000
,
1100
0000
1000
1000
,
1000
0000
0001
0000
,
0100
0000
0001
0010
,
0001
0000
1001
0000
,
0110
0000
0010
0010
,
0020
0030
1000
0000
,
0100
0000
1000
1000
,
1000
0000
0001
0000
,
1000
0000
0010
0100
,
0002
0003
1000
0000
,
0001
0000
1000
0100
,
2000
0000
0000
0000
0000
3000
0000
0000
;

//--------------- dance-single - Alex ----------------
#NOTES:
     dance-single:
     Alex:
     Medium:
     6:
     0,0,0,0,0:
0000
0000
0000
0000
,
0000
0000
0000
0000
,
0000
0001
1000
0010
,
0100
0001
1000
2002
,
3003
0001
0010
0001
,
0001
0100
0010
1000
,
1000
0000
0001
0000
0100
0010
0100
0010
,
0100
0110
1001
0110
,
0000
0001
0001
1000
,
0010
0100
0001
1000
,
0001
0000
0100
0000
0100
0000
0010
1000
,
0010
1000
0010
0000
1010
0000
0202
0000
,
0000
0000
0000
0000
0303
0000
1000
0001
,
0000
1001
0100
0000
0110
0010
0000
1010
,
1000
0000
1001
0001
0000
0101
0100
0000
,
0110
0010
0000
1001
0001
0000
0011
0001
,
0000
0101
0100
0000
0110
0010
0000
1010
,
1000
1001
0001
0100
,
1000
0100
0001
1000
,
1000
0000
0001
0100
0001
0000
1000
0000
,
0010
0000
1000
0010
1000
0000
0001
0000
,
0001
0000
0100
0010
0100
0000
0001
0000
,
0010
0000
0100
0000
1000
0000
0001
0100
,
0001
0100
0001
0000
0100
0000
0010
1000
,
0010
0000
1000
0000
0100
0000
1000
0100
,
1000
0001
0100
0010
,
0100
0000
0001
1000
0001
0000
1000
0001
,
1000
0000
1001
0001
0000
1000
0000
0010
,
0000
1010
1000
0000
1000
0000
0001
0000
,
0101
0100
0000
0001
0000
1000
0000
1010
,
0010
0000
0020
0000
0030
0000
1001
0001
,
0000
0100
0000
0010
0000
1001
1000
0000
,
1000
0000
0001
0000
0011
0001
0000
0100
,
0000
0010
0000
1000
0100
1000
0100
2000
,
0000
3000
0000
1001
0000
0001
0000
0100
,
0000
0010
0000
1000
0000
0001
0000
0010
,
0000
0100
0000
1000
0000
0001
0000
0100
,
0000
0010
0000
1000
0000
0001
0000
0020
,
0000
0030
0000
1001
0001
0000
0001
0000
,
0100
0000
0110
0010
0000
1000
0000
0100
,
0000
1100
1000
0000
1000
0000
0001
0000
,
1001
0001
0000
1000
0000
0010
0000
1010
,
0010
0000
0010
0000
1000
0000
1100
0100
,
0000
1000
0000
0001
0000
0101
0100
0000
,
0100
0000
0001
0000
1000
0001
1000
0001
,
0020
0030
1001
0001
,
0100
0010
1000
0100
,
0001
0100
1000
0001
,
0010
0000
0001
0000
0100
0010
0100
0010
,
0200
0300
1001
0110
,
1001
0000
0001
0010
,
0001
0100
0001
0000
0101
0000
1010
0000
,
0101
0000
0001
1000
,
0010
1000
0010
0000
1010
0000
1100
0000
,
1010
0000
0000
0000
0010
1000
0010
1000
,
0010
1000
0001
0001
,
0100
0000
0100
0000
0010
0100
0010
0100
,
0020
0030
1001
0110
,
1001
0110
0010
0010
,
1000
1000
0100
0001
,
0100
0000
1000
0000
0001
0010
0001
0010
,
0002
0003
0011
1100
,
0011
0000
1100
0000
0001
0100
0010
0100
,
0002
0000
0000
0003
;

//--------------- dance-single - Alex ----------------
#NOTES:
     dance-single:
     Alex:
     Hard:
     9:
     0,0,0,0,0:
0000
0000
0000
0000
,
0000
0000
0000
0000
,
0000
0000
0001
0010
0100
1000
0001
0010
,
0001
1000
0010
1000
0001
0100
0002
0000
,
0003
0000
0000
0000
1000
0000
0001
0000
0100
0000
0010
0100
0020
0000
0030
0000
,
2000
3000
0001
0100
0010
0100
0002
0003
,
2000
3000
0200
0300
1000
0001
0100
0010
,
1000
0001
0011
0000
1100
0000
0011
0000
,
1100
0000
0000
0000
0001
0000
0100
0000
0010
0000
0100
0001
0200
0000
0300
0000
,
0002
0003
1000
0100
0010
0001
2000
3000
,
0002
0003
0200
0300
0010
1000
0001
0010
,
0001
0100
0101
0000
1010
0000
2002
0000
,
0000
0000
0000
0000
0000
0000
3003
0000
0000
0000
0000
0000
0002
0003
1000
0000
,
0100
0000
0020
0030
0001
0000
0100
0000
0020
0030
1000
0000
0001
0000
0200
0300
,
0001
0000
0010
0000
0002
0003
1000
0000
0010
0000
2000
3000
0001
0000
1000
0000
,
0002
0003
0100
0000
0010
0000
0200
0300
0001
0000
0010
0000
0200
0300
1000
0000
,
0001
0000
2000
3000
0010
0000
1000
0000
0002
0003
0010
0000
0001
0000
0200
0300
,
0010
1000
0100
0010
0001
0100
0010
0100
,
0001
0010
0100
1000
0001
0100
0010
1000
,
0001
1000
0001
1000
0001
0000
1000
0000
1001
0000
0000
0000
0001
0000
0010
0000
,
0011
0000
0001
0100
0110
0010
1000
0100
,
0010
0001
1000
0001
1001
0000
0001
0100
,
0101
0000
0100
0010
0110
0000
0010
1000
,
0100
1000
0010
0001
0010
1000
0100
0001
,
0100
1000
0001
0010
0100
1000
0001
0010
,
0001
1000
0010
1000
0001
0100
0010
1000
,
0100
0010
0001
0100
0010
0100
2002
0000
,
3003
0000
0000
0000
0002
0003
1000
0000
0100
0000
0010
0000
0001
0000
1000
0000
,
0010
0000
0200
0300
0001
0000
0010
0000
0100
0000
1000
0000
0001
0000
0100
0000
,
0020
0030
1000
0000
0001
0000
1000
0000
0001
0000
0100
0000
0001
0000
0020
0030
,
0001
0000
0100
0000
1000
0000
0100
0000
0001
0000
1000
0000
0020
0030
1000
0000
,
0001
0000
0010
0000
0001
0000
1000
0000
0010
0000
2000
3000
0001
0000
0100
0000
,
1000
0000
0100
0000
0001
0000
0010
0000
0002
0003
0100
0000
0010
0000
1000
0000
,
0001
0020
0030
0001
0100
0010
1000
2002
,
0000
3003
0000
0001
1000
0010
1000
0001
,
0100
0000
0001
0000
0010
0000
0100
1000
0100
0000
0010
0000
0001
0000
1000
0010
,
1000
0001
0100
0010
0010
0100
0100
0001
,
1000
0000
0100
0000
0010
0000
0001
0100
0001
0100
0001
0000
0100
0000
0220
0000
,
0000
0000
0330
0000
0000
0000
2000
3000
0001
0000
0010
0000
0100
0000
1000
0000
,
0001
0000
0100
0000
0020
0030
1000
0000
0001
0000
0100
0000
0100
0000
0001
0000
,
1000
0000
0020
0030
1000
0000
0001
0000
0100
0000
0001
0000
0010
0000
0100
0000
,
0020
0030
0001
0000
0100
0000
0010
0000
0100
0000
0001
0000
1000
0000
0200
0300
,
1000
0000
1000
0000
0001
0000
1000
0000
0010
0000
0100
0000
0002
0003
0010
0000
,
0100
0000
1000
0000
0001
0000
0100
0000
0100
0000
0002
0003
1000
0000
0010
0000
,
1000
0001
0020
0030
0001
0100
0010
1000
,
2002
0000
3003
0000
0001
1000
0010
1000
,
0001
0000
0010
0000
0001
0000
0100
0000
0010
0100
0010
0000
0100
0000
0001
0000
,
1000
0001
1000
0000
0001
0000
0100
0000
0001
0000
1000
0000
0010
0000
1000
0000
,
0001
0000
0010
0000
0001
0000
0100
0000
0010
0100
0010
0100
0010
0000
0100
0000
,
2002
0000
3003
0000
1001
0000
0001
0100
,
0101
0000
1000
0010
1000
0001
0010
0100
,
2200
0000
3300
0000
1001
0000
0001
0100
,
0101
0000
0010
1000
0001
0010
0001
0100
,
0010
0010
0100
0100
0110
0000
1010
0000
,
0101
0000
0011
0001
0100
0010
0100
0001
,
2000
0000
3002
0000
0103
0010
0000
0010
,
0100
0000
0000
0000
1001
0000
0000
0000
0001
0000
0100
0000
0010
0100
0010
0100
,
0020
0030
1001
0000
0001
1000
0010
1000
,
0001
0010
0001
0010
0010
0001
0100
0010
,
0100
0010
0100
0010
0200
0000
0300
0000
0001
0000
1000
0000
0000
0000
1000
0000
,
0001
0000
0000
0000
1001
0000
0001
0000
0100
0000
0010
0000
1000
0010
1000
0010
,
1000
0001
0100
0010
1010
0010
1000
0001
,
0100
0001
0010
0100
1000
0001
0100
0010
,
2002
0000
0000
3003
;

//--------------- dance-single - Alex ----------------
#NOTES:
     dance-single:
     Alex:
     Challenge:
     12:
     0,0,0,0,0:
0000
0000
0000
0000
,
0000
0010
0010
0010
,
0010
0000
0000
0000
0100
0001
0100
0001
0010
0100
1000
0001
1000
0010
1000
0100
,
0010
0100
1000
0001
0100
0010
0100
0001
0010
0100
0010
0001
0100
0010
0100
0001
,
1000
0010
0100
0001
1001
0000
0001
0000
0100
0000
0010
1000
0002
0000
0000
0003
,
2000
0000
0000
3000
0010
0000
0100
0000
0001
0000
0100
0000
0210
0000
0000
0300
,
0002
0000
0000
0003
0020
0000
0000
0030
0100
0000
1000
0000
0001
0000
0100
0000
,
0010
1000
1010
0000
0101
0000
1100
0000
,
0010
0001
0100
0010
0110
0000
0100
0000
0001
0000
1000
0010
2000
0000
0000
3000
,
0002
0000
0000
0003
0100
0000
0001
0000
0010
0000
0100
0000
2100
0000
0000
3000
,
0020
0000
0000
0030
0002
0000
0000
0003
0100
0000
1000
0000
0100
0000
0001
0000
,
0010
0100
1100
0000
0011
0000
1100
0000
,
1000
0100
0010
0001
1000
0010
0100
0001
0010
0100
1000
0001
1001
0000
0001
0000
,
0100
0000
0220
0330
0010
0000
1000
0000
2200
3300
1000
0000
0001
0000
2002
3003
,
0001
0000
0100
0000
0220
0330
0010
0000
1000
0000
2200
3300
1000
0000
0001
0000
,
2002
3003
0001
0000
0010
0000
0022
0033
0001
0000
0100
0000
0220
0330
0010
0000
,
1000
0000
2002
3003
0001
0000
1000
0000
2200
3300
0010
0000
0001
0000
0202
0303
,
0100
0000
0010
0000
0110
0000
0100
0001
0010
0100
1000
0001
0010
0001
1000
0010
,
1000
0010
0100
0010
0100
0001
0100
0001
0010
0100
1000
0001
0100
0001
1000
0010
,
0100
0001
1000
0100
0010
0000
0001
0000
0011
0000
0001
0000
0100
0000
0001
0000
,
1001
1000
0010
1000
1010
0010
1000
0100
,
1100
1000
0001
0100
0101
0001
1000
0010
,
1010
0000
0010
0000
0100
0000
0001
0000
0101
0000
0100
0000
0010
1000
0010
1000
,
0001
1000
0010
0100
0001
0010
0100
1000
0001
0100
0010
1000
0100
0010
0100
1000
,
0001
0100
0010
0100
0001
0100
0001
0010
0001
1000
0001
0100
0001
1000
0010
1000
,
0001
0010
0100
1000
0001
0100
0010
1000
0100
0010
0001
0100
0010
0100
0001
0010
,
0100
1000
0001
1000
0001
0100
0001
1000
0010
1000
0001
0010
0001
0100
0010
1000
,
0100
0010
0001
1000
2002
3003
0001
0000
0100
0000
0010
0000
1000
0100
1000
0000
,
0001
0000
2002
3003
0001
0000
0100
0000
0010
0000
0100
0001
0010
0000
0001
0000
,
2002
3003
1000
0000
0010
0000
1000
0000
0001
1000
0010
0000
0100
0000
2002
3003
,
0001
0000
0010
0000
0100
0000
1000
0001
0100
0000
0010
0000
2020
3030
0010
0000
,
0010
0000
0100
0000
0001
0010
0001
0000
0100
0000
0202
0303
0001
0000
1000
0000
,
1000
0000
0010
1000
0100
0000
1000
0000
2002
3003
0001
0000
0100
0000
1000
0000
,
0100
0000
0001
0000
0010
0000
0100
1000
0001
0010
0100
1000
0001
0100
0220
0000
,
0000
0000
0330
0000
0000
0000
0010
1000
0001
0100
0010
1000
0001
0010
0001
1000
,
0010
1000
0001
1000
0001
0100
0001
0100
0010
0100
0001
0010
0100
0010
0001
1000
,
0010
0100
0001
1000
0100
0010
0001
1000
0001
0100
0001
0010
0001
0100
0010
1000
,
0010
0100
0010
1000
0001
0100
0010
1000
0100
0010
0001
0100
0010
1000
2002
0000
,
0000
0000
3003
0000
0000
0000
2002
3003
1000
0000
0010
0000
0100
0000
0001
0010
,
0001
0000
0100
0000
0220
0330
0010
0000
1000
0000
0100
0000
1000
0001
0100
0000
,
0001
0000
0022
0033
0001
0000
0100
0000
0010
0000
1000
0100
1000
0000
0010
0000
,
2020
3030
0010
0000
1000
0000
0001
0000
0100
0010
0100
0000
0001
0000
0022
0033
,
0001
0000
1000
0000
0100
0000
1000
0001
0010
0000
0001
0000
2002
3003
0001
0000
,
0100
0000
0010
0000
1000
0010
0100
0000
0001
0000
0022
0033
0001
0000
0100
0000
,
0010
0000
0100
0000
0001
0000
1000
0000
0010
1000
0001
0100
0010
1000
0001
0010
,
0220
0000
0000
0000
0330
0000
0000
0000
0010
0001
0010
0001
0100
0001
0100
0010
,
0100
0001
0010
0100
1000
0001
1000
0010
1000
0001
0100
0001
0100
0010
1000
0100
,
0010
0100
1000
0001
0100
0010
0100
0001
0010
0100
1000
0001
0100
0010
1000
0001
,
1000
0010
1000
0100
1000
0001
0100
0010
1000
0001
1000
0001
0100
0001
0010
0001
,
0202
0000
0303
0000
1000
0001
1001
0001
,
0100
0000
0010
0000
0110
0000
0010
0000
1000
0000
0100
0000
0010
0001
0100
0010
,
0200
0001
0301
1000
1001
0000
0001
0100
,
0110
0000
0010
0000
1000
0000
0100
0000
0010
0000
0001
0000
0100
0001
0010
0100
,
1000
0001
0010
0001
1000
0001
1000
0010
2020
0000
3030
0000
2002
0000
3003
0000
,
0202
0303
0110
0100
0001
1000
0010
1000
,
1000
0001
1000
0100
1000
0000
0001
0000
0101
0000
0110
0000
0000
0000
1010
0000
,
1100
0000
0000
0000
0011
0000
0101
0000
0100
0000
0010
0000
1000
0010
0100
0001
,
2000
0000
0000
3000
0001
0010
0100
1000
0001
0000
1000
0010
1000
0001
0100
0001
,
0010
0000
0010
0000
0001
0000
0100
0000
0010
1000
0010
0000
1000
0000
0001
0000
,
0001
1000
0010
0100
0002
0000
0000
0003
1001
0000
0110
0000
0000
0000
0110
0000
,
1001
0000
0000
0000
0011
0000
0101
0000
0100
0000
0010
0000
1000
0100
0010
0001
,
1000
0001
0010
0001
1000
0010
1000
0001
0100
0001
0010
0100
0010
0001
1000
0010
,
1000
0001
1000
0100
0010
0001
0100
0010
0100
0001
0010
0100
1000
0001
0100
0010
,
0220
0000
0000
0330
;
