#TITLE:Pump Me Amadeus;
#SUBTITLE:;
#ARTIST:Banya;
#TITLETRANSLIT:;
#SUBTITLETRANSLIT:;
#ARTISTTRANSLIT:;
#GENRE:;
#CREDIT:;
#MUSIC:Pump Me Amadeus.ogg;
#BANNER:Pump Me Amadeus.png;
#BACKGROUND:Pump Me Amadeus-BG.png;
#CDTITLE:;
#SAMPLESTART:18.424;
#SAMPLELENGTH:13.934;
#SELECTABLE:YES;
#OFFSET:-0.115;
#BPMS:0.000=170.000;
#STOPS:;
#BGCHANGES:;
#FGCHANGES:;

//--------------- dance-single - Alex ----------------
#NOTES:
     dance-single:
     Alex:
     Beginner:
     1:
     0,0,0,0,0:
0000
0000
0000
0000
,
0000
0000
0000
0000
,
0000
0000
0000
0000
,
0000
0000
0000
0000
,
0000
0000
0000
0000
,
0010
0000
0000
0000
,
1000
0000
0000
0000
,
0001
0000
0000
0000
,
0001
0000
0000
0000
,
1000
0000
0000
0000
,
0010
0000
0000
0000
,
1000
0000
0000
0000
,
1000
0000
0000
0000
,
1001
0000
0000
0000
,
0001
0000
0000
0000
,
0010
0000
0000
0000
,
0001
0000
0000
0000
,
1000
0000
0000
0000
,
1000
0000
0000
0000
,
0100
0000
0000
0000
,
0010
0000
0000
0000
,
1000
0000
0000
0000
,
0001
0000
0000
0000
,
0100
0000
0000
0000
,
0100
0000
0000
0000
,
1001
0000
0000
0000
,
0010
0000
0000
0000
,
1000
0000
0000
0000
,
1000
0000
0000
0000
,
0001
0000
0000
0000
,
0001
0000
0000
0000
,
1000
0000
0000
0000
,
0100
0000
0000
0000
,
0110
0000
0000
0000
,
1000
0000
0000
0000
,
0001
0000
0000
0000
,
0001
0000
0000
0000
,
0100
0000
0000
0000
,
0010
0000
0000
0000
,
1000
0000
0000
0000
,
0001
0000
0000
0000
,
1000
0000
0000
0000
,
1001
0000
0000
0000
,
0010
0000
0000
0000
,
1000
0000
0000
0000
,
0001
0000
0000
0000
,
0001
0000
0000
0000
,
1000
0000
0000
0000
,
0100
0000
0000
0000
,
0100
0000
0000
0000
,
1001
0000
0000
0000
,
0010
0000
0000
0000
,
0001
0000
0000
0000
,
1000
0000
0000
0000
,
1000
0000
0000
0000
,
0010
0000
0000
0000
,
0100
0000
0000
0000
,
0100
0000
0000
0000
,
1001
0000
0000
0000
,
0001
0000
0000
0000
,
0010
0000
0000
0000
,
0001
0000
0000
0000
,
1000
0000
1000
0000
,
1000
0000
0000
0000
,
0001
0000
0001
0000
,
0001
0000
0000
0000
,
0100
0000
0010
0000
,
0100
0000
0000
0000
;

//--------------- dance-single - Alex ----------------
#NOTES:
     dance-single:
     Alex:
     Easy:
     3:
     0,0,0,0,0:
0000
0000
0000
0000
,
0000
0000
0000
0000
,
0000
0000
0000
0000
,
0000
0000
0000
0000
,
0000
0000
0000
0000
,
0001
0000
1000
0000
,
0001
0000
1000
0000
,
0010
0000
0100
0000
,
0010
0000
0100
0000
,
0001
0000
1000
0000
,
0001
0000
0100
0000
,
0001
0001
0001
0001
,
1001
0000
0000
0000
,
0010
0000
0010
0000
,
1000
0000
1000
0000
,
0001
0000
0001
0000
,
0100
0100
0100
0000
,
0010
0000
0010
0000
,
0001
0000
0001
0000
,
1000
0000
1000
0000
,
0100
0100
0100
0000
,
1000
0000
0001
0000
,
1000
0000
0010
0000
,
0100
0000
0001
0000
,
1000
0000
0001
0000
,
1000
1000
1000
0000
,
0001
0001
0001
0000
,
0100
0000
0010
0000
,
0100
0000
0001
0000
,
1001
0000
0000
0000
,
1001
0000
0000
0000
,
1000
1000
0001
0001
,
1000
0000
0001
0000
,
1001
0000
1001
0000
,
0110
0000
0110
0000
,
0010
0000
1000
0000
,
0001
0000
0010
0000
,
0001
0000
0001
0000
,
1000
0000
0100
0000
,
1000
1000
0001
0001
,
1000
1000
0001
0001
,
1001
0000
0000
0000
,
0110
0000
0000
0000
,
1001
0000
0000
0000
,
0110
0000
0000
0000
,
0100
0000
0100
0000
,
1001
0000
0000
0000
,
0110
0000
0000
0000
,
1001
0000
0000
0000
,
0010
0000
0010
0000
,
1001
0000
1000
0000
,
0001
0000
1000
0000
,
0001
0000
0001
0000
,
0010
0010
0010
0000
,
0001
0000
0100
0000
,
0001
0000
1000
0000
,
0010
0000
1000
0000
,
0100
0100
0100
0000
,
1001
0000
1000
0000
,
0001
0000
1000
0000
,
0010
0000
0100
0000
,
0001
0000
1000
0000
,
1001
0000
1001
0000
,
1001
0000
0000
0000
,
0110
0000
0110
0000
,
0110
0000
0000
0000
,
1001
0000
1001
0000
,
1001
0000
0000
0000
;

//--------------- dance-single - Alex ----------------
#NOTES:
     dance-single:
     Alex:
     Medium:
     6:
     0,0,0,0,0:
0000
0000
0000
0000
,
0000
0000
0000
0000
,
0000
0000
0000
0000
,
0000
0000
0000
0000
,
0000
0000
0000
0000
,
0001
1000
0010
1000
,
0001
0010
0100
1000
,
0001
0100
0010
0100
,
0001
1000
0100
0010
,
0001
1000
0010
1000
,
0001
0010
0100
1000
,
0001
0001
1000
1000
,
1001
1001
1001
0000
,
0001
0001
1000
1000
,
0010
0010
0100
0100
,
0001
0001
1000
1000
,
0010
1000
0001
1000
,
0100
0100
0010
0010
,
0001
0001
1000
1000
,
0001
0100
0010
0100
,
0001
0001
1000
1000
,
0001
0010
0100
1000
,
0001
0100
0010
0100
,
0001
0010
0001
1000
,
0010
1000
0001
1000
,
1001
0000
1001
0000
,
0110
0110
0110
0000
,
0010
1000
0001
0010
,
0001
0001
1000
1000
,
1001
0000
1001
0000
,
0110
0000
0110
0000
,
0010
1000
0100
0010
,
0001
0001
1000
1000
,
1010
1000
0001
0100
,
0010
0010
0100
0001
,
0010
0100
1000
0001
,
1000
1000
0001
0001
,
0100
0010
0100
0001
,
0010
0001
1000
0100
,
1000
0001
0100
0010
,
1000
0001
0010
0100
,
1100
0000
0000
0000
,
1001
0001
0100
0010
,
0100
0100
0001
0001
,
1000
0100
0010
0100
,
1001
0000
1001
0000
,
0010
0010
1000
1000
,
0001
0010
0001
0001
,
0100
0100
0010
1000
,
1010
0000
1010
0000
,
1000
1000
0100
0100
,
1000
0001
0010
0001
,
0100
0100
0010
0010
,
1000
0100
0010
0100
,
1000
1000
0001
0001
,
1000
0010
1000
0001
,
0010
0010
0001
0001
,
0100
0010
0100
0001
,
0010
0100
1000
0001
,
1000
0010
1000
0001
,
0100
0010
0100
0001
,
0010
0100
1000
0001
,
1000
0001
0000
1000
0000
0010
0000
0100
,
0000
0001
0010
0000
0000
0000
0000
0000
,
0001
0100
0000
0001
0000
1000
0000
0001
,
0000
1000
0100
0000
0000
0000
0000
0000
,
1000
0010
0000
1000
0000
0001
0000
1000
,
0000
0010
0100
0000
0000
0000
0000
0000
;

//--------------- dance-single - Alex ----------------
#NOTES:
     dance-single:
     Alex:
     Hard:
     9:
     0,0,0,0,0:
0000
0000
0000
0000
,
0000
0000
0000
0000
,
0000
0000
0000
0000
,
0000
0000
0000
0000
,
0000
0000
0000
0000
,
0001
0010
0100
1000
0001
0100
0010
0000
,
1000
0100
0010
0001
1000
0010
1000
0000
,
0001
0010
0001
0100
0010
0100
0001
0000
,
0010
0100
1000
0001
1000
0010
1000
0000
,
0001
1000
0100
0010
0001
1000
0010
0000
,
0100
0000
0001
0000
0010
0000
0000
0000
0001
0000
1000
0000
0010
0000
0000
1000
,
0001
0000
0000
0001
0100
0000
0000
0100
0010
0000
0000
0010
1000
0000
0000
1000
,
0100
1100
0011
0000
,
0001
1000
0010
1000
0001
1000
0100
1000
,
0001
0100
0010
0100
0001
0010
0100
1000
,
0001
1000
0010
1000
0001
0010
0001
1000
,
0100
1000
0001
0100
,
0010
1000
0100
0010
0100
1000
0001
1000
,
0010
1000
0001
0010
0100
0010
0001
0100
,
0010
0100
0001
1000
0100
0010
0001
1000
,
0001
1000
0010
0100
,
0001
0010
0001
0100
0001
0010
0001
0100
,
0010
0100
0001
0010
0100
1000
0001
1000
,
0010
1000
0001
1000
0100
0010
0001
1000
,
0010
0100
0001
0010
0100
1000
0001
1000
,
0010
0100
0010
0000
1000
0100
1000
0000
,
0001
0100
0010
0100
0001
0100
0010
1000
,
0001
0010
0100
1000
,
0001
0001
1000
1000
0010
0010
0100
0100
,
0101
0000
0110
0000
,
1010
1100
1001
0000
,
0001
1000
0010
1000
0001
0010
0100
1000
,
0001
0100
0010
0100
,
0001
0010
0100
0010
0001
0100
0010
0000
,
0100
0001
0010
0100
1000
0001
1000
0000
,
0010
1000
0100
0010
0001
1000
0010
1000
,
0001
1000
0010
0100
,
0001
0010
0100
1000
0001
1000
0010
0100
,
0001
0010
0001
1000
0100
0010
0001
1000
,
0010
1000
0001
0000
1000
0010
0100
0000
,
0001
0010
0100
0010
0001
0100
0010
0100
,
1001
0000
0000
0000
,
0001
1000
0001
1000
0001
1000
0001
0000
,
1000
0100
1000
0100
1000
0100
1000
0000
,
0001
0010
0001
0010
0001
0010
0001
0000
,
1000
0010
1000
0000
0001
0100
0001
0000
,
0010
0100
1000
0001
1000
0010
0100
0000
,
0001
0010
0001
0100
0010
0100
0001
0000
,
1000
0100
0010
0100
1000
0001
1000
0000
,
0010
0100
0010
0000
1000
0001
1000
0000
,
0001
0010
0001
1000
0010
1000
0001
1000
,
0100
0010
0001
0010
0001
1000
0010
0100
,
0001
0010
0100
1000
0001
1000
0010
1000
,
0001
1000
0001
1000
,
0001
1000
0001
0100
0001
1000
0010
1000
,
0001
1000
0100
0010
0001
1000
0010
0100
,
0001
0010
0100
1000
0001
0100
0010
0100
,
0001
1000
0100
0010
,
0001
0100
0010
0100
0001
0010
0100
1000
,
0001
1000
0010
1000
0001
0010
0001
1000
,
0100
0010
0001
1000
0010
0100
0001
0010
,
0100
1000
0001
0100
0010
1000
0001
1000
,
0001
0100
0000
0010
0000
0100
0000
0001
,
0000
1000
0010
0000
1000
0001
0010
0100
,
1000
0001
0000
0100
0000
0010
0000
0100
,
0000
0001
0010
0000
0001
1000
0100
0010
,
0001
1000
0000
0010
0000
0100
0000
0001
,
0000
1001
1001
0000
0000
0000
0000
0000
;
