#TITLE:Pop The Track;
#SUBTITLE:;
#ARTIST:J-Mi & Midi-D feat. Hanna Stockzell;
#TITLETRANSLIT:;
#SUBTITLETRANSLIT:;
#ARTISTTRANSLIT:;
#GENRE:;
#CREDIT:;
#MUSIC:Pop The Track.ogg;
#BANNER:Pop The Track.png;
#BACKGROUND:Pop The Track-BG.png;
#CDTITLE:;
#SAMPLESTART:56.040;
#SAMPLELENGTH:12.898;
#SELECTABLE:YES;
#OFFSET:-0.212;
#BPMS:0.000=160.000;
#STOPS:;
#BGCHANGES:;
#FGCHANGES:;

//--------------- dance-single - Alex ----------------
#NOTES:
     dance-single:
     Alex:
     Beginner:
     1:
     0,0,0,0,0:
0000
0000
0000
0000
,
0000
0000
0000
0000
,
0000
0000
0000
0000
,
0000
0000
0000
0000
,
0000
0000
0000
0000
,
0000
0001
0000
0000
,
0000
0001
0000
0000
,
0000
1000
0000
0000
,
0000
0010
0000
0000
,
0000
0010
0000
0000
,
0000
1000
0000
0000
,
0000
0100
0000
0000
,
0000
1000
0000
0000
,
0000
0001
0000
0000
,
0000
1000
0000
0000
,
0000
0010
0000
0000
,
0000
0100
0000
0000
,
0000
0100
0000
0000
,
0000
0010
0000
0000
,
0000
1000
0000
0000
,
0000
0001
0000
0001
,
0000
0002
0000
0003
,
0000
0200
0000
0300
,
0000
0010
0000
0000
,
0000
0010
0000
0000
,
0000
2000
0000
3000
,
0000
0020
0000
0030
,
0000
1000
0000
0000
,
0000
0001
0000
0001
,
0000
1001
0000
0000
,
0000
0010
0000
0000
,
0000
1000
0000
0000
,
0000
0100
0000
0000
,
0000
1000
0000
0000
,
0000
0001
0000
0000
,
0000
0100
0000
0100
,
0000
0200
0000
0300
,
0000
0110
0000
0000
,
0000
0010
0000
0000
,
0000
1000
0000
0000
,
0000
0001
0000
0000
,
0000
0001
0000
0000
,
0000
1000
0000
0000
,
0000
0100
0000
0000
,
0000
0100
0000
0000
,
0000
0010
0000
0000
,
0000
1000
0000
0000
,
0000
0001
0000
0000
,
0000
0010
0000
0000
,
0000
0001
0000
0000
,
0000
1000
0000
0000
,
0000
0100
0000
0100
,
0000
0100
0000
0000
,
0000
1001
0000
0000
,
0000
0001
0000
0000
,
0000
1000
0000
0000
,
0000
0010
0000
0000
,
0000
1000
0000
0000
,
0000
0001
0000
0000
,
0000
0100
0000
0000
,
0000
0001
0000
0000
,
0000
0010
0000
0000
,
0000
1000
0000
0000
,
0000
1000
0000
0000
,
0000
0100
0000
0000
,
0000
0100
0000
0000
,
0000
0100
0000
0000
,
0000
1000
0000
0000
,
0000
0001
0000
1000
,
0000
1001
0000
0000
;

//--------------- dance-single - Alex ----------------
#NOTES:
     dance-single:
     Alex:
     Easy:
     4:
     0,0,0,0,0:
0000
0000
0000
0000
,
0000
0000
0000
0000
,
0000
0000
0000
0000
,
0000
0000
0000
0000
,
0000
0000
0000
0000
,
0000
0001
0100
0001
,
0000
0100
0000
0010
,
0000
1000
0010
1000
,
0000
0001
0000
1000
,
0000
0001
0100
0001
,
0000
0100
0000
0010
,
0000
2000
0000
3000
,
0000
1001
0000
0110
,
0000
0010
1000
0100
,
0000
0010
0000
0001
,
0000
0100
0001
0100
,
0000
0010
0000
0010
,
0000
1000
0001
1000
,
0000
0001
0000
0001
,
0000
0200
0000
0300
,
0000
0010
0010
0100
,
0100
0101
0000
1001
,
0000
0010
0010
0020
,
0030
1000
0010
1000
,
0010
0100
0001
0100
,
0001
1001
0000
1001
,
0000
0001
0100
0002
,
0003
0100
0100
0010
,
0010
1000
0010
0100
,
0010
1010
0000
0100
,
0000
0001
0000
1000
,
0000
0001
0000
0100
,
0010
0100
0100
0001
,
0000
1000
0000
0001
,
0000
1000
0000
0010
,
0000
1000
1000
0001
,
0001
0020
0000
0030
,
0000
1001
0000
0110
,
0000
0010
0100
0010
,
0000
1010
0000
1100
,
0000
1000
0100
1000
,
0000
1001
0000
1001
,
0000
0001
0100
0001
,
0000
0101
0000
0101
,
0000
0200
0000
0300
,
0000
0010
0100
0010
,
0000
1010
0000
1001
,
0000
0001
0100
0001
,
0000
0011
0000
0011
,
0000
0001
1000
0001
,
0000
1001
0000
1001
,
0000
1000
0010
1000
,
0000
0002
0000
0003
,
0000
1000
0001
1000
,
0000
0001
0000
0100
,
0000
0010
0100
0010
,
0000
1000
0000
0100
,
0000
1000
0100
1000
,
0000
0001
0000
0001
,
0000
0100
0001
0100
,
0001
0020
0000
0030
,
0000
0001
0010
0001
,
0000
1000
0000
1000
,
0000
0010
0010
0010
,
0000
1000
0000
0100
,
0000
1000
0001
1000
,
0000
0001
0000
0100
,
0000
0020
0000
0030
,
0000
0100
0100
0001
,
0001
1001
0000
0000
;

//--------------- dance-single - Alex ----------------
#NOTES:
     dance-single:
     Alex:
     Medium:
     6:
     0,0,0,0,0:
0000
0000
0000
0000
,
0000
0000
0000
0000
,
0000
0000
0000
0000
,
0000
0000
0000
0000
,
0000
0000
0000
0000
,
0000
1000
0001
1000
,
0001
0000
0100
0000
0100
0000
0010
0100
,
0010
0100
0001
0010
,
0001
0000
1000
0000
1000
0000
0001
0100
,
0001
0100
0010
1000
,
0001
0000
0010
0000
0001
0000
1000
0100
,
1000
0001
0100
0010
,
0100
0101
0010
1100
,
1000
0001
0100
0100
,
0001
0000
1000
0000
0010
0000
1000
0001
,
1000
0001
0010
0001
,
0100
0000
0100
0000
0001
0000
1000
0010
,
1000
0001
0010
0001
,
1000
0000
0001
0000
0100
0000
0010
0100
,
0010
0100
0100
0001
,
0001
1001
1001
0110
,
0110
0020
1030
2000
,
3001
0000
0001
1000
0001
1000
0001
0000
,
1001
0001
0001
0100
,
0100
0010
0010
1000
,
1000
0002
0013
2000
,
3100
0000
0001
1000
0001
1000
0001
0000
,
1001
0001
0001
1000
,
1000
0000
0010
0000
0100
0000
0010
0100
,
0010
0110
0000
0100
,
0001
0100
0010
1000
,
0001
0010
0001
0000
1000
0000
0010
0000
,
1000
0010
0100
0101
,
1010
1100
0010
0001
,
0100
0010
0100
0001
,
1000
0100
1000
0000
0000
0000
1001
0000
,
0000
0220
0000
0330
,
0000
0100
0100
0001
,
0001
0000
1000
0100
1000
0000
0001
0010
,
0001
0100
0010
0100
,
0001
0000
1000
0001
1000
0001
1000
0000
,
1001
0001
1000
0010
,
0100
0000
0001
0010
0001
0000
0100
0001
,
0100
0001
0001
0100
,
0100
0000
0010
0100
0010
0100
0020
0000
,
0030
1001
1000
0001
,
0100
0000
0010
1000
0010
0000
1000
0100
,
1000
0001
0001
1000
,
1000
0000
0010
0100
0010
0100
0010
0000
,
0110
0100
0100
0001
,
1000
0000
0001
0010
0001
0000
1000
0010
,
1000
0001
0001
0100
,
0010
0000
1000
0100
1000
0100
2000
0000
,
3000
0001
0001
0100
,
0100
0000
0010
0000
1000
0000
0001
0010
,
0001
1000
0010
1000
,
0001
0000
0100
0000
0100
0000
0001
1000
,
0001
1000
0010
1000
,
1000
0000
0001
0000
0010
0000
0001
0100
,
0001
0100
0100
0010
,
0010
1010
0100
0101
,
0001
0010
0010
0001
,
0100
0000
0010
0000
0100
0000
0001
0010
,
0001
1000
1000
0001
,
0100
0000
0010
0000
1000
0000
0001
1000
,
0001
1000
0100
1000
,
1000
0000
0010
0000
0100
0000
0010
1000
,
0010
0100
0001
1000
,
0001
0011
0011
1100
,
1100
2002
0000
0000
,
0000
0000
0000
0000
,
0000
0000
0000
0000
,
0000
0000
0000
0000
,
0000
3003
0000
0000
;

//--------------- dance-single - Alex ----------------
#NOTES:
     dance-single:
     Alex:
     Hard:
     9:
     0,0,0,0,0:
0000
0000
0000
0000
,
0000
0000
0000
0000
,
0000
0000
0000
0000
,
0000
0000
0000
0000
,
0000
0000
0000
0000
,
0000
0000
0001
0100
0000
0101
0000
0001
,
0100
0010
0100
0001
0010
0100
1000
0001
,
0100
0010
1000
0001
0000
1001
0000
0001
,
1000
0010
0100
0001
1000
0100
0010
0100
,
1000
0001
0100
0010
0000
0110
0000
0010
,
0100
0001
0010
0001
1000
0010
1000
0001
,
1000
0100
0020
0000
0001
0000
0100
0000
,
1030
0000
0001
0100
0010
0100
0001
0010
,
0100
0000
1000
0001
0000
0101
0000
0001
,
0100
0010
0010
1000
0001
1000
0100
1000
,
0010
1000
0001
0010
0000
0011
0000
0001
,
0001
0100
0010
0100
0001
0010
0100
1000
,
0001
0100
0010
1000
0000
1100
0000
0100
,
0100
1000
0010
0100
0001
0010
0001
1000
,
0010
0100
0002
0000
0010
0000
0100
0000
,
0013
0001
1000
0010
,
0100
0110
1001
0110
,
1001
0000
0001
0100
0010
1000
0100
0010
,
0001
0000
1000
0001
0100
0001
1000
0010
,
1010
0000
0010
0100
0001
0010
0001
0100
,
0101
1010
1100
1010
,
1100
0000
0100
1000
0010
1000
0100
0010
,
0001
0000
0100
0010
0100
0001
0010
0001
,
0101
0000
0100
0100
0001
0001
1000
0010
,
1010
0000
0010
1000
0001
0100
0020
0030
,
2000
3000
0002
0003
0020
0030
0002
0003
,
0100
0010
0100
0001
0010
0001
1001
0000
,
0110
1010
1100
0011
,
0101
0000
0100
0010
0100
0001
0020
0030
,
0002
0003
2000
3000
0020
0030
0100
0001
,
1000
0001
0100
0000
0110
0000
1001
0000
,
0110
2002
0000
0000
,
3003
0000
0001
0000
1000
0020
0000
1030
,
0001
0010
0001
0100
0100
0001
1000
0010
,
1000
0001
0010
0000
0001
0200
0000
0310
,
0000
1000
0001
0010
0100
1000
1001
0000
,
0110
0000
0010
0000
1000
0200
0000
1300
,
0001
0100
0001
0001
1000
1000
0001
0010
,
0001
1000
0010
0000
0100
0002
0000
1003
,
0000
0001
0100
0010
1000
0001
0011
0000
,
0101
0000
0100
0000
0010
0200
0000
0301
,
1000
0001
0100
0100
0001
0001
1000
0010
,
1000
0000
0001
0000
0010
0002
0000
0103
,
0000
0100
0100
0001
1000
0010
1010
0000
,
0110
0000
0010
0000
1000
0200
0000
1300
,
1000
0001
0100
0010
1000
0001
0010
0001
,
1000
0000
0001
0000
1000
0020
0000
0130
,
0000
0001
0010
0100
0010
0001
0011
0000
,
0101
0000
0100
0010
0000
1010
0000
0010
,
1000
0100
1000
0010
1000
0010
0100
0001
,
0010
0100
1000
0001
0000
1001
0000
0001
,
1000
0010
0100
0100
0001
0001
0010
0001
,
1000
0010
0100
0001
0000
0101
0000
0001
,
1000
0001
0010
0001
0100
0010
0100
0001
,
0010
0100
2000
0000
0010
0000
0100
0000
,
3010
1010
1100
0011
,
0101
0000
0100
0001
0000
1001
0000
0001
,
1000
0010
0100
0100
0001
0001
1000
0100
,
0010
0100
1000
0001
0000
0110
0000
0010
,
0010
0100
0001
0010
0001
1000
0010
1000
,
0001
0100
0010
1000
0000
1001
0000
0001
,
1000
0100
0010
0001
0100
0010
0100
0001
,
0010
0100
2000
0000
0001
0000
0010
0000
,
3001
0011
0101
1010
,
1100
2002
0000
0000
,
0000
0000
0000
0000
,
0000
0000
0000
0000
,
0000
0000
0000
0000
,
0000
3003
0000
0000
;
