#TITLE:Phantom;
#SUBTITLE:;
#ARTIST:Banya;
#TITLETRANSLIT:;
#SUBTITLETRANSLIT:;
#ARTISTTRANSLIT:;
#GENRE:;
#CREDIT:;
#MUSIC:Phantom.ogg;
#BANNER:Phantom.png;
#BACKGROUND:Phantom-BG.png;
#CDTITLE:;
#SAMPLESTART:35.517;
#SAMPLELENGTH:14.338;
#SELECTABLE:YES;
#OFFSET:-0.333;
#BPMS:0.000=136.000
,48.000=68.000
,64.000=136.000
;
#STOPS:;
#BGCHANGES:;
#FGCHANGES:;

//--------------- dance-single - Alex ----------------
#NOTES:
     dance-single:
     Alex:
     Beginner:
     1:
     0,0,0,0,0:
0000
0000
0000
0000
,
0000
0000
0000
0000
,
0000
0000
0000
0000
,
0000
0000
0000
0000
,
0110
0000
0000
0000
,
0001
0000
0000
0000
,
1000
0000
0000
0000
,
1000
0000
0000
0000
,
0001
0000
0000
0000
,
0100
0000
0000
0000
,
0010
0000
0000
0000
,
0010
0000
0000
0000
,
0110
0000
0001
0000
,
1000
0000
0001
0000
,
0100
0000
0100
0000
,
0010
0000
1000
1000
,
1000
0000
0000
0000
,
1000
0000
0000
0000
,
0001
0000
0000
0000
,
0001
0000
0000
0000
,
0100
0000
0000
0000
,
0001
0000
0000
0000
,
0001
0000
0000
0000
,
0010
0000
0000
0000
,
1001
0000
0000
0000
,
0001
0000
0001
0000
,
0001
0000
0000
0000
,
1000
0000
1000
0000
,
1000
0000
0000
0000
,
0100
0000
0100
0000
,
0100
0000
0000
0000
,
1000
0000
1000
0000
,
1000
0000
0000
0000
,
0000
0000
0000
0000
,
0001
0000
0000
0000
,
0000
0000
0000
0000
,
1001
0000
0000
0000
,
0010
0000
0000
0000
,
0100
0000
0000
0000
,
0100
0000
0000
0000
,
0001
0000
0000
0000
,
0001
0000
0000
0000
,
1000
0000
0000
0000
,
1000
0000
0000
0000
,
0010
0000
0000
0000
,
0010
0000
0000
0000
,
1000
0000
0000
0000
,
0001
0000
0000
0000
,
1001
0000
0000
0000
;

//--------------- dance-single - Alex ----------------
#NOTES:
     dance-single:
     Alex:
     Easy:
     3:
     0,0,0,0,0:
0000
0000
0000
0000
,
0000
0000
0000
0000
,
0000
0000
0000
0000
,
0000
0000
0000
0000
,
1001
0000
0001
0000
,
1000
0000
0001
0000
,
0100
0000
0010
0000
,
1000
0000
0001
0001
,
0001
0000
1000
0000
,
0100
0000
1000
0000
,
0010
0000
1000
0000
,
0001
0000
0100
0100
,
0200
0310
0010
1000
,
0002
0000
0103
0000
0010
0010
0010
0000
,
2000
3010
0010
1000
,
0002
0000
0103
0000
0100
0100
0100
0000
,
1001
0000
1001
0000
,
0010
0010
0010
0000
,
1001
0000
1001
0000
,
0100
0100
0100
0000
,
0110
0000
0110
0000
,
0001
0001
0001
0000
,
0110
0000
0110
0000
,
1000
1000
1000
0000
,
2002
0000
3003
0000
,
0001
1000
0001
1000
,
0200
0000
0300
0000
,
1000
1000
0010
0010
,
0200
0000
0300
0000
,
0010
0010
0100
0100
,
0002
0000
0003
0000
,
1000
1000
0001
0001
,
2002
0000
3003
0000
,
0220
0000
0330
0000
,
0022
0000
0033
0000
,
0202
0000
0303
0000
,
0100
0100
0100
0000
,
0010
0000
0010
0000
,
1000
1000
1000
0000
,
0001
0000
0001
0000
,
0100
0100
0100
0000
,
0010
0000
1000
0000
,
0001
0001
0001
0000
,
1000
0000
0100
0000
,
1000
1000
1000
0000
,
0001
0001
0001
0000
,
0100
0100
0100
0000
,
0010
0010
0010
0000
,
1001
0000
0000
0000
;

//--------------- dance-single - Alex ----------------
#NOTES:
     dance-single:
     Alex:
     Medium:
     5:
     0,0,0,0,0:
0000
0000
0000
0000
,
0000
0000
0000
0000
,
0000
0000
2002
0000
,
0000
0000
3003
0000
,
1001
0001
0100
0010
,
1000
0001
0010
0001
,
0101
0100
0100
0001
,
1000
0010
1000
0001
,
1001
1000
0010
0100
,
0100
0001
1000
0100
,
1100
1000
1000
0001
,
0100
0010
0100
0001
,
2001
0000
3020
0000
0230
0000
0301
1000
,
0002
0000
0203
0000
0310
0010
1000
1000
,
0200
0000
2300
0000
3002
0000
0103
0010
,
0200
0000
0302
0000
0013
0010
0001
0001
,
1001
0001
0100
0010
,
0010
1000
0100
1000
,
1010
0010
0010
1000
,
0001
0100
0001
1000
,
1001
0001
0010
0001
,
0100
0010
0010
1000
,
1100
1000
1000
0001
,
0100
0010
0100
0001
,
2002
0000
3003
0000
0001
1000
0001
1000
,
0002
0000
0003
2000
0000
3000
0010
0100
,
0020
0000
0000
0030
0100
0001
0100
0001
,
0200
0000
0300
0020
0000
0030
2000
0000
,
3001
0001
1000
1000
,
0020
0000
0030
0200
0000
0300
0001
1000
,
0200
0000
0000
0300
1000
0001
1000
0001
,
2000
0000
3000
0002
0000
0003
0100
0000
,
0020
0000
0230
0000
,
0302
0000
2003
0000
,
3200
0000
2300
0000
,
3020
0000
0000
0030
1001
0000
1001
0000
,
0001
0100
0010
0010
,
1000
0000
0000
0000
0001
0000
0000
0000
0100
0000
0000
0100
0000
0000
0001
0000
,
1000
0001
0010
0001
,
1000
0000
0000
0000
0010
0000
0000
0000
1000
0000
0000
1000
0000
0000
0001
0000
,
0100
0001
0001
1000
,
0010
0000
0000
0000
1000
0000
0000
0000
0001
0000
0000
0001
0000
0000
0100
0000
,
0001
0100
0100
0010
,
1000
0000
0000
0000
0001
0000
0000
0000
0010
0000
0000
0010
0000
0000
0001
0000
,
1000
0001
0100
0010
,
0100
0001
1000
1000
,
0001
0001
0100
0100
,
0010
0010
1000
1000
,
2002
0000
0000
0000
,
0000
0000
0000
0000
,
0000
0000
0000
0000
,
3003
0000
0000
0000
;

//--------------- dance-single - Alex ----------------
#NOTES:
     dance-single:
     Alex:
     Hard:
     9:
     0,0,0,0,0:
0000
0000
0000
0000
,
0000
0000
0000
0000
,
0004
4000
0000
0000
0000
0000
0000
0000
3003
0000
0000
0000
0010
0000
0000
0000
,
0400
0040
0000
0000
0330
0000
0000
0000
4000
0004
0000
0000
3003
0000
0000
0000
,
1001
0000
0001
0010
0100
1000
0001
0100
,
0010
0100
0001
1000
0010
1000
0001
0100
,
0110
0000
0010
1000
0100
0010
0100
1000
,
0001
0100
0010
0100
0001
0010
0001
1000
,
1001
0000
0001
1000
0010
1000
0001
1000
,
0100
1000
0001
0100
0010
0100
0001
1000
,
1010
0000
0010
0100
0010
1000
0010
0100
,
0001
0010
0100
1000
0001
0100
0010
0100
,
0101
0000
0110
0000
0010
1000
0100
0000
1100
0000
0011
0000
0001
0100
0010
0100
,
0001
0000
1001
0000
1000
0010
0100
0000
0002
0003
0020
0030
0200
0300
2000
3000
,
1010
0000
0101
0000
0001
1000
0100
0000
0011
0000
1100
0000
0010
0001
0100
0010
,
0100
0000
0101
0000
0010
1000
0001
0000
2000
3000
0002
0003
0200
0300
0020
0030
,
2000
0000
3010
0010
0100
0001
1000
0100
,
0011
1100
0011
1100
,
0020
0000
0130
0001
1000
0100
1000
0001
,
0101
0110
0101
1001
,
0020
0000
1030
0100
1000
0010
1000
0001
,
0011
0101
0110
0101
,
0002
0000
0013
0100
1000
0001
0100
0010
,
1010
0101
1001
0110
,
0020
0000
0000
0000
0130
0000
0001
0000
1000
0000
0100
0000
0010
0001
0000
0001
,
0200
0000
0300
0020
0000
0030
2000
0000
3000
0002
0000
0003
0010
0000
0100
0000
,
2000
0000
0000
0000
3001
0000
0100
0000
0010
0000
0100
0000
0001
1000
0000
1000
,
0200
0000
0300
2000
0000
3000
0020
0000
0030
0200
0000
0300
0001
0000
1000
0000
,
0010
0100
0010
0000
0010
0100
0010
0000
1000
0001
1000
0000
1000
0001
1000
0000
,
0002
0000
0003
2000
0000
3000
0002
0000
0003
0200
0000
0300
0010
0000
1000
0000
,
0200
0000
0000
0000
1300
0000
0010
0000
1000
0000
0001
0000
0100
0001
0000
0001
,
2000
0000
3000
0002
0000
0003
0020
0000
0030
0002
0000
0003
0100
0000
0010
0000
,
0200
0000
0320
0000
,
2030
0000
3002
0000
,
0023
0000
2030
0000
,
3200
0000
0000
0300
2002
3003
0220
0330
,
0010
0000
0100
0000
0001
0100
0001
0100
0001
0000
1000
0000
0100
1000
0100
1000
,
0100
0000
1000
0000
0010
0000
1000
0000
1001
0000
0000
0110
0000
0000
1001
0000
,
0001
0000
0100
0000
0010
1000
0010
1000
0010
0000
1000
0000
0001
0010
0001
0010
,
0001
0000
0100
0000
0010
0000
0100
0000
0101
0000
0000
1001
0000
0000
1010
0000
,
0010
0000
1000
0000
0001
1000
0001
1000
0001
0000
1000
0000
0100
1000
0100
1000
,
0100
0000
1000
0000
0010
0000
0100
0000
0101
0000
0000
0011
0000
0000
1001
0000
,
0001
0000
1000
0000
0010
1000
0010
1000
0010
0000
1000
0000
0001
1000
0001
1000
,
0001
0000
0100
0000
0001
0000
1000
0000
1001
0000
0000
0101
0000
0000
0110
0000
,
0010
0000
1000
0000
0100
1000
0100
1000
0100
0000
1000
0000
0010
1000
0010
1000
,
0010
1000
0001
0100
0100
0001
0010
0100
,
1000
0000
0001
0000
0100
0001
0100
0001
0100
0000
0010
0000
1000
0010
1000
0010
,
1000
0001
1000
0100
0010
0001
0100
0010
,
2002
0000
0000
0000
,
0000
0000
0000
0000
,
0000
0000
0000
0000
,
3003
0000
0000
0000
;

//--------------- dance-single - Alex ----------------
#NOTES:
     dance-single:
     Alex:
     Challenge:
     12:
     0,0,0,0,0:
0000
0000
0000
0000
,
0000
0000
0000
0000
,
0001
0010
0100
1000
0001
0100
0010
1000
0200
0000
0000
0000
2300
0000
0000
0000
,
3010
0100
0010
0100
0020
0000
0000
0000
0130
0001
0100
0001
0200
0000
0000
0300
,
0001
0000
0100
0001
0100
0000
0010
1000
0010
0000
1000
0001
0010
0100
1000
0001
,
0100
0000
0001
0100
0001
0000
1000
0010
1000
0000
0001
1000
0100
0010
0001
0100
,
0010
0000
0100
0000
0001
0010
0100
1000
0001
0000
1000
0000
0010
1000
0001
0100
,
0010
1000
0100
0010
0001
1000
0010
1000
,
0001
0000
1000
0100
1000
0000
0001
0100
0001
0000
1000
0010
1000
0001
1000
0010
,
0100
0000
0001
0010
0100
0000
1000
0001
0100
0000
0001
0100
0010
0100
0001
1000
,
0010
0000
1000
0000
0001
0100
0010
0100
0001
0000
1000
0000
0100
0010
0001
1000
,
0010
1000
0001
0100
0010
0100
0001
1000
,
1010
0000
0000
0000
0101
0000
0000
0000
0001
1000
0000
0000
1001
0000
0000
0000
0001
0010
0000
0000
0011
0000
0000
0000
0001
0000
0100
0000
0010
0000
0100
0000
,
0001
0000
0000
0000
0101
0000
0000
0000
0001
1000
0000
0000
1010
0000
0000
0000
0010
1000
0000
0000
1000
0010
0000
0000
0010
0100
0000
0000
0100
0001
0000
0000
,
0011
0000
0000
0000
0101
0000
0000
0000
0001
0100
0000
0000
0110
0000
0000
0000
0010
1000
0000
0000
1010
0000
0000
0000
0010
0000
1000
0000
0001
0000
0100
0000
,
0010
0000
0000
0000
0110
0000
0000
0000
0010
0100
0000
0000
0101
0000
0000
0000
0001
1000
0000
0000
1000
0001
0000
0000
0001
0010
0000
0000
0010
0001
0000
0000
,
0002
0003
1000
0010
0200
0300
0001
1000
0200
0300
0010
0001
0100
0010
0100
0001
,
2000
3000
0001
0100
0002
0003
1000
0100
2000
3000
0010
1000
0010
0100
0010
1000
,
0002
0003
0010
0001
0200
0300
0010
1000
0002
0003
1000
0100
0010
0001
0100
0010
,
2000
3000
0001
0100
0002
0003
0010
0001
0020
0030
0001
0100
0001
1000
0010
1000
,
0200
0300
1000
0010
2000
3000
0001
0100
0020
0030
1000
0001
0010
0100
1000
0001
,
0200
0300
0001
1000
0020
0030
1000
0100
2000
3000
0010
1000
0010
0100
0001
0010
,
0002
0003
0100
0001
0200
0300
0010
1000
0020
0030
1000
0001
0010
0100
1000
0001
,
2000
3000
0001
0100
0002
0003
1000
0010
2000
3000
0001
0010
0100
1000
0001
0100
,
0220
0000
0000
0330
1001
0000
0001
1000
0010
0100
0001
0000
1000
0100
1000
0000
,
0202
0303
0000
0022
0033
0000
2002
3003
0000
2020
3030
0000
0110
0000
0101
0000
,
2002
0000
0000
3003
0010
0000
0010
0100
0001
1000
0010
0000
1000
0001
0010
0000
,
0022
0033
0000
2002
3003
0000
2200
3300
0000
0220
0330
0000
0011
0000
0101
0000
,
0010
0100
0001
0010
0100
1000
0001
1000
0010
1000
0001
1000
0001
0100
0001
0100
,
0220
0330
0000
2020
3030
0000
2200
3300
0000
0022
0033
0000
1001
0000
0110
0000
,
2002
0000
0000
3003
0110
0000
0010
1000
0100
0010
0001
0000
0001
1000
0010
0000
,
2020
3030
0000
2200
3300
0000
0022
0033
0000
0202
0303
0000
0110
0000
0101
0000
,
0002
0000
0020
0003
,
2000
0030
0200
3000
,
0020
0300
0002
0030
,
2000
0003
3020
0230
,
0301
0010
0100
1000
0001
0100
0010
1000
0100
0010
0001
1000
0010
0100
0001
0010
,
0001
1000
0010
0100
0001
1000
0100
0010
0011
0000
0000
0101
0000
0000
0110
0000
,
0010
1000
0100
1000
0010
1000
0001
1000
0010
1000
0001
0010
0001
1000
0100
0010
,
0001
1000
0010
0100
0001
0100
0001
0100
0110
0000
0000
0110
0000
0000
1001
0000
,
0001
1000
0010
1000
0001
0010
0001
0100
0001
0100
0010
1000
0100
0010
0100
1000
,
0001
0100
0010
0100
0001
0010
0100
1000
1100
0000
0000
0011
0000
0000
1100
0000
,
1000
0010
0100
0001
0010
0001
1000
0001
0100
0010
0100
0001
0010
0100
1000
0001
,
1000
0010
1000
0010
0100
0001
1000
0001
0011
0000
0000
0101
0000
0000
0110
0000
,
0010
1000
0010
0100
0010
1000
0100
1000
0001
1000
0010
0100
0001
0010
0100
1000
,
0001
0100
0010
0100
0001
0010
0001
1000
0010
1000
0001
1000
0100
0010
0100
1000
,
0001
0100
0010
0100
0001
0010
0001
1000
0010
1000
0001
0100
0001
0100
0010
0100
,
0001
0010
0100
1000
0001
1000
0010
1000
0100
0010
0100
1000
0001
0100
0010
1000
,
2002
0000
0000
0000
,
0000
0000
0000
0000
,
0000
0000
0000
0000
,
3003
0000
0000
0000
;
