#TITLE:Papa Gonzales;
#SUBTITLE:;
#ARTIST:Banya;
#TITLETRANSLIT:;
#SUBTITLETRANSLIT:;
#ARTISTTRANSLIT:;
#GENRE:;
#CREDIT:;
#MUSIC:Papa Gonzales.ogg;
#BANNER:Papa Gonzales.png;
#BACKGROUND:Papa Gonzales-BG.png;
#CDTITLE:;
#SAMPLESTART:13.558;
#SAMPLELENGTH:10.914;
#SELECTABLE:YES;
#OFFSET:-0.368;
#BPMS:0.000=145.000;
#STOPS:;
#BGCHANGES:;
#FGCHANGES:;

//--------------- dance-single - Alex ----------------
#NOTES:
     dance-single:
     Alex:
     Beginner:
     1:
     0,0,0,0,0:
0000
0000
0000
0000
,
0000
0000
0000
0000
,
0000
0000
0000
0000
,
0000
0000
0000
0000
,
1001
0000
0000
0000
,
0000
0000
0000
0000
,
0110
0000
0000
0000
,
0000
0000
0000
0000
,
1000
0000
0000
0000
,
0001
0000
0000
0000
,
1000
0000
0000
0000
,
0020
0000
0030
0000
,
0100
0000
0000
0000
,
0001
0000
0000
0000
,
1000
0000
0000
0000
,
0002
0000
0003
0000
,
1001
0000
0000
0000
,
1000
0000
1000
0000
,
1000
0000
0000
0000
,
0010
0000
0010
0000
,
0020
0000
0000
0000
,
0030
0000
0000
0000
,
0100
0000
0000
0000
,
0010
0000
0000
0000
,
0010
0000
0000
0000
,
0001
0000
0000
0000
,
1000
0000
0000
0000
,
0001
0000
0000
0000
,
1001
0000
0000
0000
,
0100
0000
0100
0000
,
0100
0000
0000
0000
,
0001
0000
0000
0000
,
1000
0000
0000
0000
,
0010
0000
0010
0000
,
0010
0000
0000
0000
,
1000
0000
0000
0000
,
0001
0000
0000
0000
,
0100
0000
0100
0000
,
0200
0000
0000
0000
,
0300
0000
0000
0000
,
0002
0000
0000
0000
,
0003
0000
0000
0000
,
1001
0000
0000
0000
,
1000
0000
0000
0000
,
0001
0000
0000
0000
,
2000
0000
3000
0000
,
0010
0000
0000
0000
,
1000
0000
0000
0000
,
0001
0000
0000
0000
,
0100
0000
0100
0000
,
0200
0000
0300
0000
,
1001
0000
0000
0000
,
0110
0000
0000
0000
,
1001
0000
0000
0000
;

//--------------- dance-single - Alex ----------------
#NOTES:
     dance-single:
     Alex:
     Easy:
     3:
     0,0,0,0,0:
0000
0000
0000
0000
,
0000
0000
0000
0000
,
0000
0000
0000
0000
,
0000
0000
0000
0000
,
2000
0000
0000
0000
,
3010
0000
0000
0000
,
0020
0000
0000
0000
,
0130
0000
0000
0000
,
0001
0000
1000
0000
,
0001
0000
0100
0000
,
0010
0000
1000
0000
,
0002
0000
0003
0000
,
1000
0000
1000
0000
,
0001
0000
0100
0000
,
0010
0000
0010
0000
,
2000
0000
3000
0000
,
0001
0001
0001
0000
,
1000
1000
1000
0000
,
0010
0010
0010
0000
,
0220
0000
0330
0000
,
1001
0000
0000
0000
,
0110
0000
0000
0000
,
0100
0010
0100
0000
,
0001
0000
1000
0000
,
0100
1000
0100
0000
,
1000
0000
0001
0000
,
1000
0001
1000
0000
,
0001
0100
0001
0000
,
1001
0000
0000
0000
,
0010
0010
0110
0000
,
0100
0100
0100
0000
,
0001
0001
0001
0000
,
2002
0000
0000
0000
,
3003
0000
0000
0000
,
0010
0000
1000
0000
,
0010
1000
0010
0000
,
1000
0000
0001
0000
,
0010
0001
0100
0000
,
0220
0000
0000
0000
,
0330
0000
0000
0000
,
2002
0000
0000
0000
,
3003
0000
0000
0000
,
0001
0000
0001
0000
,
1000
0000
0100
0000
,
1000
0000
0001
0000
,
0200
0000
0300
0000
,
0010
0010
0010
0000
,
1000
1000
1000
0000
,
0100
0100
0100
0000
,
2002
0000
3003
0000
,
0110
0000
0000
0000
,
0100
0010
0100
0000
,
1001
0000
0000
0000
,
0001
1000
1001
0000
;

//--------------- dance-single - Alex ----------------
#NOTES:
     dance-single:
     Alex:
     Medium:
     5:
     0,0,0,0,0:
0000
0000
0000
0000
,
0000
0000
0000
0000
,
0000
0000
0000
0000
,
0000
0000
0000
0000
,
0220
0000
0000
0000
,
0330
0000
0000
0000
,
2002
0000
0000
0000
,
3003
0000
0000
0000
,
0001
1000
0010
0010
,
1000
0001
0010
0010
,
0001
1000
0100
1000
,
2002
0000
3003
0000
,
0001
0100
0010
1000
,
0001
1000
1000
0001
,
0100
0100
0001
1000
,
2020
0000
3030
0000
,
0010
0010
1000
1000
,
0001
0010
0001
0000
1000
0100
1000
0000
,
0001
0001
0100
0100
,
0220
0000
0330
0000
,
1001
0000
0110
0000
,
2002
0000
3003
0000
,
0001
1000
0010
0100
,
0001
0000
0001
0000
1000
0100
1000
0000
,
0001
0100
0010
0010
,
0100
0000
0100
0000
0001
1000
0001
0000
,
1001
0001
1000
0010
,
0010
0000
1000
0000
0001
0000
0100
0010
,
0200
0000
0300
0000
,
0100
0100
0100
0000
,
1001
0001
1000
0001
,
0101
0100
0010
1000
,
2200
0000
3300
0000
,
1001
0000
2002
3003
,
0001
0001
0100
0100
,
0010
1000
0010
0000
1000
0100
1000
0000
,
0001
0001
0100
0100
,
0220
0000
0330
0000
,
0001
1000
0001
1000
,
1001
0000
0000
0220
0000
0000
0330
0000
,
0010
0100
0010
0100
,
0110
0000
0000
2002
0000
0000
3003
0000
,
0001
0001
0100
0100
,
0010
1000
0001
1000
,
0100
0100
1000
0001
,
0202
0000
0303
0000
,
0001
0001
1000
1000
,
0001
0010
0001
0000
1000
0010
1000
0000
,
0001
0100
0010
1000
,
2200
0000
3300
0000
,
1001
0000
0000
0000
,
0001
0100
0001
0000
1000
0010
1000
0000
,
0110
0000
0000
0000
,
0010
0100
0010
0100
0010
0000
0000
0000
;

//--------------- dance-single - Alex ----------------
#NOTES:
     dance-single:
     Alex:
     Hard:
     8:
     0,0,0,0,0:
0000
0000
0000
0000
,
0000
0000
0000
0000
,
0000
0000
0000
0000
,
0000
0000
0000
0000
,
2002
0000
3003
0000
0001
1000
0010
0100
,
0001
0000
1000
0000
0100
0010
0001
0100
,
0220
0000
0330
0000
0010
1000
0001
0000
,
0010
0001
1000
0010
0200
0000
0300
0000
,
0001
0010
0100
1000
0001
0010
0001
0000
,
1000
0010
1000
0001
1000
0100
1000
0000
,
0101
0000
1010
0000
0001
0010
0100
1000
,
0020
0000
0000
0000
0000
0030
0100
0010
0100
0000
0000
0000
,
0001
1000
0010
0100
0001
1000
0010
0000
,
1000
0100
0010
0001
1000
0010
0100
0000
,
0101
0000
1010
0000
0010
1000
0001
1000
,
0200
0000
0000
0000
0000
0300
1000
0001
1000
0000
0000
0000
,
0001
1000
0001
0000
1000
0001
1000
0000
,
0001
0100
0010
0100
0001
1000
0010
0000
,
1000
0100
0010
0000
0001
0100
0010
0000
,
2002
0000
3003
0000
,
0001
1000
0001
0100
,
0010
1000
0001
0010
0100
1000
0001
0000
,
1001
0000
0110
0000
0010
1000
0100
0000
,
1000
0010
1000
0000
0001
0100
0001
0100
,
0001
0000
1000
0010
0100
0001
1000
0000
,
0001
0010
0001
0000
1000
0010
0100
0001
,
1000
0000
0000
0000
0001
0000
0100
0000
0001
0100
0000
0100
0000
0000
0010
0000
,
1000
0000
0001
0000
1000
0010
0000
0020
0000
0000
0000
0030
0000
0000
0000
0000
,
1001
0000
M00M
0000
,
0001
0000
1000
0000
0001
1000
0000
0001
0000
0000
0000
0000
1001
0000
0000
0000
,
0001
0100
0010
0100
0001
1000
0010
1000
,
0001
0010
0100
1000
0001
0100
0010
0000
,
2020
0000
3030
0000
,
0011
0011
1100
1100
,
0100
1000
0010
0000
1000
0010
0100
0000
,
0001
0010
0100
1000
0001
0010
0001
0000
,
1000
0010
1000
0000
0001
0100
0001
0000
,
2002
0000
3003
0000
,
0001
0100
0001
0000
1000
0010
1000
0000
,
0011
00MM
0000
1100
MM00
0000
1001
M00M
,
0001
1000
0010
0000
0100
0001
1000
0000
,
1001
M00M
0000
0110
0MM0
0000
1001
0000
,
0001
1000
0100
1000
0001
1000
0010
0000
,
1000
0001
0010
0100
1000
0001
0100
0000
,
0110
0000
1001
0000
0010
0100
0001
1000
,
0002
0000
0000
0000
0000
0003
1000
0001
1000
0000
0000
0000
,
0001
0100
0010
0000
1000
0100
0010
0000
,
0001
0100
0010
0100
0001
0100
0010
0000
,
1000
0001
0010
0000
0001
1000
0010
0000
,
2002
0000
3003
0000
,
0001
1000
1100
0000
0100
1000
1010
0000
,
0010
0000
1000
0000
0001
0000
0010
0000
0001
0000
1000
0000
0000
0001
0000
0000
,
2002
0000
3003
0000
,
0001
1000
0001
1000
1001
0000
0000
0000
;

//--------------- dance-single - Alex ----------------
#NOTES:
     dance-single:
     Alex:
     Challenge:
     11:
     0,0,0,0,0:
0000
0000
0000
0000
,
0000
0000
0000
0000
,
0000
0000
0000
0000
,
0000
0000
0000
0000
,
2002
0000
0000
0000
3003
0000
0000
0000
0001
1000
0010
0100
0001
1000
0010
0100
,
0001
0000
1000
0100
1000
0000
0001
0000
0100
0000
0010
0100
0010
0000
1001
0000
,
0110
0000
0000
0000
0001
0000
0010
0000
0001
0000
0100
0001
0000
0001
0100
0000
,
0010
0000
1000
0000
0001
0000
1000
0000
0010
0000
1000
0010
0000
0010
1000
0000
,
0010
1000
0100
1000
0010
1000
0100
0010
0000
0001
0000
0100
0010
1000
0002
0003
,
1000
0100
1000
0001
1000
0010
1000
0001
0000
1000
0000
0010
0100
0001
0010
0100
,
1000
0000
0000
0001
0000
0000
0100
0000
0000
0010
0000
0000
1000
0000
0000
0100
0000
0000
0010
0000
0000
0001
0000
0000
0000
0000
0000
0100
0000
0000
0010
0000
0000
1000
0000
0000
0001
0000
0000
0000
0010
0000
0000
0000
0100
0000
0000
0000
,
1000
0000
0000
0001
0000
0000
1000
0000
0000
0001
0000
0000
1000
0000
0001
0000
1000
0000
0001
0000
1000
0000
0001
0000
1000
0000
0000
0000
0001
0000
0000
0000
0200
0000
0000
0000
0000
0000
0000
0000
0000
0000
0000
0000
0300
0000
0000
0000
,
0001
0010
0001
0100
0010
1000
0001
1000
0000
0010
0000
0100
0001
1000
0100
0000
,
0010
0001
1000
0010
0100
0001
1000
0001
0000
1000
0000
0100
1000
0010
1000
0010
,
1000
0000
0000
0001
0000
0000
0100
0000
0000
0010
0000
0000
1000
0000
0000
0001
0000
0000
0010
0000
0000
0100
0000
0000
0000
0000
0000
1000
0000
0000
0001
0000
0000
0100
0000
0000
0010
0000
0000
0000
1000
0000
0000
0000
0001
0000
0000
0000
,
0100
0000
0000
0010
0000
0000
0100
0000
0000
0010
0000
0000
0100
0000
0010
0000
0100
0000
0010
0000
0100
0000
0010
0000
0100
0000
0000
0000
0001
0000
0000
0000
2000
0000
0000
0000
0000
0000
0000
0000
0000
0000
0000
0000
3000
0000
0000
0000
,
0001
0100
0001
0000
1000
0010
1000
0000
0001
0010
0001
0000
1000
0100
1000
0000
,
0001
0000
0000
0010
0000
0000
0100
0000
0000
1000
0000
0000
0010
0000
0000
0100
0000
0000
0001
0000
0000
1000
0000
0000
0010
0000
1000
0000
0010
0000
2000
0000
0000
0000
3000
0000
0001
0000
0100
0000
0001
0000
0200
0000
0000
0000
0300
0000
,
0010
1000
0010
1000
0001
0100
0001
0010
0001
1000
0010
0100
0001
1000
0100
0010
,
0001
0000
0000
1000
0000
0000
0001
0000
0000
1000
0000
0000
0001
0000
0100
0000
0001
0000
0100
0000
0001
0000
0100
0000
0001
0000
0000
0000
0000
0000
0000
0000
0000
0000
0000
0000
1001
0000
0000
0000
0000
0000
0000
0000
0000
0000
0000
0000
,
0001
0010
0001
0010
0001
0000
0001
0100
0000
0100
0001
0000
2000
3000
0020
0030
,
1000
0100
0010
0001
2000
3000
0001
0100
0010
1000
0001
0010
0100
1000
0001
0000
,
2002
0000
3003
0000
0001
1000
0001
1000
0010
0000
0100
0000
0002
0000
0003
0000
,
1000
0100
0000
1000
0000
0010
1000
0000
0001
0000
0010
0000
0100
0000
1000
0000
,
0002
0000
0003
0000
0100
0000
0100
0000
0010
1000
0001
0010
0200
0300
1000
0010
,
0100
0001
2000
3000
0001
0010
0001
1000
0020
0030
0100
0001
0000
1000
0000
0010
,
2000
0000
3000
0000
1001
0000
0110
0000
0001
1000
0000
1001
0000
0000
0101
0000
,
1010
0000
1100
0000
0010
0001
0000
0202
0000
0303
0010
0000
1000
0001
0010
0100
,
1000
0001
0000
0200
0000
0300
0010
0000
1000
0002
0000
0003
0010
0000
0001
0000
,
0100
0000
0010
0000
1000
0001
0000
2002
0000
0000
0000
3003
0110
0000
0000
0000
,
1000
0100
0010
0001
1000
0010
1000
0001
0010
0001
1000
0001
0100
0001
1000
0001
,
0010
0100
1000
0001
1000
0010
1000
0001
0100
0010
1000
0100
0010
0000
0000
0000
,
0001
0010
0000
0001
1000
0000
0010
1000
0000
0001
1000
0000
0001
0100
0001
0000
,
1000
0010
1000
0000
0001
0100
0001
0000
1000
0100
0010
0001
2000
0000
3000
0000
,
0001
1000
0010
0100
0001
0010
0001
1000
0010
0100
0001
1000
0100
0010
0001
0100
,
0010
0000
0000
0100
0000
0000
0001
0000
0000
0010
0000
0000
0001
0000
0000
1000
0000
0000
0010
0000
0000
0100
0000
0000
0001
0000
0100
0000
0001
0000
0200
0000
0000
0000
0300
0000
0010
0000
1000
0000
0010
0000
2000
0000
0000
0000
3000
0000
,
0001
0010
0100
1000
0001
1000
0010
1000
0100
0010
0100
1000
0001
0100
0010
0100
,
0001
0000
0000
1000
0000
0000
0001
0000
0000
1000
0000
0000
0001
0000
1000
0000
0001
0000
1000
0000
0001
0000
1000
0000
0020
0000
0000
0000
0000
0000
0000
0000
0000
0000
0000
0000
0130
0000
0000
0000
0000
0000
0000
0000
0000
0000
0000
0000
,
0001
1000
0010
0100
0001
0000
0001
1000
0000
1000
0100
0000
0010
0000
0001
0100
,
0010
0100
0001
0000
1000
0000
0010
0100
0000
0100
0010
0000
2002
0000
3003
0000
,
0001
1000
0100
1000
0001
0000
0001
1000
0000
1000
0010
0000
0100
0000
0001
0010
,
0100
1000
0001
0000
0100
0000
0010
0100
0000
0100
0001
0000
2002
0000
3003
0000
,
0001
0010
0100
1000
0001
0100
0010
1000
0000
0001
0000
0010
0001
1000
0010
0000
,
0100
0001
1000
0100
1000
0001
1000
0010
0000
0100
0000
0001
0010
0001
0100
0001
,
1000
0000
0000
0010
0000
0000
1000
0000
0000
0001
0000
0000
1000
0000
0000
0100
0000
0000
0010
0000
0000
0001
0000
0000
0000
0000
0000
0001
0000
0000
0100
0000
0000
0010
0000
0000
0100
0000
0000
0000
0001
0000
0000
0000
1000
0000
0000
0000
,
0010
0000
0000
1000
0000
0000
0010
0000
0000
1000
0000
0000
0010
0000
1000
0000
0010
0000
1000
0000
0010
0000
1000
0000
0010
0000
0000
0000
1000
0000
0000
0000
0002
0000
0000
0000
0000
0000
0000
0000
0000
0000
0000
0000
0003
0000
0000
0000
,
0001
0100
0010
0000
0100
0001
0010
0000
0001
1000
0010
0000
0100
0001
1000
0000
,
0100
0000
0000
0010
0000
0000
0001
0000
0000
1000
0000
0000
0010
0000
0000
1000
0000
0000
0001
0000
0000
0010
0000
0000
0100
0000
1000
0000
0100
0000
2000
0000
0000
0000
3000
0000
0001
0000
0100
0000
0001
0000
0200
0000
0000
0300
0000
0000
,
0001
0010
0100
1000
0001
0010
0001
0100
0010
0100
0001
0010
0100
1000
0001
1000
,
0010
0000
0000
1000
0000
0000
0001
0000
0000
1000
0000
0000
0001
0000
1000
0000
0001
0000
1000
0000
0001
0000
1000
0000
0001
0000
0000
0000
1000
0000
0000
0000
0200
0000
0000
0000
0000
0000
0000
0000
0300
0000
0000
0000
0000
0000
0000
0000
,
1000
0001
1000
0000
0001
0100
0001
0000
1000
0010
1000
0000
0001
0010
0001
0000
,
1000
0010
0100
0001
1000
0100
0010
0001
0100
0000
0110
0000
0000
0101
0000
0000
,
0001
1000
0010
0000
0100
0001
1000
0000
0100
0010
0001
0000
1000
0010
0100
0000
,
0001
0000
0000
1000
0000
0000
0001
0000
0000
1000
0000
0000
0001
0000
1000
0000
0001
0000
1000
0000
0001
0000
1000
0000
2002
0000
0000
0000
0000
0000
0000
0000
0000
0000
0000
0000
0000
0000
0000
0000
0000
0000
0000
0000
3003
0000
0000
0000
;
