#TITLE:Overblow;
#SUBTITLE:;
#ARTIST:MAX;
#TITLETRANSLIT:;
#SUBTITLETRANSLIT:;
#ARTISTTRANSLIT:;
#GENRE:;
#CREDIT:;
#MUSIC:Overblow.ogg;
#BANNER:Overblow.png;
#BACKGROUND:Overblow-BG.png;
#CDTITLE:;
#SAMPLESTART:14.539;
#SAMPLELENGTH:13.048;
#SELECTABLE:YES;
#OFFSET:0.122;
#BPMS:0.000=155.000;
#STOPS:;
#BGCHANGES:;
#FGCHANGES:;

//--------------- dance-single - Alex ----------------
#NOTES:
     dance-single:
     Alex:
     Beginner:
     1:
     0,0,0,0,0:
0000
0000
0000
0000
,
0000
0000
0000
0000
,
0000
0000
0000
0000
,
0000
0000
0000
0000
,
0000
0000
0010
0000
,
0000
0000
1000
0000
,
0000
0000
0001
0000
,
0000
0000
0100
0000
,
0000
0000
0020
0000
,
0030
0000
1001
0000
,
0000
0000
0001
0000
,
0000
0000
1000
0000
,
0000
0000
0100
0000
,
0100
0000
0100
0000
,
0000
0000
1000
0000
,
0000
0000
0010
0000
,
0000
0000
0002
0000
,
0003
0000
1001
0000
,
0000
0000
0001
0000
,
0000
0000
1000
0000
,
0000
0000
0010
0000
,
0010
0000
0010
0000
,
0000
0000
1000
0000
,
0000
0000
0001
0000
,
0000
0000
0200
0000
,
0300
0000
0001
0000
,
0000
0000
1000
0000
,
0000
0000
0001
0000
,
0000
0000
0100
0000
,
0000
0000
0010
0000
,
0000
0000
0010
0000
,
0000
0000
1000
0000
,
1000
0000
2000
0000
,
3000
0000
1001
0000
,
0000
0000
0001
0000
,
0000
0000
1000
0000
,
0000
0000
0001
0000
,
0000
0000
1000
0000
,
0000
0000
0010
0000
,
0000
0000
0010
0000
,
0000
0000
0100
0000
,
0000
0000
0110
0000
,
0000
0000
0010
0000
,
0000
0000
0001
0000
,
0000
0000
1000
0000
,
0000
0000
1000
0000
,
0000
0000
0100
0000
,
0000
0000
1000
0000
,
1000
0000
2000
0000
,
3000
0000
1001
0000
,
0000
0000
0010
0000
,
0000
0000
1000
0000
,
0000
0000
0001
0000
,
0001
0000
0001
0000
,
0000
0000
1000
0000
,
0000
0000
0010
0000
,
0000
0000
0200
0000
,
0300
0000
1001
0000
,
0000
0000
1001
0000
,
0000
0000
1001
0000
,
0000
0000
0010
0000
,
0010
0000
0110
0000
,
0000
0000
0110
0000
,
0000
0000
0110
0000
,
0000
0000
0200
0000
,
0300
0000
0000
0000
;

//--------------- dance-single - Alex ----------------
#NOTES:
     dance-single:
     Alex:
     Easy:
     4:
     0,0,0,0,0:
0000
0000
0000
0000
,
0000
0000
0000
0000
,
0000
0000
0000
0000
,
0000
0000
0020
0000
,
0030
0000
0001
0001
,
0001
0000
1000
1000
,
1000
0000
0001
1000
,
0001
0000
1000
0000
0010
0000
0000
0010
,
0000
0010
2002
0000
,
3003
0000
0001
1000
,
0001
0000
1000
0100
,
1000
0000
0010
1000
,
0010
0100
0020
0000
,
0100
0130
0001
1000
,
0001
0000
0010
0001
,
0010
0000
0001
1000
,
0001
0000
1000
0000
0100
0000
0000
0200
,
0000
0300
1000
0010
,
1000
0000
0001
0100
,
0001
0000
0100
0010
,
0100
0001
1001
0000
,
1001
0000
0001
0100
,
0001
0000
1000
0010
,
1000
0000
0001
0010
,
0001
1000
0020
0000
,
0030
0000
1001
0000
,
1001
0000
0001
0100
,
1000
0100
0001
0000
,
1000
0000
0001
0001
,
0002
0003
1001
0000
,
1001
0000
1000
1000
,
1000
0000
0001
0100
,
0001
0000
1000
0000
0010
0000
0000
0020
,
0030
0010
0100
0001
,
1000
0000
0001
0100
,
0001
0000
1000
0010
,
0100
0010
1000
0001
,
0020
0030
0001
0100
,
0001
0000
1000
0010
,
1000
0000
0001
0010
,
0100
1000
2002
0000
,
3003
0000
0001
1000
,
0001
0000
1000
0010
,
1000
0000
0001
0100
,
0010
0100
0001
1001
,
0000
1001
0000
0001
,
0100
0010
0100
0001
,
1000
0100
0010
0001
,
1000
0010
0200
0000
,
0300
0000
0001
0001
,
0001
0000
0100
0100
,
0100
0000
0010
0010
,
0010
0000
2000
0000
,
0001
3001
0001
0100
,
0001
0000
1000
0010
,
0010
0000
1000
0100
,
1000
0001
0200
0000
,
0300
0000
0001
1000
,
0001
1000
0001
0100
,
0001
0100
0010
0100
,
0010
0100
0110
0000
,
1001
0000
0001
1000
,
0001
1000
0010
1000
,
0010
0100
0010
0100
,
0001
0000
1000
0000
0100
0000
0000
1001
;

//--------------- dance-single - Alex ----------------
#NOTES:
     dance-single:
     Alex:
     Medium:
     6:
     0,0,0,0,0:
0000
0000
0000
0000
,
0000
0000
0000
0000
,
0000
0000
0000
0000
,
0000
0000
2002
0000
,
3003
0000
0001
1000
,
0010
0100
0001
0010
,
0100
0000
0010
0000
0001
0100
0001
0000
,
1000
0000
0010
0000
1000
0000
0000
0000
0001
0000
0000
0001
0000
0000
1000
0000
,
0000
1000
0000
0000
0010
0000
0000
0000
2002
0000
0000
0000
0000
0000
0000
0000
,
3003
0000
0001
0100
,
0010
1001
1000
0100
,
1000
1010
0010
0100
,
0001
1001
0001
0100
,
0010
0100
0010
0100
0010
0000
1000
0000
,
0100
1100
1000
0001
,
0100
0101
0001
1000
,
0010
0000
0000
0000
0110
0000
0000
0000
0001
0000
0000
1000
0000
0000
0200
0000
,
0000
0300
1000
0010
,
1000
0000
0001
0000
0010
0001
0010
0000
,
0001
0100
0001
0000
0100
0000
0010
0000
,
0100
0000
0001
0000
1000
0100
1000
0100
,
1000
1001
0001
0100
,
0010
0000
0100
0000
0001
0010
0001
0000
,
1000
0100
1000
0000
0001
0000
0100
0000
,
0010
0000
1000
0000
0001
1000
0001
1000
,
0001
1001
0001
0100
,
0010
0100
0000
0100
0000
0001
1000
0000
,
1001
0110
0010
0100
,
0001
0010
0100
1000
,
0010
0010
1001
1000
,
0001
1000
0000
0010
0000
1000
0001
0000
,
0011
0101
0100
0100
,
0010
0010
2002
0000
,
3003
0000
0001
1000
,
0001
0100
0010
0100
,
0001
0000
0001
0000
1000
0100
1000
0000
,
0001
0100
0001
0000
1000
0001
1000
0001
,
1000
1001
0001
0100
,
0010
1000
0001
0010
,
0001
0000
0100
0000
0010
0100
0010
0000
,
0100
0001
0100
0000
0220
0000
0000
0000
,
0330
0000
0100
0010
,
1000
0001
0010
0001
,
1000
0000
1000
0000
0001
0100
0001
0000
,
1000
0010
1000
0000
0001
1000
0001
1000
,
0001
1001
0001
0001
,
1000
0010
1000
1000
,
0001
0000
0001
0000
0100
0010
0100
0000
,
0001
0010
0001
0000
2002
0000
0000
0000
,
3003
0000
0001
0100
,
0001
1001
1000
1000
,
0010
1010
1000
0001
,
0100
0000
0101
0000
0001
0100
0001
0000
,
1000
0010
1000
0010
1000
0000
0001
0000
,
0100
0110
0010
0010
,
1000
1001
0001
0010
,
0001
0100
0220
0000
,
0330
0000
0000
0000
0100
0001
0100
0000
,
0001
0000
1000
0000
0001
1000
0001
0000
,
0100
0000
0010
0000
1000
0010
1000
0000
,
0001
0000
0010
0000
0001
0100
0010
0100
,
0001
0000
0101
0000
0001
0100
0001
0000
,
1000
0000
0001
0000
1000
0001
1000
0000
,
0001
0000
0100
0000
0010
0100
0010
0000
,
0100
0000
0000
0000
0001
0000
0000
0000
1000
0000
0000
0001
0000
0000
0020
0000
,
0000
0000
0030
0000
;

//--------------- dance-single - Alex ----------------
#NOTES:
     dance-single:
     Alex:
     Hard:
     8:
     0,0,0,0,0:
0000
0000
0000
0000
,
0000
0000
0000
0000
,
0000
0000
0000
0000
,
0000
0000
0220
0000
,
0330
0000
0001
0100
,
0010
1010
1000
0001
,
0010
0000
0011
0000
0001
0100
0010
0100
,
0001
0000
0010
0000
0100
0000
1000
0000
0001
0000
0000
1000
0000
0000
0010
0000
,
0000
0100
0000
0000
0001
0000
1000
0000
2002
0000
0000
0000
0000
0000
0000
0000
,
3003
0000
0000
0000
0000
0000
0000
0000
0001
0000
0000
0100
0000
0000
0001
0000
,
0000
1000
0000
0000
0010
0000
1000
0000
0001
0000
0000
0100
0000
0000
0001
0000
,
0000
0010
0000
0000
0100
0000
1000
0000
0010
0000
0000
1000
0000
0000
0001
0000
,
0000
0100
0000
0000
0110
0000
0000
0000
0010
0000
1000
0000
0100
0000
0010
0000
,
0001
0000
0100
0000
0010
0000
0100
0000
0001
0000
0000
0001
0000
0000
1000
0000
,
0000
1000
0000
0000
0010
0000
1000
0000
0001
0000
0000
1000
0000
0000
0100
0000
,
0000
0010
0000
0000
0001
0000
0100
0000
0010
0000
0000
1000
0000
0000
0001
0000
,
0000
0010
0000
0000
0001
0000
0100
0000
0010
0000
0000
0100
0000
0000
2002
0000
,
0000
0000
0000
0000
3003
0000
0000
0000
0001
0000
0000
0100
0000
0000
0010
0000
,
0000
0100
0000
0000
0001
0000
1000
0000
0010
0000
0000
1000
0000
0000
0001
0000
,
0010
0000
0000
0001
0000
0000
1000
0000
0010
0000
0000
0010
0000
0000
1000
0000
,
0000
0001
0000
1000
0100
0000
0100
0000
1000
0000
0010
0000
0100
0000
0001
0000
,
0010
0000
0100
0000
1000
0000
0010
0000
1000
0000
0000
0001
0000
0000
1000
0000
,
0000
0010
0000
0000
0100
0000
0001
0000
1000
0000
0000
0001
0000
0000
0010
0000
,
0001
0000
0000
0100
0000
0000
0010
0000
0010
0000
0000
1000
0000
0000
0001
0000
,
0000
0010
0000
0001
0010
0000
0001
0000
0100
0000
0010
0000
0100
0000
0001
0000
,
1000
0010
1000
0001
1001
0000
0001
0100
,
0010
0100
0000
0001
0000
1000
0100
0000
,
1000
0010
0000
0010
1000
0001
1000
0010
,
0100
0001
0010
0100
0000
1000
0010
0100
,
0001
0100
0010
0100
0001
0000
1000
0001
,
0010
0001
0000
1000
0000
0010
1000
0000
,
1000
0001
0000
0001
0100
0001
0010
0001
,
0100
0000
0010
0000
0100
0000
0001
0000
1000
0000
0000
0001
0000
0000
0100
0000
,
0000
0010
0000
0000
1000
0000
0001
0000
1001
0000
0000
0000
0001
0000
0100
0000
,
0020
0030
1000
0100
0020
0030
0001
1000
,
0020
0030
0100
0001
0020
0030
0100
1000
,
0020
0030
1000
0100
0010
0001
0100
0010
,
0100
0001
1000
0010
1000
0000
0001
0100
,
0002
0003
0010
0001
0020
0030
0001
1000
,
0020
0030
1000
0100
2000
3000
0010
0100
,
0020
0030
0100
0001
2002
0000
0000
0000
,
3003
0000
0000
0000
0001
0000
1000
0001
,
0200
0300
0010
1000
0200
0300
1000
0010
,
2000
3000
0001
0010
0002
0003
1000
0010
,
2000
3000
0001
0100
0010
0100
0001
0010
,
0100
1000
0001
1000
0001
0000
0001
1000
,
0020
0030
1000
0100
0020
0030
0001
0100
,
0002
0003
0100
0010
0200
0300
0001
1000
,
0020
0030
0100
0001
2002
0000
0000
0000
,
3003
0000
0000
0000
0000
0000
0000
0000
0001
0000
0000
0001
0000
0000
0100
0000
,
0000
0100
0000
0000
0010
0000
1000
0000
0100
0000
0000
1000
0000
0000
0010
0000
,
0000
0100
0000
0000
0001
0000
0010
0000
0001
0000
0000
0100
0000
0000
0001
0000
,
0000
1000
0000
0000
0010
0000
0000
0000
1000
0000
0001
0000
0010
0000
0100
0000
,
1000
0000
0010
0000
0100
0000
0001
0000
0100
0000
0000
0100
0000
0000
0001
0000
,
0000
0001
0000
0000
1000
0000
0010
0000
1000
0000
0000
0001
0000
0000
0010
0000
,
0000
0001
0000
0000
0100
0000
0010
0000
0100
0000
0000
0001
0000
0000
1000
0000
,
0000
0100
0000
0000
1000
0000
0001
0000
0202
0000
0000
0000
0000
0000
0000
0000
,
0303
0000
0000
0000
0001
0010
0100
1000
,
0010
1000
0001
0100
0010
0100
0001
0010
,
0100
0010
0001
0100
0010
0100
0001
1000
,
0100
0000
0010
0000
0001
0000
0100
0000
0010
0000
0100
0000
0001
0000
0100
0001
,
0000
0100
0100
0010
1000
0100
0010
0100
,
1000
0001
0100
0010
1000
0001
0010
0001
,
1000
0010
1000
1000
0001
0100
0010
0100
,
0001
0000
1000
0000
0100
0000
0010
0000
0001
0000
0000
1000
0000
0000
2002
0000
,
0000
0000
0000
0000
,
3003
0000
0000
0000
;

//--------------- dance-single - Alex ----------------
#NOTES:
     dance-single:
     Alex:
     Challenge:
     12:
     0,0,0,0,0:
0000
0000
0000
0000
,
0000
0000
0000
0000
,
0000
0000
0000
0000
,
0000
0000
2002
0000
,
0000
0000
3003
0000
0001
0100
0010
0100
,
0001
0010
0100
1000
0001
0100
0010
1000
,
0100
0000
0010
0000
0001
0000
0100
0000
0010
0000
0010
0000
1000
0000
1000
0001
,
1000
0000
0000
0000
0001
0000
0000
0000
0001
0000
0100
0000
0010
0000
0100
0000
0101
0000
0000
0M0M
0000
0000
0101
0000
0000
0M0M
0000
0000
1010
0000
0000
M0M0
,
0000
0000
1010
0000
0000
00MM
0000
0000
0011
MM00
0000
0000
1100
0000
0000
0000
2002
0000
0000
0000
0000
0000
0000
0000
0000
0000
0000
0000
0000
0000
0000
0000
,
0000
0000
0000
0000
3003
0000
0000
0000
0001
0000
1000
0010
0000
0010
1000
0000
,
1000
0001
0000
0001
0100
0001
0100
0001
0100
0000
0010
0100
0000
0100
0001
0000
,
0001
0010
0000
0010
0001
0010
0001
0010
0001
0000
0001
1000
0000
1000
0010
0000
,
1000
0010
0000
0010
1000
0000
MMMM
0000
1001
0000
0110
0000
0010
0100
0001
0010
,
0100
1000
0100
0010
0001
1000
0010
0100
0001
0000
0001
0100
0000
0100
0001
0000
,
0001
1000
0000
1000
0010
1000
0010
1000
0010
0000
0010
1000
0000
1000
0001
0000
,
0100
0001
0000
0001
0100
0001
0100
0001
0100
0000
0100
0001
0000
0001
0010
0000
,
0010
0100
0000
0100
1000
0010
0100
0001
1001
0000
0000
0110
0000
0000
2002
0000
,
0000
0000
0000
0000
3003
0000
0000
0000
0002
0003
0200
0300
0020
0030
2000
3000
,
0002
0003
0020
0030
0002
0003
0100
0010
0200
0300
0002
0003
2000
3000
0100
0010
,
0002
0003
0200
0300
0020
0030
0100
0001
0020
0030
0002
0003
0200
0300
2000
3000
,
0100
0010
0000
0010
0100
0000
1001
0000
0001
0100
0010
0100
0001
0010
0100
1000
,
0001
1000
0010
1000
0002
0000
0000
0003
2000
3000
0002
0003
0200
0300
0020
0030
,
0200
0300
0002
0003
0020
0030
0001
1000
0020
0030
2000
3000
0002
0003
0100
0001
,
0020
0030
0002
0003
2000
3000
0100
1000
0020
0030
0200
0300
0002
0003
2000
3000
,
0001
0010
0000
0010
0002
0003
0200
0300
0010
0100
0001
0010
0100
0010
0001
0100
,
0010
0100
0001
0010
0100
1000
0001
0000
1001
0000
MMMM
0000
0110
0000
MMMM
0000
,
MM11
11MM
MMMM
0101
MMMM
M11M
1M1M
MMMM
,
M1M1
0000
MM11
0000
MMMM
0000
1001
0000
0001
1000
0010
0100
0001
0010
0100
1000
,
0001
0000
1000
0001
0010
0001
0100
0010
0100
0001
0100
0010
0100
0000
0001
0000
,
1000
0000
0010
0100
0001
1000
0100
0000
1MM1
0000
MMMM
0000
M1M1
0000
MMMM
0000
,
1M1M
11MM
MMMM
MM11
MMMM
M1M1
M11M
MMMM
,
M1M1
1MM1
MMMM
1M1M
0010
1000
0100
0001
,
0100
0000
0000
0000
1000
0000
0000
0000
0001
0000
0000
0000
0100
0000
0000
0000
0110
0000
0000
0MM0
0000
0000
0101
0000
0000
0M0M
0000
0000
0011
0000
0000
00MM
,
0000
0000
1001
0000
0000
M00M
0000
0000
1M1M
0000
0000
0000
1001
0000
0MM0
0000
0001
0000
0100
0000
0000
0000
0100
0000
0010
0000
1000
0000
0100
0000
0010
0000
,
0001
0200
0300
0001
0010
0100
0010
0001
0100
0020
0030
1000
0100
0010
0100
1000
,
0001
2000
3000
0001
0100
0001
1000
0010
0100
0002
0003
0010
0001
1000
0010
0100
,
0001
2000
3000
0001
0100
0010
0100
0001
0010
0100
1000
0001
1000
0010
1000
0001
,
1000
0100
0010
0001
0100
0010
1000
0000
0001
0100
0000
0100
0001
1000
0010
1000
,
0001
0200
0300
0001
0010
0001
0100
0010
1000
0200
0300
1000
0010
1000
0001
1000
,
0010
0200
0300
0001
0010
0001
0100
0010
0100
0002
0003
1000
0100
0010
0001
0100
,
0010
0200
0300
0001
1000
0010
0100
0001
2002
0000
0000
0000
0000
0000
0000
0000
,
0000
0000
0000
0000
3003
0000
0000
0000
0001
1000
0000
1000
0001
0100
0001
1000
,
0010
0200
0300
0002
0013
0100
0010
0001
0100
0020
0030
1000
0100
1000
0010
1000
,
0001
0020
0030
0001
1000
0010
1000
0001
0100
0002
0003
1000
0100
0010
0100
1000
,
0001
0200
0300
0001
0010
0001
0100
0010
0100
0001
0010
0100
1000
0010
0100
0001
,
1000
0010
0100
0001
1000
0001
0100
0000
0001
0010
0100
1000
0001
0100
0010
0100
,
0000
0000
1001
0000
0001
1000
0010
0100
0001
0010
0100
1000
0001
0100
0010
0100
,
0000
0000
0101
0000
0001
0010
0001
0000
1000
0010
1000
0001
1000
0001
0100
0010
,
0100
0001
0010
0100
1000
0010
0100
0001
2002
0000
0000
0000
0000
0000
0000
0000
,
0000
0000
0000
0000
3003
0000
0000
0000
0001
0000
1000
0010
0000
0010
0100
0000
,
0100
0001
0000
0001
1000
0001
1000
0001
1000
0000
1000
0001
0000
0001
0010
0000
,
0010
0001
0000
0001
0100
0010
0100
0010
0100
0000
0100
0001
0000
0001
0010
0000
,
0010
0001
0000
0001
1000
0000
MMMM
0000
0110
0000
1001
0000
0001
0010
0100
1000
,
0001
0100
0010
1000
0100
0010
0001
1000
0010
0000
0010
1000
0000
1000
0001
0000
,
0001
0010
0000
0010
0001
1000
0001
1000
0001
0000
0001
1000
0000
1000
0100
0000
,
0100
1000
0000
1000
0010
1000
0010
1000
0010
0000
0010
1000
0000
1000
0001
0000
,
0001
0010
0000
0010
0001
1000
0001
0100
0220
0000
0000
0000
0000
0000
0000
0000
,
0000
0000
0000
0000
0330
0000
0000
0000
0100
0001
0010
0100
1000
0001
0100
0010
,
1000
0100
0010
0001
1000
0010
0100
0001
0010
0001
1000
0010
0100
0001
1000
0100
,
0010
0100
1000
0001
0100
0010
0100
0001
0010
0100
1000
0001
0100
0010
0100
0001
,
0010
0001
1000
0001
0100
0001
1000
0010
1000
0001
1000
0001
0100
0001
1000
0020
,
0000
0000
0100
0000
1000
0000
0130
0000
1000
0001
0010
0001
1000
0010
1000
0100
,
0010
0001
1000
0010
0100
0001
0010
0100
1000
0001
0100
0001
1000
0010
1000
0001
,
0010
0001
0100
0001
0010
0100
1000
0010
1000
0100
0010
0100
1000
0001
0100
0010
,
0100
0001
0010
0100
1000
0001
0100
0001
1001
0000
0000
0110
0000
0000
1001
0000
,
MMMM
MMMM
MMMM
MMMM
MMMM
MMMM
MMMM
MMMM
,
MMMM
0000
0000
0000
;
