#TITLE:Oh! Rosa;
#SUBTITLE:;
#ARTIST:Banya;
#TITLETRANSLIT:;
#SUBTITLETRANSLIT:;
#ARTISTTRANSLIT:;
#GENRE:;
#CREDIT:;
#MUSIC:Oh Rosa.ogg;
#BANNER:Oh Rosa.png;
#BACKGROUND:Oh Rosa-BG.png;
#CDTITLE:;
#SAMPLESTART:54.706;
#SAMPLELENGTH:14.367;
#SELECTABLE:YES;
#OFFSET:-0.078;
#BPMS:0.000=148.000;
#STOPS:;
#BGCHANGES:;
#FGCHANGES:;

//--------------- dance-single - Alex ----------------
#NOTES:
     dance-single:
     Alex:
     Beginner:
     1:
     0,0,0,0,0:
0000
0000
0000
0000
,
0000
0000
0000
0000
,
0010
0000
0000
0000
,
0100
0000
0000
0000
,
0001
0000
0000
0000
,
0001
0000
0000
0000
,
1001
0000
0000
0000
,
1000
0000
0000
0000
,
0010
0000
0000
0000
,
1000
0000
0000
0000
,
1000
0000
0000
0000
,
0001
0000
0000
0000
,
0001
0000
0000
0000
,
0100
0000
0000
0000
,
0110
0000
0000
0000
,
0010
0000
0000
0000
,
0100
0000
0000
0000
,
0001
0000
0000
0000
,
1000
0000
0000
0000
,
1000
0000
0000
0000
,
0001
0000
0000
0000
,
0010
0000
0010
0000
,
0010
0000
0000
0000
,
0001
0000
0000
0000
,
0100
0000
0000
0000
,
0010
0000
0000
0000
,
1001
0000
0000
0000
,
0001
0000
0000
0000
,
1000
0000
0000
0000
,
0100
0000
0100
0000
,
0100
0000
0000
0000
,
1000
0000
0000
0000
,
0001
0000
0000
0000
,
0001
0000
0000
0000
,
1001
0000
0000
0000
,
0010
0000
0000
0000
,
0100
0000
0000
0000
,
0010
0000
0000
0000
,
1000
0000
0000
0000
,
0001
0000
0000
0000
,
0001
0000
0000
0000
,
1000
0000
1000
0000
,
1000
0000
0000
0000
,
0010
0000
0000
0000
,
1000
0000
0000
0000
,
0001
0000
0000
0000
,
0001
0000
0000
0000
,
0100
0000
0000
0000
,
0001
0000
0000
0000
,
0001
0000
0000
0000
,
1001
0000
0000
0000
,
1000
0000
0000
0000
,
0010
0000
0000
0000
,
0100
0000
0000
0000
,
0001
0000
0000
0000
,
0010
0000
0000
0000
,
0010
0000
0000
0000
,
0001
0000
0000
0000
,
1000
0000
1000
0000
,
1000
0000
1001
0000
;

//--------------- dance-single - Alex ----------------
#NOTES:
     dance-single:
     Alex:
     Easy:
     3:
     0,0,0,0,0:
0000
0000
0000
0000
,
0000
0000
0000
0000
,
0001
0000
0001
0000
,
1000
0000
1000
0000
,
0010
0000
0010
0000
,
0100
0100
0100
0000
,
1001
0000
0001
0000
,
1000
0000
0001
0000
,
0001
0001
0001
0000
,
1000
1000
1000
0000
,
0010
0000
1000
0000
,
0100
0000
1000
0000
,
0001
0001
0001
0000
,
0010
0010
0010
0000
,
0001
0000
0100
0000
,
0002
0000
0003
0000
,
1000
0000
0010
0000
,
2000
0000
3000
0000
,
0001
0000
1000
0000
,
0002
0000
0003
0000
,
0100
0000
0010
0000
,
0100
0100
0100
0100
,
0110
0000
0010
0000
,
0010
0000
0100
0000
,
0001
0000
1000
0000
,
0001
0001
0001
0001
,
1001
0000
0110
0000
,
2002
0000
3003
0000
,
0011
0000
0101
0000
,
0110
0110
0110
0110
,
0110
0000
0000
0000
,
1001
0000
0000
0000
,
0001
0000
1000
0000
,
2002
0000
3003
0000
,
0001
0000
0001
0000
,
1000
0000
1000
0000
,
0010
0010
0010
0000
,
0100
0100
0100
0000
,
0010
0000
1000
0000
,
1000
0000
0001
0000
,
0010
0010
0010
0000
,
0001
0001
0001
0000
,
1001
0000
0001
0000
,
1000
0000
0001
0000
,
0100
0100
0100
0000
,
0010
0010
0010
0000
,
1000
0000
1000
0000
,
0001
0000
0001
0000
,
1000
1000
1000
0000
,
0010
0010
0010
0000
,
1001
0000
0000
0000
,
1001
0000
0000
0000
,
0110
0000
0000
0000
,
0110
0000
0000
0000
,
0100
0000
0100
0000
,
0010
0000
0010
0000
,
0100
0000
0001
0000
,
0010
0000
0001
0000
,
1000
1000
0001
0001
,
1000
0001
1001
0000
;

//--------------- dance-single - Alex ----------------
#NOTES:
     dance-single:
     Alex:
     Medium:
     6:
     0,0,0,0,0:
0000
0000
0000
0000
,
0000
0000
0000
0000
,
0001
0001
0100
0100
,
0001
0001
1000
1000
,
0010
1000
0010
1000
0010
0000
0000
0000
,
1000
0001
1000
0001
1000
0000
0000
0000
,
0001
0100
1000
0100
,
0001
1001
1000
1001
,
0001
0100
0001
0100
0001
0000
0000
0000
,
1000
0010
1000
0010
1000
0000
0000
0000
,
0001
0010
0100
0010
,
0001
0101
0100
0110
,
0010
0010
1000
1000
,
0001
1000
1001
0000
,
0001
0000
0100
0000
0010
0100
0010
0000
,
0100
0000
0001
0000
1000
0100
1000
0000
,
0001
0000
1000
0000
0010
0100
0010
0000
,
1000
0001
0010
0011
,
0001
0000
0100
0000
0001
0100
0001
0000
,
1000
0000
0010
0000
1000
0010
1000
0000
,
0001
1000
0100
1000
,
1001
0110
1001
0110
,
0010
1000
0010
0000
1000
0000
1000
0000
,
0001
0100
0001
0000
0010
0000
0001
0000
,
0100
0000
0010
0000
,
1001
0110
1001
0110
,
0010
0100
0010
0000
1000
0010
1000
0000
,
0001
0100
0001
0100
0001
0000
0000
0000
,
1000
0100
1000
0000
0001
0000
0000
0000
,
1001
0110
1001
0110
,
0010
1000
0010
0000
1000
0000
1000
0000
,
0001
0010
0001
0000
0100
0000
0001
0000
,
0100
0010
0100
0000
0001
0000
1000
0000
,
0100
1000
0100
0000
1001
0000
0000
0000
,
0001
0001
1000
1000
,
0010
0110
0100
0101
,
0001
0010
0001
0010
0001
0000
0000
0000
,
1000
0100
1000
0100
1000
0000
0000
0000
,
0001
0100
0010
0100
,
0001
0011
0001
0101
,
0001
0100
0001
0100
0001
0000
0000
0000
,
1001
0110
1001
0110
,
0010
0100
0010
0000
0100
0010
0100
0000
,
0001
1000
0001
0000
1000
0001
1000
0000
,
0001
0100
1000
0100
,
0001
0001
1000
1000
,
0001
0010
0001
0000
0001
0010
0001
0000
,
1000
0100
1000
0000
1000
0100
1000
0000
,
0001
0100
0010
0100
,
0101
1010
0101
1010
,
0000
0000
0010
0000
1000
0000
0001
1000
,
0001
0000
1000
0000
0010
0000
0100
0001
,
0100
0000
0001
0000
0010
0000
0001
0010
,
0001
0100
0001
1000
,
0010
0010
1000
0100
,
0010
0100
1000
0001
,
0100
0010
0100
0001
,
1000
0001
0010
0010
,
0001
0001
1000
1000
,
0001
1000
0010
0100
0001
0000
0000
0000
;

//--------------- dance-single - Alex ----------------
#NOTES:
     dance-single:
     Alex:
     Hard:
     9:
     0,0,0,0,0:
0000
0000
0000
0000
,
0000
0000
0000
0000
,
0001
1000
0001
1000
,
0010
0100
0010
0100
,
0001
0010
0100
1000
0001
0000
1000
0000
,
0010
1000
0001
0100
0010
1000
0001
0100
,
0010
1010
1000
1001
,
0001
0100
0101
0000
0010
1000
1010
0000
,
0010
0000
1000
0000
0001
0000
0100
0000
0010
0000
0000
1000
0000
0000
0001
0000
,
0100
0001
0010
0100
0010
0001
0100
0010
,
0100
0101
0001
1001
,
0001
1000
1001
0000
1000
0010
1010
0000
,
0010
0000
1000
0000
0010
0000
0100
0000
0010
0000
0000
0100
0000
0000
0001
0000
,
1001
0000
0110
0000
0001
1000
0010
0100
,
0000
0001
0010
0100
0010
0001
0100
0010
,
0000
0010
1000
0001
0100
0010
1001
0000
,
0000
0001
1000
0100
1000
0001
0100
0001
,
1000
0000
0000
0001
0000
0000
0100
0000
0010
0000
0100
0000
0101
0000
0000
0000
,
0000
0001
0010
0100
0010
0001
0100
0010
,
0100
0000
0000
0100
0000
0000
0001
0000
1000
0000
0100
0000
1100
0000
0000
0000
,
0000
0100
1000
0010
1000
0001
0100
0010
,
1010
1100
0110
0011
,
0001
1000
0001
0000
1000
0010
1000
0000
,
0001
0100
0010
0100
0001
0010
0100
1000
,
0001
0000
1000
0000
,
1001
0110
1100
0011
,
0001
0000
0100
0000
0000
0000
0100
0000
0010
0000
0000
1000
0000
0001
1000
0000
,
0001
0100
0001
0100
0001
0000
0100
0000
0010
0100
0010
0000
0100
0000
0000
0000
,
0001
0000
0000
1000
0000
0010
1000
0000
0001
0000
0000
0000
0100
0000
0010
0000
,
1010
1100
0110
0011
,
0001
0000
0100
0001
0100
0000
0010
0000
1000
0000
0001
1000
0001
0000
1000
0000
,
0100
0000
1000
0100
1000
0000
0010
0000
0100
0000
0001
0000
1000
0000
0000
0000
,
0001
0000
0010
0001
0010
0000
0001
0000
0100
0000
0001
0100
0001
0000
0100
0000
,
0010
0000
1000
0010
1000
0000
0001
0000
1000
0000
0010
0000
0100
0000
0001
0000
,
1000
1100
1000
1010
,
0010
1000
1010
0000
0010
0100
0110
0000
,
0100
0000
0001
0000
0010
0000
0001
0000
0100
0000
0000
0001
0000
0000
0010
0000
,
0001
0100
0010
0100
0001
0001
1000
1000
,
0001
1001
1000
1010
,
0010
1000
1100
0000
0010
0001
0011
0000
,
0001
0000
0100
0000
0010
0000
0100
0000
0001
0000
0000
1000
0000
0000
0001
0000
,
1001
0110
1001
0110
,
1000
0100
0001
0100
1000
0100
0001
0100
,
1000
0010
0001
0010
1000
0010
0001
0010
,
1000
0001
0010
0001
1000
0001
0010
0001
,
0100
0100
0001
0001
1000
0010
1000
0000
,
0001
0100
1000
0100
0001
0100
1000
0100
,
0001
0010
1000
0010
0001
0010
1000
0010
,
0001
1000
0001
0001
0100
0100
0010
1000
,
1100
0011
0101
1010
,
0000
0010
1000
0001
0100
0010
1001
0000
,
0000
0001
0100
0001
1000
0010
1001
0000
,
0000
0001
1000
0100
1000
0001
1001
0000
,
0000
0001
0100
0010
0100
0001
0010
0100
,
1000
0100
1000
0000
0001
0100
0001
0000
,
1000
0010
1000
0000
0001
0010
0001
0000
,
0100
0001
0010
0100
0010
0001
0100
0010
,
0100
0001
0001
1000
0010
1000
0001
0010
,
0100
1000
0001
0100
0010
1000
0001
0100
,
0010
1000
0001
0100
0220
0000
0000
0330
;
