#TITLE:Narcisista Por Excelencia;
#SUBTITLE:;
#ARTIST:Panda;
#TITLETRANSLIT:;
#SUBTITLETRANSLIT:;
#ARTISTTRANSLIT:;
#GENRE:;
#CREDIT:;
#MUSIC:Narcisista Por Excelencia.ogg;
#BANNER:Narcisista Por Excelencia.png;
#BACKGROUND:Narcisista Por Excelencia-BG.png;
#CDTITLE:;
#SAMPLESTART:29.504;
#SAMPLELENGTH:12.637;
#SELECTABLE:YES;
#OFFSET:0.090;
#BPMS:0.000=164.000
,50.000=82.000
,53.500=164.000
,54.500=82.000
,58.500=164.000
,59.500=82.000
,63.000=164.000
,63.500=70.000
,65.000=164.000
;
#STOPS:;
#BGCHANGES:;
#FGCHANGES:;

//--------------- dance-single - Alex ----------------
#NOTES:
     dance-single:
     Alex:
     Beginner:
     1:
     0,0,0,0,0:
0000
0000
0000
0000
,
0000
0000
0000
0000
,
0000
0000
0000
0000
,
0000
0000
0000
0000
,
0000
0000
0100
0000
,
0000
0000
0010
0000
,
0000
0000
1000
0000
,
0000
0000
1000
0000
,
0000
0000
0001
0000
,
0000
0000
0001
0000
,
0000
0000
0100
0000
,
0000
0000
0100
0000
,
0000
0000
1001
0000
,
0000
0000
0000
0000
0000
0010
0000
0000
,
0000
0000
0000
0000
0000
1001
0000
0000
,
0000
0000
0000
0110
,
0000
0100
0000
0100
,
0000
0100
0000
0000
,
0000
0001
0000
0000
,
0000
1000
0000
0000
,
0000
0010
0000
0000
,
0000
0010
0000
0000
,
0000
1000
0000
0000
,
0000
1000
0000
0000
,
0000
0001
0000
0000
,
0000
0100
0000
0100
,
0000
0100
0000
0000
,
0000
0001
0000
0000
,
0000
1000
0000
0000
,
0000
0001
0000
0001
,
0000
0001
0000
0000
,
0000
0100
0000
0000
,
0000
0010
0000
0000
,
0000
1000
0000
1000
,
0000
1000
0000
0000
,
0000
0010
0000
0000
,
0000
1000
0000
0000
,
0000
0001
0000
0000
,
0000
1001
0000
0000
,
0000
0100
0000
0000
,
0000
0001
0000
0000
,
0000
1000
0000
0000
,
0000
0010
0000
0010
,
0000
0010
0000
0000
,
0000
1000
0000
0000
,
0000
0100
0000
0000
,
0000
1000
0000
0000
,
0000
0001
0000
0000
,
0000
0100
0000
0000
,
0000
0001
0000
0001
,
0000
0001
0000
0000
,
0000
1001
0000
0000
,
0000
0010
0000
0000
,
0000
0010
0000
0000
,
0000
1000
0000
0000
,
0000
0100
0000
0000
,
0000
1000
0000
0000
,
0000
0001
0000
0000
,
0000
0001
0000
0000
,
0000
1001
0000
0000
,
0000
0010
0000
0000
,
0000
1000
0000
1000
,
0000
1000
0000
0000
,
0000
0001
0000
0000
,
0000
0100
0000
0000
,
0000
0010
0000
0010
,
0000
0010
0000
0000
;

//--------------- dance-single - Alex ----------------
#NOTES:
     dance-single:
     Alex:
     Easy:
     4:
     0,0,0,0,0:
0000
0000
0000
0000
,
0000
0000
0000
0000
,
0000
0000
0000
0000
,
0000
0000
0000
0000
,
0000
0000
1001
0000
,
0001
0100
0001
0000
,
1000
0100
1000
0000
,
0010
0100
0010
0000
,
0100
0001
1000
0000
,
0001
0010
0001
0000
,
1000
0010
1000
0000
,
0001
1000
0001
0000
,
0100
0100
1001
0000
,
0000
0000
0000
0010
0000
1001
0000
0000
,
0000
0000
0000
0000
0100
1001
0000
0000
,
0000
0000
0000
1001
,
0000
0100
0100
0200
,
0300
0010
1000
0010
,
0000
1000
0100
1000
,
0000
0001
0001
1000
,
1000
1001
0000
0110
,
0000
0010
1000
0010
,
0000
1000
0100
1000
,
0000
0001
0010
0001
,
0000
1001
0000
0110
,
0000
0100
0100
0200
,
0300
0010
0010
0020
,
0030
1000
0000
0001
,
0000
1000
0000
0001
,
0000
0100
0001
0100
,
0000
0010
1000
0010
,
0000
1000
0000
0100
,
0000
1000
0000
1001
,
1001
0010
0010
0100
,
0100
0020
0030
0100
,
0000
0001
0000
1000
,
0000
0001
0010
0001
,
0000
1000
0000
1000
,
0000
2002
0000
0000
0000
3003
0000
0000
,
0000
0010
0100
0010
,
0000
1001
0000
1001
,
0000
0100
0001
0100
,
0000
0110
0000
0110
,
0000
0010
1000
0100
,
1000
0020
0000
0030
,
0000
0100
0001
0010
,
0100
1000
0000
1001
,
0000
0001
0001
1000
,
1000
0020
0000
0030
,
0000
1100
0000
0011
,
0000
0202
0000
0303
,
0000
0110
0000
0010
,
0100
0001
0000
1000
,
0000
0001
0000
1000
,
0000
0010
1000
0010
,
0100
0100
0000
0001
,
0000
1000
0000
0001
,
0000
0010
0010
0010
,
0000
0001
0001
0001
,
0000
1001
0000
1001
,
0000
0110
0000
0110
,
0000
0010
1000
0001
,
0100
0010
0100
0200
,
0300
0101
0000
0101
,
0000
1010
0000
1010
,
0000
0010
0010
1000
,
1000
0002
0000
0000
,
0003
0000
0000
0000
;

//--------------- dance-single - Alex ----------------
#NOTES:
     dance-single:
     Alex:
     Medium:
     6:
     0,0,0,0,0:
0000
0000
0000
0000
,
0000
0000
0000
0000
,
0000
0000
0000
0000
,
0000
0000
0000
0000
,
0000
0000
0001
1000
,
0010
1000
0010
0000
1000
0000
0001
0000
,
0100
0001
0100
0000
0001
0000
0010
0000
,
0001
0010
0001
0000
0100
0000
0100
0000
,
0010
1000
0010
0000
1000
0000
1000
0000
,
0001
1000
0001
0000
0100
0000
0001
0000
,
1000
0100
1000
0000
0010
0000
0100
0000
,
0001
0010
0001
0000
0100
0000
0100
0000
,
0010
0100
0010
0000
2002
0000
3003
0000
,
0000
0000
0000
0110
0000
2002
0000
3003
,
0000
0000
0000
0000
0011
2200
0000
3300
,
0000
0000
0000
0000
0000
0000
0220
0330
,
0000
1001
1001
2002
,
3003
0110
0010
0010
,
1000
0001
1000
0100
,
0010
0100
1000
0001
,
0100
0100
0001
1000
,
0010
1000
0001
0100
,
1000
0100
0001
1000
,
0001
0010
1000
0010
,
0001
1000
1000
0010
,
0010
1010
1010
0010
,
0100
0000
0001
0000
0001
0000
1000
0100
,
1000
0001
0100
0010
,
0100
0000
0001
0010
0001
0000
1000
0100
,
1000
0100
1000
0000
1001
0000
0001
0000
,
0001
1000
0010
1000
,
0100
0000
0010
0000
0100
0000
1000
0001
,
0000
0100
0000
0010
0000
0100
0000
2002
,
0000
3003
0110
0000
0110
0000
0010
1000
,
0000
1000
0010
0000
1000
0000
1000
0000
,
0001
0001
0100
0010
,
0100
0001
0010
0100
,
1000
0000
1100
0000
0011
0000
0001
0100
,
0000
0220
0000
0000
0000
0000
0000
0000
,
0330
0000
0001
0000
0001
0000
1000
0100
,
1000
0001
0100
0010
,
0100
0000
0001
0000
0001
0000
0010
0001
,
0010
0001
1000
0010
,
1000
0000
0001
0000
1000
0000
0100
1000
,
0000
1000
0000
0001
0200
0000
0000
0000
,
0310
0100
0001
1000
,
0010
1000
0000
0001
0000
0100
0000
0100
,
0010
1001
0110
0010
,
0100
0001
0001
1000
,
1000
0000
0001
0010
0001
0000
1000
0010
,
1000
1001
1001
2002
,
3003
0110
0110
0010
,
1000
0000
0100
0000
0100
0000
1000
0010
,
1000
0001
0100
0010
,
0100
0000
0001
0000
0010
0000
0100
1000
,
0100
1010
1010
0010
,
1000
0000
0001
0000
0001
0000
0100
0001
,
0100
0001
0010
0100
,
1000
0001
0000
0100
0000
0010
0000
0100
,
0010
0000
1001
0000
0110
0000
0010
0100
,
0001
0000
1100
0000
0011
0000
1000
0010
,
0100
0000
0011
0000
1100
0000
0001
0100
,
0010
0110
0101
0011
,
1001
0000
1010
0000
1100
0000
0100
1000
,
0100
0000
1010
0000
0110
0000
0010
0100
,
0010
0000
0100
0001
1000
0001
1000
0001
,
1000
2002
0000
0000
,
0000
0000
0000
3003
;

//--------------- dance-single - Alex ----------------
#NOTES:
     dance-single:
     Alex:
     Hard:
     9:
     0,0,0,0,0:
0000
0000
0000
0000
,
0000
0000
0000
0000
,
0000
0000
0000
0000
,
0000
0000
0000
0000
,
0000
0000
0000
0000
0001
2002
3003
0001
,
0100
0010
0100
0001
1000
2020
3030
0010
,
1000
0001
0100
0010
0100
0202
0303
0001
,
1000
0010
1000
0001
0010
0022
0033
0001
,
0100
0010
1000
0001
1000
2002
3003
0001
,
1000
0100
1000
0010
1000
2002
3003
0001
,
0001
1000
0010
0010
1000
2200
3300
1000
,
0010
0100
0001
0010
0010
0022
0033
0001
,
0100
0000
0010
0000
0100
0000
0001
0000
1000
0010
0100
0001
0000
0101
0000
0110
,
0000
1100
0000
0220
0330
0000
0101
0000
0000
0000
1000
0001
0100
0001
0000
1001
,
0000
0110
0000
0011
0000
1100
0000
0022
0000
0033
1001
0000
1001
0000
0000
0000
,
0002
0000
0103
0010
0000
1000
0000
0002
0000
0003
0010
0100
0010
0000
0020
0000
,
0000
0030
1001
0000
1001
0000
1001
0000
,
0001
0100
0110
0010
1000
0100
0010
0100
,
1000
0001
0100
0010
0100
0001
0010
0100
,
1000
0000
0001
0100
0010
0000
0100
0000
0001
0000
1000
0010
0100
0000
0001
0000
,
0010
0000
0001
0010
0001
0000
0100
0000
0010
0000
1000
0100
1000
0000
0010
0000
,
0100
0000
0001
0100
0010
0000
1000
0000
0001
0000
0010
0000
0001
0000
1000
0000
,
0010
1000
0001
1000
0100
1000
0001
0100
,
0010
0000
0100
0000
0001
0000
1000
0010
1000
0000
0001
0000
0010
0000
0001
0010
,
0001
0000
0100
0000
0010
0000
0100
0001
0100
0000
0001
0000
1000
0000
0010
1000
,
0010
1000
1001
0000
0110
0000
0010
0100
,
0000
0202
0303
0001
0010
0100
1000
0010
,
1000
2002
3003
0001
1000
0010
0100
0001
,
0010
0002
0003
0100
0010
0200
0000
0302
,
0000
1003
1010
0000
0101
0000
0001
1000
,
0000
2002
3003
0001
1000
0010
1000
0001
,
0010
0002
0003
0100
0010
0100
0001
0010
,
0100
2000
0000
3020
0000
0230
0000
0302
,
0000
1003
1001
0000
0110
0000
0010
1000
,
0000
2020
3030
1000
0001
0100
0001
1000
,
0100
0020
0030
0001
0100
0010
0100
0001
,
0010
0002
0000
0203
0000
0320
0000
0230
,
0000
0301
1001
0000
0110
0000
0011
1100
,
0000
2002
0000
0000
0000
0000
3003
1001
,
1001
0000
0001
0100
0010
0100
0001
1000
,
0000
1010
0000
0010
1000
0001
0100
0100
,
0001
1000
0100
0010
0100
1000
0001
0100
,
0010
0200
0000
0302
0000
0023
0000
0130
,
1000
0010
0100
0001
1000
0010
1000
0002
,
0000
2003
0000
3200
0000
0000
0000
0000
,
1300
0000
1000
0010
1000
0001
1000
0010
,
0100
0002
0000
2003
0000
3020
0000
0100
,
0130
0000
0001
0010
0001
0100
0010
0200
,
0000
0302
0000
2003
0000
0000
0000
0000
,
3010
0000
0000
0000
1000
0010
1000
0000
0001
0100
0001
0000
1000
0100
1000
0000
,
0001
0000
0000
0100
0000
0000
0001
0000
0000
0000
0000
0000
0100
0000
0000
0000
0010
0000
0000
0000
0100
0000
0000
0000
0010
0000
0000
0000
0100
0000
0000
0000
0010
0000
0000
0000
0100
0000
0000
0000
0010
0000
0000
0000
0100
0000
0000
0000
,
0010
0000
0100
0000
0010
0000
0100
0000
0000
0000
0000
0000
1001
0000
0000
0000
0000
0000
0001
0000
0000
1000
0000
0000
,
0010
2000
0000
3001
0100
0010
0100
0001
,
0010
0001
0100
0000
0110
0000
0010
1000
,
0100
1000
0000
1010
0000
0101
0000
1001
,
0000
1000
0001
0100
0001
0100
0010
2000
,
0000
3002
0000
0103
0100
0010
1000
0100
,
0010
0001
0100
0100
0010
1000
0001
0010
,
0000
0011
0000
0101
0000
0110
0000
2020
,
0000
0000
3030
0000
1000
0000
0001
0000
0100
0001
0100
0000
0010
0000
1000
0000
,
0001
1000
0001
0000
0100
0000
0010
0000
1000
0010
1000
0000
0001
0000
1000
0000
,
0001
0100
0001
0000
0010
0000
0001
0000
0100
0010
0100
0000
0001
0000
0010
0000
,
0100
1000
0100
0000
1000
0000
0010
0000
1000
0010
1000
0000
0001
0000
0100
0000
,
0010
0100
0010
0000
0100
0000
0001
0000
0010
0001
0010
0000
0001
0000
0100
0000
,
0010
0100
0010
0000
1000
0000
0001
0000
1000
0001
1000
0000
0001
0000
0100
0000
,
0001
0100
0001
0000
0100
0010
0100
0000
0001
0010
0001
0000
1000
0100
1000
0000
,
0001
0100
0001
0000
2002
0000
0000
0000
0000
0000
0000
0000
0000
0000
0000
0000
,
0000
0000
0000
3003
;
