#TITLE:Naissance;
#SUBTITLE:;
#ARTIST:Banya;
#TITLETRANSLIT:;
#SUBTITLETRANSLIT:;
#ARTISTTRANSLIT:;
#GENRE:;
#CREDIT:;
#MUSIC:Naissance.ogg;
#BANNER:Naissance.png;
#BACKGROUND:Naissance-BG.png;
#CDTITLE:;
#SAMPLESTART:35.265;
#SAMPLELENGTH:15.351;
#SELECTABLE:YES;
#OFFSET:0.000;
#BPMS:0.000=136.000
,64.000=135.500
;
#STOPS:;
#BGCHANGES:;
#FGCHANGES:;

//--------------- dance-single - Alex ----------------
#NOTES:
     dance-single:
     Alex:
     Beginner:
     1:
     0,0,0,0,0:
0000
0000
0000
0000
,
0000
0000
0000
0000
,
0000
0000
0000
0000
,
0000
0000
0000
0000
,
0000
0000
0000
0000
,
0000
0000
0000
0000
,
0000
0000
0000
0000
,
0000
0000
0000
0000
,
0001
0000
0000
0000
,
0001
0000
0000
0000
,
1000
0000
0000
0000
,
1000
0000
0000
0000
,
0001
0000
0000
0000
,
0100
0000
0000
0000
,
0100
0000
0000
0000
,
0010
0000
0000
0000
,
1001
0000
0000
0000
,
0001
0000
0000
0000
,
1000
0000
0000
0000
,
0001
0000
0000
0000
,
1000
0000
0000
0000
,
0010
0000
0000
0000
,
1000
0000
1000
0000
,
1000
0000
0000
0000
,
0001
0000
0000
0000
,
0100
0000
0000
0000
,
0001
0000
0001
0000
,
0001
0000
0000
0000
,
0110
0000
0000
0000
,
0010
0000
0000
0000
,
0001
0000
0000
0000
,
0001
0000
0000
0000
,
1000
0000
0000
0000
,
1000
0000
0000
0000
,
0010
0000
0000
0000
,
1000
0000
0000
0000
,
0100
0000
0000
0000
,
1000
0000
0000
0000
,
0001
0000
0000
0000
,
0100
0000
0000
0000
,
1001
0000
0000
0000
,
0001
0000
0000
0000
,
0010
0000
0010
0000
,
0010
0000
0000
0000
,
0001
0000
0000
0000
,
1000
0000
0000
0000
,
0100
0000
0100
0000
,
0100
0000
0000
0000
,
1001
0000
0000
0000
,
0001
0000
0000
0000
,
0001
0000
0000
0000
,
1000
0000
0000
0000
,
0010
0000
0010
0000
,
0010
0000
0000
0000
,
0100
0000
0000
0000
;

//--------------- dance-single - Alex ----------------
#NOTES:
     dance-single:
     Alex:
     Easy:
     3:
     0,0,0,0,0:
0000
0000
0000
0000
,
0000
0000
0000
0000
,
0000
0000
0000
0000
,
0000
0000
0000
0000
,
0000
0000
0000
0000
,
0000
0000
0000
0000
,
0000
0000
0000
0000
,
0000
0000
0000
0000
,
1000
0000
0010
0000
,
1000
0000
0010
0000
,
0100
0000
0001
0000
,
0100
0100
0100
0000
,
0001
0000
0001
0000
,
1000
0000
1000
0000
,
0010
0000
0010
0000
,
1000
0001
1000
0000
,
1001
0000
1001
0000
,
0110
0000
0110
0000
,
0010
0000
1000
0000
,
0001
1000
0001
1000
,
1001
0000
0010
0010
,
0010
0000
0100
0100
,
0100
0000
0001
0001
,
0001
0000
1000
0000
,
1001
0000
0010
0010
,
0010
0000
1000
1000
,
1000
0000
0100
0100
,
0100
0000
2002
3003
,
0001
0000
0001
0000
,
1000
0000
1000
0000
,
0010
0000
0010
0000
,
0100
0000
0100
0000
,
0001
0010
0001
0000
,
1000
0000
0010
0000
,
1000
0010
1000
0000
,
0001
0000
1000
0000
,
0001
0100
0001
0000
,
0100
0000
0010
0000
,
1000
0100
1000
0000
,
2002
0000
3003
0000
,
1001
0000
0010
0010
,
0010
0000
0100
0100
,
0100
0000
0010
0010
,
0010
0000
1000
0000
,
1001
0000
0001
0001
,
0001
0000
1000
1000
,
1000
0000
0001
0001
,
0001
0000
0100
0000
,
0110
0000
0010
0000
,
0010
0000
1000
0000
,
0001
0000
0001
0000
,
1000
0000
0001
0000
,
1000
1000
1000
1000
,
0001
0001
0001
0001
,
1001
0000
0000
0000
;

//--------------- dance-single - Alex ----------------
#NOTES:
     dance-single:
     Alex:
     Medium:
     5:
     0,0,0,0,0:
0000
0000
0000
0000
,
0000
0000
0000
0000
,
0000
0000
0000
0000
,
0000
0000
0000
0000
,
0000
0000
0000
0000
,
0000
0000
0000
0000
,
0000
0000
0000
0000
,
0000
0000
0000
0000
,
0001
1000
0001
0000
,
1000
0010
1000
0000
,
0001
0010
0001
0000
,
0100
0010
0100
0001
,
1000
1000
0001
0000
,
0001
0001
0100
0000
,
0010
0010
0100
0000
,
0001
1000
0001
0100
,
0110
0100
0001
1000
,
0010
0010
1000
1000
,
0001
0010
0001
0100
,
0010
1000
0001
0010
,
1001
0000
0000
0000
0000
0000
0000
0000
0001
0000
0000
1000
0000
0000
0001
0000
,
1000
0000
0000
0000
0000
0000
0000
0000
0010
0000
0000
0100
0000
0000
0010
0000
,
0100
0000
0000
0000
0000
0000
0000
0000
0001
0000
0000
0010
0000
0000
0001
0000
,
0010
0000
0001
1000
0001
1000
0000
0000
,
1001
0000
0000
0000
0000
0000
0000
0000
1000
0000
0000
0010
0000
0000
0100
0000
,
0001
0000
0000
0000
0000
0000
0000
0000
1000
0000
0000
0001
0000
0000
0100
0000
,
0001
0000
0000
0000
0000
0000
0000
0000
0100
0000
0000
0010
0000
0000
0100
0000
,
0001
0000
1000
0001
1000
0001
0000
0000
,
1000
0001
1000
0000
,
0001
0100
0010
0100
,
0001
0001
1000
0000
,
0001
0010
0001
0100
,
0110
0100
0001
0000
,
1000
0010
1000
0000
,
0001
0010
0001
0000
,
1000
1000
0001
0100
,
0010
0010
0100
0000
,
0001
0010
0001
0000
,
1000
0010
1000
0000
,
0001
0100
0010
0100
,
1001
0000
0000
0000
0000
0000
0000
0000
0001
0000
0000
0010
0000
0000
0001
0000
,
1000
0000
0000
0000
0000
0000
0000
0000
0010
0000
0000
1000
0000
0000
0010
0000
,
1000
0000
0000
0000
0000
0000
0000
0000
0001
0000
0000
1000
0000
0000
0001
0000
,
1000
0000
0001
1000
0001
1000
0000
0000
,
1001
0000
0000
0000
0000
0000
0000
0000
0010
0000
0000
0100
0000
0000
0010
0000
,
0100
0000
0000
0000
0000
0000
0000
0000
0001
0000
0000
0010
0000
0000
0001
0000
,
0010
0000
0000
0000
0000
0000
0000
0000
0001
0000
0000
1000
0000
0000
0001
0000
,
1000
0000
0001
1000
0001
1000
0000
0000
,
0001
1000
0001
0001
,
1000
0010
1000
1000
,
0001
0100
0010
0010
,
0100
0001
1000
0001
,
1001
1001
1001
1001
,
0110
0110
0110
0110
,
1001
0000
0000
0000
;

//--------------- dance-single - Alex ----------------
#NOTES:
     dance-single:
     Alex:
     Hard:
     8:
     0,0,0,0,0:
0000
0000
0000
0000
,
0000
0000
0000
0000
,
0000
0000
0000
0000
,
0000
0000
0000
0000
,
0000
0000
0000
0000
,
0000
0000
0000
0000
,
0000
0000
0000
0000
,
0001
0000
1000
0000
0010
0000
1000
0000
0001
0000
0100
0000
0010
0100
0000
0000
,
0001
0000
0000
0000
0010
0000
0000
0001
0000
0100
0001
0000
1000
0000
0000
0000
,
0010
0000
0000
0000
1000
0000
0000
0001
0000
1000
0100
0000
0010
0000
0000
0000
,
0001
0000
0000
0000
1000
0000
0000
0001
0000
0100
0001
0000
0100
0000
0000
0000
,
0010
0000
1000
0000
0001
0000
0010
0000
0001
0000
1000
0000
0010
1000
0000
0000
,
0001
0000
0100
0000
0010
0000
0000
0100
0000
0000
0001
0000
1000
0000
0000
0000
,
0001
0000
0010
0000
0001
0000
0000
1000
0000
0000
0010
0000
0100
0000
0000
0000
,
0001
0000
1000
0000
0100
0000
0000
1000
0000
0000
0010
0000
0100
0000
0000
0000
,
0001
0000
0010
0000
0100
0000
0010
0000
0001
0000
0100
0000
0010
0100
0000
0000
,
0001
0000
0010
0000
0001
0000
0000
1000
0000
0010
1000
0000
0001
0000
0000
0000
,
1000
0000
0100
0000
0010
0000
0000
0001
0000
1000
0001
0000
1000
0000
0000
0000
,
0010
0000
0100
0000
0010
0000
0000
0100
0000
0001
0010
0000
0001
0000
0000
0000
,
1000
0010
1000
0001
1000
0010
0100
0001
,
0011
0000
0000
0000
0001
0000
0100
0000
0010
0000
0000
1000
0000
0000
0001
0000
,
1001
0000
0000
0000
0001
0000
1000
0000
0100
0000
0000
1000
0000
0000
0001
0000
,
0011
0000
0000
0000
0001
0000
0100
0000
0010
0000
0000
0010
0000
0000
1000
0000
,
0001
0000
1000
0001
1000
1001
0000
0000
,
1001
0000
0000
0000
0001
0000
1000
0000
0010
0000
0000
0100
0000
0000
0001
0000
,
0011
0000
0000
0000
0001
0000
0100
0000
0001
0000
0000
1000
0000
0000
0010
0000
,
1010
0000
0000
0000
0010
0000
1000
0000
0001
0000
0000
1000
0000
0000
0100
0000
,
1000
0000
0001
1000
0001
1001
0000
0000
,
0001
0000
0100
0000
0010
0000
0000
0100
0001
0000
1000
0000
0010
0000
0000
0000
,
1000
0000
0001
0000
0010
0000
0000
0001
0100
0000
0010
0000
0100
0000
0001
0100
,
0001
0000
0100
0000
0010
0000
0000
1000
0100
0000
1000
0000
0010
0000
0000
0000
,
1000
0000
0001
0000
0010
0000
0000
0001
1000
0000
0010
0000
0100
0000
0001
0100
,
0001
0000
0100
0000
0010
0000
0000
1000
0000
0000
0001
0000
1000
0000
0000
0000
,
0001
0000
0100
0000
0001
0000
0000
1000
0000
0000
0100
0000
1000
0000
0000
0000
,
0010
0000
1000
0000
0010
0000
0000
1000
0000
0000
0001
0000
0010
0000
0000
0000
,
0001
0000
0100
0000
0010
0000
0100
0001
0100
0000
0001
0000
1000
0000
0100
1000
,
0100
0000
1000
0000
0010
0000
0000
1000
0000
0000
0001
0000
1000
0000
0000
0000
,
0010
0000
0100
0000
0001
0000
0000
0100
0000
0000
0010
0000
1000
0000
0000
0000
,
0001
0000
0010
0000
0001
0000
0000
0100
0000
0000
0001
0000
1000
0000
0000
0000
,
0010
1000
0001
0100
0010
1000
0001
1000
,
1001
0000
0000
0000
0001
0000
0100
0000
0010
0000
0000
0100
0000
0000
0001
0000
,
0011
0000
0000
0000
0001
0000
1000
0000
0001
0000
0000
1000
0000
0000
0010
0000
,
1010
0000
0000
0000
1000
0000
0001
0000
0010
0000
0000
0001
0000
0000
0100
0000
,
0010
0000
1000
0001
1000
1001
0000
0000
,
1001
0000
0000
0000
0001
0000
0100
0000
0010
0000
0000
0100
0000
0000
0001
0000
,
0011
0000
0000
0000
0001
0000
1000
0000
0010
0000
0000
0010
0000
0000
1000
0000
,
1001
0000
0000
0000
0001
0000
1000
0000
0100
0000
0000
1000
0000
0000
0010
0000
,
1000
0000
0001
1000
0001
1001
0000
0000
,
0001
0000
1000
0000
0010
0000
0000
1000
0010
0000
1000
0000
0001
0000
0000
0000
,
0010
0000
0001
0000
1000
0000
0000
0001
0100
0000
0010
0000
1000
0000
0100
1000
,
0100
0000
1000
0000
0010
0000
0000
0100
0001
0000
0010
0000
0001
0000
0000
0000
,
1000
0000
0001
0000
1000
0000
0000
0010
0100
0000
0001
0000
1000
0000
0100
0010
,
0001
0100
0001
1000
0010
1000
0010
1000
,
0001
0010
0100
1000
0001
0100
0010
1000
,
2002
0000
0000
0000
,
0000
0000
0000
0000
,
3003
0000
0000
0000
;

//--------------- dance-single - Alex ----------------
#NOTES:
     dance-single:
     Alex:
     Challenge:
     9:
     0,0,0,0,0:
0000
0000
0000
0000
,
0000
0000
0000
0000
,
0000
0000
0000
0000
,
0000
0000
0000
0000
,
0000
0000
0000
0000
,
0000
0000
0000
0000
,
0000
0000
0000
0000
,
0001
0000
0101
0000
0100
0000
0110
0000
0010
0000
1010
0000
1000
0001
0000
0000
,
0001
0000
1000
0000
0010
0000
1000
0000
0001
0100
0000
0100
0001
0000
0000
0000
,
1000
0000
0010
0000
1000
0000
0001
0000
1000
0100
0000
0100
1000
0000
0000
0000
,
0001
0000
0100
0000
0010
0000
0100
0000
0001
0010
0000
0010
0001
0000
0000
0000
,
0001
0000
1001
0000
1000
0000
1001
0000
0001
0000
0101
0000
0001
0100
0000
0000
,
0010
0000
1000
0000
0100
0000
0010
0001
0100
0010
0000
0100
0001
0000
0000
0000
,
1000
0000
0010
0000
1000
0000
0001
1000
0100
1000
0000
1000
0001
0000
0000
0000
,
0001
0000
0100
0000
0010
0000
0100
0001
0010
0001
0000
0001
0100
0000
0000
0000
,
0010
0000
1010
0000
1000
0000
1001
0000
0001
0000
0101
0000
0001
1000
0000
0000
,
0001
0000
1000
0000
0010
0000
1000
0001
0010
0001
0000
1000
0001
0000
0000
0000
,
1000
0000
0010
0000
1000
0000
0001
1000
0100
1000
0000
1000
0001
0000
0000
0000
,
0001
0000
0100
0000
0010
0000
0100
0001
0010
0001
0000
0001
0100
0000
0000
0000
,
0010
1010
1000
1001
0001
0101
0100
0110
,
0010
1000
0010
0000
1000
0001
1000
0001
0100
0000
0000
0110
0000
0000
1001
0000
,
0001
0010
0001
0000
1000
0100
1000
0100
1000
0000
0000
1010
0000
0000
0101
0000
,
0001
1000
0010
0000
0100
0001
0010
0001
0100
0000
0000
0110
0000
0000
0101
0000
,
0011
0000
1001
0110
1001
0110
0000
0000
,
0001
1000
0001
0000
1000
0100
1000
0100
1000
0000
0000
1010
0000
0000
0101
0000
,
0001
0010
0001
0000
0100
0001
0010
0001
0100
0000
0000
0110
0000
0000
1010
0000
,
0010
1000
0100
0000
1000
0010
1000
0010
1000
0000
0000
1010
0000
0000
0101
0000
,
0011
0000
1001
0110
1001
0110
0000
0000
,
0001
0000
0010
0000
0100
0000
1000
0001
0100
0010
1000
0000
1001
0000
0000
0000
,
0001
0000
0010
0000
0001
0000
0100
0010
0100
0001
0010
0000
0011
0000
1100
0000
,
0001
0000
1000
0000
0010
0000
1000
0001
0010
0001
1000
0000
1001
0000
0000
0000
,
0001
0000
0100
0000
0010
0000
0100
0001
0010
0100
1000
0000
1100
0000
0011
0000
,
0001
0000
0100
0000
0010
0000
0100
0001
0000
0001
1000
0000
0010
0000
0000
0000
,
1000
0000
0001
0000
0010
0000
0001
1000
0000
1000
0001
0000
0100
0000
0000
0000
,
0010
0000
1000
0000
0001
0000
0010
0001
0000
0001
0010
0000
0001
0000
0000
0000
,
0001
0000
1000
0000
0010
0000
1000
0001
1000
0001
1000
0000
0001
0000
0100
0001
,
0100
0000
0010
0000
0100
0000
0001
0010
0000
0010
0001
0000
1000
0000
0000
0000
,
0010
0000
1000
0000
0001
0000
1000
0100
0000
0100
1000
0000
0001
0000
0000
0000
,
1000
0000
0010
0000
1000
0000
0001
0010
0000
0010
0001
0000
0100
0000
0000
0000
,
0001
0000
1001
0000
1000
0000
1010
0000
0010
0000
0110
0000
0100
0001
0000
0000
,
0001
1000
0001
0000
1000
0010
1000
0010
1000
0000
0000
1010
0000
0000
1001
0000
,
0001
0010
0001
0000
0100
0001
0100
0001
0100
0000
0000
0110
0000
0000
0101
0000
,
0001
1000
0010
0000
1000
0100
1000
0010
1000
0000
0000
1010
0000
0000
0101
0000
,
0011
0000
1001
0110
1001
0110
0000
0000
,
0001
0100
0001
0000
0010
0001
0010
0001
0010
0000
0000
0011
0000
0000
0101
0000
,
0100
0010
0100
0000
0001
1000
0001
1000
0001
0000
0000
1001
0000
0000
0110
0000
,
0010
1000
0010
0000
1000
0100
1000
0010
1000
0000
0000
1010
0000
0000
0101
0000
,
0011
0000
1001
0110
1001
0110
0000
0000
,
1000
0000
0001
0000
0100
0000
0010
1000
0000
1000
0001
0000
1000
0000
0001
0100
,
0001
0000
0100
0000
0010
0000
1000
0100
0000
0100
1000
0000
0010
1000
0010
1000
,
0010
0000
0100
0000
0001
0000
0010
0001
0000
0001
0010
0000
0001
0000
0100
0010
,
0100
0000
0001
0000
1000
0000
0100
0010
0000
0010
0100
0000
1000
0010
1000
0010
,
1000
0000
0001
1000
0001
0000
0100
0001
0100
0000
0010
0100
0010
0000
0100
0001
,
0100
0001
0100
0001
0100
0010
0100
0010
0100
0010
1000
0010
1000
0010
1000
0020
,
2000
0000
0000
0000
,
0000
0000
0000
0000
,
3030
0000
0000
0000
;
