#TITLE:Naissance 2;
#SUBTITLE:;
#ARTIST:Banya;
#TITLETRANSLIT:;
#SUBTITLETRANSLIT:;
#ARTISTTRANSLIT:;
#GENRE:;
#CREDIT:;
#MUSIC:Naissance 2.ogg;
#BANNER:Naissance 2.png;
#BACKGROUND:Naissance 2-BG.png;
#CDTITLE:;
#SAMPLESTART:59.572;
#SAMPLELENGTH:13.411;
#SELECTABLE:YES;
#OFFSET:-0.095;
#BPMS:0.000=129.000;
#STOPS:;
#BGCHANGES:;
#FGCHANGES:;

//--------------- dance-single - Alex ----------------
#NOTES:
     dance-single:
     Alex:
     Beginner:
     1:
     0,0,0,0,0:
0000
0000
0000
0000
,
0000
0000
0000
0000
,
0000
0000
0000
0000
,
0000
0000
0000
0000
,
0110
0000
0000
0000
,
0001
0000
0000
0000
,
0001
0000
0000
0000
,
0100
0000
0000
0000
,
1000
0000
0000
0000
,
0010
0000
0000
0000
,
1000
0000
0000
0000
,
0001
0000
0000
0000
,
1001
0000
0000
0000
,
0010
0000
0000
0000
,
0100
0000
0000
0000
,
0100
0000
0000
0000
,
0001
0000
0001
0000
,
0001
0000
0000
0000
,
1000
0000
1000
0000
,
1000
0000
0000
0000
,
1001
0000
0000
0000
,
0010
0000
0000
0000
,
1000
0000
0000
0000
,
0001
0000
0000
0000
,
1000
0000
0000
0000
,
1000
0000
0000
0000
,
0010
0000
0000
0000
,
0100
0000
0000
0000
,
0001
0000
0001
0000
,
0001
0000
0000
0000
,
1000
0000
1000
0000
,
1000
0000
0000
0000
,
0110
0000
0000
0000
,
1001
0000
0000
0000
,
0010
0000
0000
0000
,
0001
0000
0000
0000
,
0100
0000
0000
0000
,
0010
0000
0000
0000
,
1000
0000
0000
0000
,
0001
0000
0000
0000
,
1000
0000
0000
0000
,
0100
0000
0000
0000
,
0000
0000
0010
0000
,
0000
0000
1000
0000
,
0000
0000
0001
0000
,
0000
0000
0100
0000
,
0100
0000
0100
0000
,
0000
0000
0001
0000
,
0000
0000
1000
0000
,
0000
0000
1000
0000
,
1000
0000
1000
0000
,
0000
0000
0010
0000
,
0000
0000
0110
0000
;

//--------------- dance-single - Alex ----------------
#NOTES:
     dance-single:
     Alex:
     Easy:
     3:
     0,0,0,0,0:
0000
0000
0000
0000
,
0000
0000
0000
0000
,
0000
0000
0000
0000
,
0000
0000
0000
0000
,
0100
0000
0010
0000
,
0100
0000
0100
0000
,
0001
0000
1000
0000
,
0001
0001
0001
0000
,
1000
0000
0001
0000
,
1000
0000
1000
0000
,
0010
0000
0100
0000
,
0001
0001
0001
0000
,
1001
0000
0001
0000
,
1000
0000
0010
0010
,
0010
0000
1000
0000
,
0100
0000
1000
1000
,
1000
0000
0001
0000
,
1000
0000
0001
0000
,
0100
0000
0100
0000
,
0010
0010
0010
0000
,
1001
0000
0010
0000
,
1000
0000
0001
0000
,
0001
0000
1000
0000
,
0100
0000
1001
0000
,
0010
0000
1000
0000
,
1000
0000
0001
0000
,
1000
0000
0010
0000
,
0100
0000
0110
0000
,
0010
0010
0010
0000
,
1000
0000
0001
0000
,
1000
1000
1000
0000
,
0001
1000
0001
1000
,
1001
0000
1001
0000
,
0010
0010
0010
0000
,
1000
0000
0100
0000
,
1000
0000
1000
1000
,
1000
0000
0001
0000
,
1000
0000
0001
0001
,
0001
0000
0100
0000
,
0010
0000
1000
1000
,
1000
0000
0010
0000
,
1000
0000
1001
0000
,
0000
0000
0001
0001
,
0001
0000
1000
0000
,
0001
0000
1000
1000
,
1000
0000
0110
0000
,
0000
0000
0010
0010
,
0010
0000
1000
0000
,
0001
0000
0100
0100
,
0100
0000
1001
0000
,
0000
0000
0001
0001
,
0001
0000
1000
0000
,
0001
0000
0100
0100
,
0100
0100
0000
0000
;

//--------------- dance-single - Alex ----------------
#NOTES:
     dance-single:
     Alex:
     Medium:
     5:
     0,0,0,0,0:
0000
0000
0000
0000
,
0000
0000
0000
0000
,
0000
0000
0000
0000
,
0000
0000
0000
0000
,
1000
0010
1000
0000
,
0001
0010
0001
0000
,
0100
0010
0100
0000
,
0001
0001
1000
1000
,
0001
1000
0100
0000
,
1000
0001
0100
0000
,
0010
0100
0010
0000
,
1000
1000
0100
0100
,
1001
0000
0010
0100
,
0001
0000
1000
0100
,
0010
0000
0001
1000
,
0010
1000
0001
1000
,
1001
0001
1000
0000
,
0001
0010
0001
0000
,
1000
0010
1000
0000
,
0001
1000
0001
1001
,
0001
0100
0010
0100
,
0001
0001
1000
1000
,
0100
0010
0001
1000
,
0010
1000
1001
0000
,
0001
0001
1000
0010
,
1000
1000
0100
1000
,
0001
0100
0010
0100
,
0001
0001
1001
0000
,
0010
0010
0010
0000
,
1000
1000
0001
0001
,
0100
0100
0100
0000
,
0001
1000
0001
1001
,
1000
0010
1000
0000
,
0001
0010
0001
0000
,
0100
0100
0001
0000
,
1000
0010
1000
0010
,
1000
0001
0100
0000
,
0001
0010
0100
0010
,
0001
0100
0001
0000
,
1000
0010
1000
0001
,
1000
1000
0010
0000
,
0100
0001
0100
0001
,
1001
0000
0010
0010
,
0010
0000
1000
0100
,
1000
0000
0001
0010
,
0001
0000
0100
0100
,
0010
0010
0010
1000
,
0100
0000
1000
0001
,
0100
0000
0010
0100
,
0001
0000
1000
1000
,
0001
0001
0100
0001
,
0100
0000
0010
1000
,
0001
0100
0010
0100
,
0010
1001
0000
0000
;

//--------------- dance-single - Alex ----------------
#NOTES:
     dance-single:
     Alex:
     Hard:
     8:
     0,0,0,0,0:
0000
0000
0000
0000
,
0000
0000
0000
0000
,
0000
0000
0000
0000
,
0000
0000
0000
0000
,
0001
0000
1000
0000
0010
0100
0010
0000
,
1000
0100
0010
0100
1000
0000
1001
0000
,
0001
0000
0100
0000
0010
0100
0010
0000
,
1000
0010
1000
0010
1000
0000
1001
0000
,
0001
0000
0100
0000
0010
0100
0010
0000
,
1000
0001
0010
0001
1000
0000
1001
0000
,
0001
0000
0100
0000
0010
0100
0010
0000
,
1000
0100
1000
0100
1000
0000
1010
0000
,
0010
0000
1000
0000
0010
0100
0001
0100
,
0010
0000
1000
0000
0001
1000
0100
1000
,
0001
0000
1000
0000
0001
0010
0001
1000
,
0010
0100
1001
0000
,
0001
0000
1000
0100
1000
0001
0100
0000
,
0100
0000
0010
1000
0001
0010
0001
0000
,
0100
0000
0010
1000
0001
1000
0100
0000
,
1000
0001
1000
0001
1000
0001
1000
0000
,
1001
0000
0010
0000
0100
0001
0100
0000
,
0010
0000
1000
0000
0100
1000
0100
0000
,
1000
0000
0001
0000
0010
0001
0010
0000
,
0001
0100
0010
0100
0001
0000
0000
0000
,
1000
0000
0100
0000
1000
0100
1000
0000
,
0010
0000
1000
0000
0001
0010
0001
0000
,
1000
0000
0001
0000
0100
0010
0100
0000
,
0001
1000
0001
1000
0001
0000
0000
0000
,
1000
0001
0010
0001
0100
0000
0100
0000
,
0001
1000
0100
0000
1000
0001
0100
0000
,
0010
1000
0100
1000
0010
0000
1000
0000
,
0001
0010
0001
1000
0010
0100
0001
0000
,
1001
0000
0110
0000
0010
0100
0001
0000
,
1000
0100
0010
0000
0001
0100
0010
0000
,
1000
0010
1000
0000
0010
1000
0100
0010
,
0001
0000
0100
0000
0010
0100
0010
0100
,
0010
0000
1000
0000
0001
0010
0001
1000
,
0010
0000
0100
0000
0001
1000
0100
0000
,
1001
0000
0001
0000
0100
0010
0100
0001
,
1000
0000
0001
0000
0010
0001
0010
0001
,
0010
0000
0001
0000
0100
0010
0100
0010
,
1000
0100
0010
0001
0100
0010
1000
0001
,
1001
0000
0010
0100
,
0001
0100
0001
0000
1000
0001
0010
0001
,
1000
1010
0010
1000
,
0001
1000
0100
0000
1000
0001
1000
0001
,
1000
0001
1000
0001
0100
0000
0010
0000
,
0100
0010
0100
0000
0001
0010
0001
0010
,
0001
0011
0001
0100
,
0010
0100
0010
0000
1000
0010
1000
0010
,
1000
0001
1000
0001
0100
0000
0010
0000
,
1000
0100
0010
0000
0001
0100
0010
0100
,
0001
1000
0010
1000
0001
0010
0100
1000
,
0001
0100
0110
0000
0000
0000
0000
0000
;

//--------------- dance-single - Alex ----------------
#NOTES:
     dance-single:
     Alex:
     Challenge:
     10:
     0,0,0,0,0:
0000
0000
0000
0000
,
0000
0000
0000
0000
,
0000
0000
0000
0000
,
0000
0000
0000
0000
,
0001
0000
1000
0010
1000
0010
1000
0000
0001
0100
0000
0100
0001
0000
1000
0000
,
0010
0000
1000
0100
1000
0000
0100
0000
0010
0001
0000
0001
0010
0000
0001
0000
,
1000
0000
0010
0100
0001
0100
0010
0000
0010
1000
0000
1000
0010
0000
1000
0000
,
1001
0000
0110
0000
1001
0000
0110
0000
0010
0100
0001
0000
MMMM
0000
1001
0000
,
0001
0000
0100
0001
1000
0100
0010
0000
0001
1000
0000
1000
0001
0000
0100
0000
,
0010
0000
1000
0010
1000
0000
0001
0000
0010
0001
0000
0001
0010
0000
0001
0000
,
0100
0000
0010
1000
0100
1000
0001
0000
0001
1000
0000
1000
0010
0000
0100
0000
,
0110
0000
0101
0000
0011
0000
1001
0000
0001
1000
0010
0000
MMMM
0000
1001
0000
,
0001
0000
1000
0000
0100
0000
0010
0001
0000
0001
0010
0000
0001
0000
0100
0000
,
0010
0000
0100
0000
0001
0000
1000
0001
0000
0001
1000
0000
0001
0000
0100
0000
,
1000
0000
0100
0000
0001
0000
1000
0010
0000
0010
1000
0000
0001
0000
0010
0000
,
0001
0000
0100
0000
0010
0000
0100
0001
0000
0001
0100
0000
0000
0000
1001
0000
,
0001
0000
1000
0000
0010
0000
1000
0010
0000
0010
1000
0000
0001
0000
0100
0000
,
0010
0000
0100
0000
0001
0000
1000
0100
0000
0100
1000
0000
0001
0000
0010
0000
,
1000
0000
0010
0000
0001
0000
1000
0010
0000
0010
1000
0000
0001
0000
0010
0000
,
0011
0000
0101
0000
0110
0000
0101
0000
1010
0000
1001
0000
0001
0100
0000
0000
,
0010
0000
1000
0000
0100
0000
0010
0001
0000
0001
1000
0000
0001
0000
0001
0100
,
0001
0000
0100
0000
0010
0000
1000
0010
0000
0010
1000
0000
0001
0000
0001
1000
,
0001
0000
0100
0000
0010
0000
0100
0001
0000
0001
0100
0000
0010
0000
1000
0100
,
0010
0000
0001
0000
1000
0000
0010
1000
0010
1000
0010
0000
1010
0000
0000
0000
,
1000
0000
0010
0000
1000
0000
0001
1000
0000
1000
0001
0000
0100
0000
0001
0010
,
0100
0000
1000
0000
0010
0000
0100
0001
0000
0001
0100
0000
0010
0000
1000
0100
,
1000
0000
0001
0000
0100
0000
0010
0100
0000
0100
0010
0000
1000
0000
0001
0010
,
0001
0000
1000
0000
0010
0000
0100
0001
0100
0001
0100
0000
1001
0000
0000
0000
,
0001
0000
1000
0010
1000
0000
1000
0000
1000
0000
0001
0000
0101
0000
0000
0000
,
0010
0000
1000
0000
0100
0000
0010
0001
0010
0000
0001
0000
1001
0000
0000
0000
,
0001
0000
0100
0010
0100
0000
0100
0000
0100
0000
0001
0000
1001
0000
0000
0000
,
1001
0000
0110
0000
1001
0000
0011
0000
1100
0000
0110
0000
0001
1000
0000
0000
,
0001
0000
0100
0001
1000
0100
0010
0000
0001
1000
0000
1000
0001
0000
0000
0000
,
0001
0100
0010
0100
0001
1000
1010
0000
,
0010
0000
1000
0000
0100
0000
1000
0000
0010
1000
0010
0000
1000
0000
0001
0000
,
0101
0000
0001
0000
0100
0000
0010
0000
0110
0000
0000
0101
0000
0000
1001
0000
,
0001
0000
1000
0000
0100
0000
1000
0000
0001
1000
0001
0000
1000
0000
0000
0000
,
0010
0000
0000
0100
0000
0000
0001
0000
0000
0100
0010
0100
0010
0000
0000
0110
0000
0000
0110
0000
0000
0000
0000
0000
,
0010
0000
1000
0000
0100
0000
0010
0000
0001
1000
0100
0000
1000
0000
0000
0000
,
0001
0100
0010
0100
1001
0110
1001
0110
,
0010
0000
0100
0000
0001
0000
0100
0000
0010
0100
0010
0000
1000
0000
0000
0000
,
0001
0000
0000
1000
0000
0000
0100
0000
0000
1000
0000
0000
0001
0000
0000
1000
0000
0000
0100
0000
0010
0000
0100
0000
0010
0000
0000
0000
0000
0000
0001
0000
0000
0000
0000
0000
1000
0000
0000
0001
0000
0000
1000
0000
0000
0000
0000
0000
,
1001
0000
0000
0000
0000
0000
0000
0000
0001
0000
0100
0010
0100
0010
0100
0000
,
0001
1000
0000
1000
0001
0000
1000
0000
0010
0000
1000
0000
0001
0000
0100
0001
,
0000
0001
0100
0000
0101
0000
0000
0000
0001
0000
1000
0010
1000
0010
1000
0000
,
0001
0100
0000
0100
0001
0000
0100
0000
0110
0000
0101
0000
0110
0000
0101
0000
,
0001
1000
0010
1000
0001
1000
0100
0010
0001
0000
0100
0001
0100
0010
0100
0000
,
0001
1000
0000
1000
0001
0000
0010
0000
0001
0000
0100
0000
0010
0000
1000
0100
,
0000
0100
1000
0000
1100
0000
0000
0000
1000
0000
0010
1000
0010
1000
0010
0000
,
1000
0001
0000
0001
1000
0000
0001
0000
0101
0000
0110
0000
0101
0000
0110
0000
,
0010
1000
0100
1000
0001
0010
0001
1000
0010
0000
1000
0001
1000
0001
1000
0000
,
0001
0100
0000
0100
0001
0000
0100
0000
0100
0010
0100
0010
1000
0001
1000
0001
,
0100
0001
0010
0100
1000
0001
0100
0000
0101
0000
0110
0000
1010
0000
1100
0000
,
0110
0000
1001
0000
0010
0100
0000
0000
0000
0000
0000
0000
0000
0000
0000
0000
;
