#TITLE:N;
#SUBTITLE:;
#ARTIST:Banya;
#TITLETRANSLIT:;
#SUBTITLETRANSLIT:;
#ARTISTTRANSLIT:;
#GENRE:;
#CREDIT:;
#MUSIC:N.ogg;
#BANNER:N.png;
#BACKGROUND:N-BG.png;
#CDTITLE:;
#SAMPLESTART:6.258;
#SAMPLELENGTH:13.514;
#SELECTABLE:YES;
#OFFSET:-0.102;
#BPMS:0.000=106.000;
#STOPS:;
#BGCHANGES:;
#FGCHANGES:;

//--------------- dance-single - Alex ----------------
#NOTES:
     dance-single:
     Alex:
     Beginner:
     1:
     0,0,0,0,0:
0000
0000
0000
0000
,
0000
0000
0000
0000
,
0000
0000
0000
0000
,
1000
0000
0000
0000
,
0001
0000
0000
0000
,
0100
0000
0000
0000
,
0010
0000
0000
0000
,
0010
0000
0000
0000
,
1000
0000
0000
0000
,
0001
0000
0001
0000
,
0001
0000
0000
0000
,
1000
0000
1000
0000
,
1000
0000
0000
0000
,
1001
0000
0000
0000
,
0010
0000
0000
0000
,
0100
0000
0000
0000
,
0010
0000
0000
0000
,
1000
0000
1000
0000
,
0001
0000
0000
0000
,
1000
0000
0000
0000
,
0001
0000
0000
0000
,
0100
0000
0000
0000
,
0010
0000
0010
0000
,
0010
0000
0000
0000
,
0100
0000
0100
0000
,
0100
0000
0000
0000
,
1001
0000
0000
0000
,
0000
0000
0000
0000
,
0000
0000
0000
0000
,
0000
0000
0000
0000
,
0000
0001
0000
0000
,
0000
0001
0000
0000
,
0000
1000
0000
0000
,
0000
0010
0000
0000
,
0000
0010
0000
0000
,
0000
1000
0000
1000
,
0000
1000
0000
0000
,
0000
0001
0000
0001
,
0000
0001
0000
0000
,
0000
0100
0000
0100
,
0000
0100
0000
0000
,
0000
0010
0000
0010
,
0000
0010
0000
0000
,
0000
1001
0000
0000
;

//--------------- dance-single - Alex ----------------
#NOTES:
     dance-single:
     Alex:
     Easy:
     4:
     0,0,0,0,0:
0000
0000
0000
0000
,
0000
0000
0000
0000
,
0000
0000
0000
0000
,
1001
0001
0100
0001
,
1000
1000
0010
0100
,
0001
0001
1000
1000
,
0010
0100
0001
0000
,
0010
0001
0100
0010
,
0100
0100
0001
0001
,
1000
0100
1000
0010
,
1000
1000
0001
0001
,
1000
0001
0100
0010
,
1000
0001
0010
0100
,
1001
0000
1001
0000
,
0001
0100
0001
0001
,
1000
0010
1000
1000
,
0001
0100
0010
0100
,
0001
0000
1001
0000
,
1000
1000
0010
0010
,
1000
0001
0010
0001
,
0100
0100
0001
0010
,
0100
0010
0001
1000
,
1001
0000
1001
0000
,
0110
0000
0110
0000
,
0101
0000
1010
0000
,
1000
1000
0001
0001
,
1001
0000
0000
0000
,
0000
0000
0000
0000
,
0000
0000
0000
0000
,
0000
0000
0000
0000
,
0000
0010
0010
0100
,
0001
1000
0010
1000
,
0000
0001
0100
0001
,
1000
0010
0010
0100
,
0100
0001
1000
0001
,
1000
1001
0000
1001
,
0000
0110
0000
0110
,
0000
1100
0000
1100
,
0000
0001
0010
0001
,
0010
0011
0000
0011
,
0000
0101
0000
0101
,
0000
1010
0000
1010
,
0000
1000
0001
1000
,
0010
1010
0000
0000
;

//--------------- dance-single - Alex ----------------
#NOTES:
     dance-single:
     Alex:
     Medium:
     7:
     0,0,0,0,0:
0000
0000
0000
0000
,
0000
0000
0000
0000
,
0000
0000
0000
1001
,
0110
0000
0010
0100
0001
0100
0010
0000
,
1000
0001
1000
0000
0001
1000
0001
1000
,
0001
0000
0100
0010
1000
0100
1000
0000
,
1001
0000
0001
0100
0010
0100
0001
0000
,
0010
0100
1000
0000
0001
0100
0010
0000
,
0100
0001
0010
0001
1000
0010
1000
0000
,
0001
0100
0001
0100
0010
0100
0001
0000
,
0010
0100
1000
0001
1000
0010
0100
0000
,
0001
0001
1000
1000
0100
0010
0100
0000
,
1000
0001
1000
0010
0100
0001
1001
0000
,
0110
1001
0110
0000
,
1000
0010
1000
0000
0001
0100
0001
0000
,
0010
0001
0100
0010
0100
0001
1000
0000
,
0001
0010
0100
1000
0001
0001
1000
1000
,
0010
0100
0001
1000
0100
0010
1001
0000
,
0001
0100
0001
0000
1000
0100
1000
0000
,
0010
0100
0001
0010
0001
1000
0010
0000
,
1000
1000
1000
0000
0001
0001
0001
0000
,
0100
0100
0010
1000
0001
0001
1000
0010
,
1010
0000
0101
0000
1001
0001
0010
0100
,
1100
0000
0110
0000
0011
0001
0100
0010
,
0110
0000
0110
0000
1010
0010
1000
0001
,
0100
0010
0100
0001
1000
0100
0010
0000
,
1001
0000
0000
0000
,
0000
0000
0000
0000
,
0000
0000
0000
0000
,
0000
0000
0000
0000
,
1001
0000
0001
1000
0001
0100
0001
1000
,
0010
0000
1000
0001
0010
0100
0010
0001
,
0100
0000
0010
1000
0100
0000
0010
0001
,
0100
0000
0010
0100
0001
0010
0100
1000
,
1001
0000
0001
0100
0001
0000
1000
0010
,
1000
0000
1001
0000
0110
0000
1001
0001
,
0100
0010
0110
0000
0101
0000
0011
0001
,
1000
0010
1010
0000
1100
0000
1001
1000
,
0001
0100
0010
0010
1000
0001
0010
0100
,
1000
0000
1001
0000
0110
0000
1001
0001
,
0100
0001
0011
0000
1100
0000
1000
0010
,
1000
0001
0101
0000
0110
0000
0010
0100
,
0001
1000
0100
0100
1000
1000
0001
0100
,
0010
1001
0000
0000
;

//--------------- dance-single - Alex ----------------
#NOTES:
     dance-single:
     Alex:
     Hard:
     10:
     0,0,0,0,0:
0000
0000
0000
0000
,
0000
0000
0000
0000
,
0000
0000
0000
0000
0000
0000
0000
0000
0000
0000
0000
0000
0001
1000
0000
0000
,
1001
0000
0000
0000
0001
0100
0010
0100
0001
0000
1000
0000
0010
0000
0100
0000
,
0001
0000
1001
0000
1000
0000
1001
0000
0001
0000
1000
0010
0100
0001
1000
0100
,
0020
0000
0031
0100
0010
0100
0001
1000
0010
0000
1010
0000
1000
0000
1001
0000
,
0001
0100
0001
0000
0100
0001
1000
0010
0100
0000
0001
0000
0010
0000
0100
0000
,
1000
0100
1000
0100
1000
0000
0001
0000
0100
0001
0100
0001
0010
0000
0001
0000
,
0100
0010
0100
0010
0100
0001
0100
0001
0010
0000
0001
0100
0010
0000
1001
0000
,
0001
1000
0010
1000
0001
0010
0001
0100
,
0010
1000
0001
1000
0010
0000
1001
0000
0001
0000
0100
0001
0000
0001
0100
0000
,
0010
1000
0001
1000
0010
0000
0100
0000
0001
0010
0100
0010
0001
0100
0001
1000
,
0010
1000
0000
0001
0100
0000
0100
0000
0010
1000
0010
1000
0010
0000
1001
0000
,
0010
1001
0100
1001
0010
1100
0010
0011
,
0001
0100
0010
0100
0001
0100
0010
0100
0001
0010
0100
0010
0001
0000
1000
0000
,
0010
1000
0010
0100
0010
1000
0010
0100
0010
1000
0001
1000
0010
0000
1000
0000
,
0001
0010
0100
1000
0001
0100
0010
0100
0001
0010
0001
1000
0010
0000
0100
0000
,
0001
0010
0001
0100
0001
0010
0100
0010
0001
0000
1000
0000
0010
0000
0100
0000
,
0001
1000
0100
1000
0001
1000
0010
1000
0001
0100
0001
1000
0010
0000
0100
0000
,
0001
0010
0001
0100
0001
0010
0100
1000
0001
1000
0010
1000
0001
0000
0100
0000
,
0001
1000
0100
1000
0001
1000
0001
0100
0010
0100
0001
0010
0001
0000
0100
0000
,
0010
0100
0010
1000
0010
0100
0010
1000
0001
0010
0100
1000
0001
0000
1000
0000
,
1001
0000
0010
0000
1001
0000
0100
0000
1001
0000
0010
1000
0001
0100
0010
1000
,
0001
0000
0011
0000
0100
0000
0110
0000
1000
0000
0001
1000
0001
0010
0001
0100
,
0001
0000
0101
0000
0100
0000
0110
0000
1000
0000
0100
0010
0001
0100
0010
1000
,
0001
0010
0100
1000
0001
0100
0010
0000
,
1001
0000
0000
0000
,
0000
0000
0000
0000
,
0000
0000
0000
0000
,
0000
0000
0000
0000
,
1001
0000
0000
0000
0001
1000
0010
1000
0001
1000
0100
0010
0001
0000
1001
0000
,
0000
0000
0110
0000
0010
0100
0001
0100
0010
0000
1000
0001
0100
0001
1000
0010
,
0100
0000
1001
0000
0001
0010
0001
0010
0001
0010
0001
0000
1000
0100
1000
0100
,
1000
0000
0010
1000
0000
1000
0001
0000
0100
0000
0010
0000
1000
0000
0001
0000
,
0100
0001
1001
0010
1001
0100
1001
0010
,
1001
0000
0001
0100
1000
0100
0001
0010
,
1000
0010
0001
0010
1000
0000
0001
0000
0100
0000
0010
0000
1000
0000
0100
0000
,
0010
0001
0100
0010
0100
0000
0001
0000
0010
0000
0100
0000
0010
0000
0001
0000
,
0100
0001
0100
0010
0100
0000
0001
0000
1000
0000
0010
0000
0100
0000
0001
0000
,
1001
0000
0001
1000
0010
0100
0001
1000
,
0100
0010
0001
1000
0010
0000
1000
0000
0001
0000
0010
0000
0001
0000
0100
0000
,
0010
0100
0001
0010
0001
0000
1000
0000
1000
0000
0010
0000
0100
0000
0001
0000
,
1000
0100
0010
0001
1000
0000
0010
0000
0100
0000
0001
0000
0010
0000
0100
0000
,
0110
1111
0000
0000
;
