#TITLE:My Friend;
#SUBTITLE:;
#ARTIST:Cho PD;
#TITLETRANSLIT:;
#SUBTITLETRANSLIT:;
#ARTISTTRANSLIT:;
#GENRE:;
#CREDIT:;
#MUSIC:My Friend.ogg;
#BANNER:My Friend.png;
#BACKGROUND:My Friend-BG.png;
#CDTITLE:;
#SAMPLESTART:51.673;
#SAMPLELENGTH:14.685;
#SELECTABLE:YES;
#OFFSET:-0.236;
#BPMS:0.000=127.000;
#STOPS:;
#BGCHANGES:;
#FGCHANGES:;

//--------------- dance-single - Alex ----------------
#NOTES:
     dance-single:
     Alex:
     Beginner:
     1:
     0,0,0,0,0:
0000
0000
0000
0000
,
0000
0000
0000
0000
,
0000
0000
0000
0000
,
0000
0000
0000
0000
,
0000
0000
0000
0000
,
0000
0010
0000
0000
,
0000
1000
0000
0000
,
0000
0001
0000
0000
,
0000
0100
0000
0000
,
0000
0010
0000
0000
,
0000
1000
0000
0000
,
0000
1000
0000
0000
,
0000
0001
0000
0000
,
0000
0001
0000
0000
,
0000
1001
0000
0000
,
0000
0100
0000
0000
,
0000
0001
0000
0000
,
0000
1000
0000
0000
,
0000
1000
0000
0000
,
0000
0010
0000
0000
,
0000
1000
0000
0000
,
0000
0001
0000
0000
,
0000
0100
0000
0000
,
0000
0001
0000
0000
,
0000
1000
0000
0000
0000
0000
0000
0000
,
0000
0001
0000
0000
,
0000
0100
0000
0000
,
0000
1001
0000
0000
,
0000
0010
0000
0000
,
0000
1000
0000
0000
,
0000
0001
0000
0000
,
0000
1000
0000
0000
,
0000
1000
0000
0000
,
0000
0001
0000
0000
,
0000
0010
0000
0000
,
0000
0010
0000
0000
,
0000
1001
0000
0000
,
0000
0001
0000
0000
,
0000
1000
0000
0000
,
0000
0100
0000
0000
,
0000
1000
0000
0000
,
0000
1000
0000
0000
,
0000
0001
0000
0000
,
0000
1001
0000
0000
;

//--------------- dance-single - Alex ----------------
#NOTES:
     dance-single:
     Alex:
     Easy:
     2:
     0,0,0,0,0:
0000
0000
0000
0000
,
0000
0000
0000
0000
,
0000
0000
0000
0000
,
0000
0000
0000
0000
,
0000
0000
0000
0000
,
0000
1000
0000
0010
,
0000
1000
0000
1000
,
0000
0001
0000
0100
,
0000
0001
0000
0001
,
0000
2000
0000
3000
,
0000
0020
0000
0000
,
0000
0030
0100
0100
,
0100
0002
0000
0003
,
0000
2000
0000
3000
,
0000
1001
0000
0001
,
0000
1000
0000
0001
,
0000
0100
0000
0010
,
0000
0100
0000
0100
,
0000
0001
0001
0001
,
0000
1000
1000
1000
,
0000
0010
0000
1000
,
0000
0001
0000
1000
,
0000
0020
0000
0030
,
0000
0000
1010
0000
0000
0010
0000
0000
,
0000
0100
0000
0000
0000
0001
0000
0000
,
0000
1000
1000
1000
,
1000
0002
0000
0003
,
0000
1001
0000
0010
,
0000
0100
0000
0100
,
0000
0001
0000
1000
,
0000
0001
0000
0001
,
0000
2000
0000
3000
,
0000
0002
0000
0000
,
0000
0003
0100
0100
,
0100
0020
0000
0030
,
0000
2000
0000
3000
,
0000
1010
0000
0010
,
0000
1000
0000
0001
,
0000
1000
0000
0100
,
0000
1000
1000
1000
,
0000
0010
0000
1000
,
0000
0001
0000
0100
,
0000
0001
0000
0001
,
0000
0200
0000
0000
,
0300
0000
0000
0000
;

//--------------- dance-single - Alex ----------------
#NOTES:
     dance-single:
     Alex:
     Medium:
     5:
     0,0,0,0,0:
0000
0000
0000
0000
,
0000
0000
0000
0000
,
0000
0000
0000
0000
,
0000
0000
0000
0000
,
0000
0000
0000
0000
,
0000
0001
0100
0010
,
0100
0002
0000
1003
,
0000
1000
0010
1000
,
0001
0200
0000
0310
,
0000
0010
1000
0200
,
0300
1000
0001
0100
,
0020
0030
0100
0001
,
1000
2020
0000
3030
,
0000
0202
0000
0303
,
0000
1001
0001
0100
,
0010
1000
0001
1000
,
1000
0001
0010
0001
,
0001
0100
0010
0100
,
0001
1000
0100
0020
,
0030
0001
0100
0020
,
0030
1000
0001
0100
,
0010
1000
0001
1001
,
0000
0001
1000
1010
,
0000
0000
0010
0000
0100
0002
0000
0003
,
0000
2000
0000
3000
0000
0020
0000
0030
,
0000
0100
0100
0010
,
0010
2002
0000
3003
,
0000
0001
0001
1000
,
1000
0010
0010
0200
,
0300
0001
0010
0100
,
0010
0001
1000
0020
,
0030
0100
0001
2000
,
3000
0001
0010
0100
,
2000
3000
0010
0010
,
0100
0202
0000
0303
,
0000
2020
0000
3030
,
0000
1010
0010
0010
,
1000
0001
1000
1000
,
0001
0100
0010
1000
,
0001
0010
0001
0100
,
0100
0001
1000
0010
,
0100
0001
1000
0100
,
0010
0001
0100
0100
,
0010
2020
0000
0000
,
0000
3030
0000
0000
0000
0000
0000
2002
0000
0000
0000
0000
,
0000
0000
0000
0000
,
0000
0000
0000
3003
;

//--------------- dance-single - Alex ----------------
#NOTES:
     dance-single:
     Alex:
     Hard:
     7:
     0,0,0,0,0:
0000
0000
0000
0000
,
0000
0000
0000
0000
,
0000
0000
0000
0000
,
0000
0000
0000
0000
,
0000
0000
0000
0000
,
0000
0000
0000
0000
1000
0000
0000
0001
0000
0000
0100
0000
0010
0000
0000
1000
,
0000
0000
0001
0000
0010
0000
0000
0001
0000
0000
1000
0000
0010
0000
1000
0000
,
0010
0000
0000
0000
1000
0000
0000
0001
0000
0000
1000
0000
0010
0000
0000
0100
,
0000
0001
0010
0000
0001
0000
0100
0010
,
0100
0001
1000
0000
0001
0010
0200
0000
,
0300
0000
1000
0000
0010
0000
0000
0000
1000
0000
0001
0000
0100
0000
0000
0020
,
0000
0000
0000
0030
1000
0001
1000
0000
,
0010
0200
0000
0310
,
0000
0020
0000
1030
,
0001
0000
1001
0000
0001
0100
0010
0100
,
0001
0000
1000
0010
0100
0001
1000
0001
,
0010
0000
0001
1000
0010
0000
1000
0001
,
0100
0000
0001
0100
0010
0100
0001
1000
,
0010
1010
0101
0001
,
1000
0000
0001
0100
0001
0100
0010
0100
,
0001
1001
0110
1001
,
0000
0000
0010
0100
0010
0000
1000
0001
,
1000
0000
0001
0100
0010
0100
0001
0100
,
0010
1000
0100
0010
0001
0100
0000
0001
,
1000
0001
0000
1000
0010
1000
0000
0001
,
0100
0020
0000
0000
0100
0000
0100
0000
,
0130
0000
1001
0000
1001
0000
0001
0100
,
0010
0000
0100
0000
0001
0000
0000
1000
0000
0000
0010
0000
1000
0000
0000
0001
,
0000
0000
0100
0000
0001
0000
0000
1000
0000
0000
0010
0000
0100
0000
0000
0100
,
0000
0000
0001
0000
1000
0000
0000
0001
0000
0000
0010
0000
0001
0000
0000
0100
,
0000
0000
0010
0000
0100
0000
0000
0001
0000
0000
1000
0000
0001
0000
0010
0000
,
0100
1000
0001
0000
0001
0100
0020
0000
,
0030
0100
0001
0000
1000
0010
1000
0002
,
0000
0000
0003
0000
1000
0001
0100
0000
,
0010
2020
3030
2200
,
3300
0022
0033
2002
,
3003
0000
0001
0100
0010
0100
0001
1000
,
0010
0000
1000
0001
0010
0000
0001
1000
,
0010
0000
1000
0100
0010
0000
0001
0100
,
0001
1000
0010
0100
0001
0010
0100
1000
,
0001
0000
1001
0000
0110
0000
0010
0100
,
0010
0000
1000
0010
1000
0001
1000
0010
,
0100
0000
0001
0010
0100
1000
0001
0100
,
0010
0100
0001
1000
,
0020
0000
0230
0000
,
0000
0000
0000
0000
,
0000
0000
0000
0000
,
0000
0000
0300
0000
;

//--------------- dance-single - Alex ----------------
#NOTES:
     dance-single:
     Alex:
     Challenge:
     9:
     0,0,0,0,0:
0000
0000
0000
0000
,
0000
0000
0000
0000
,
0000
0000
0000
0000
,
0000
0000
0000
0000
,
0000
0000
0000
0000
,
0000
0000
0000
0000
0001
0000
0100
0010
0000
0010
0100
0000
0001
0000
1000
0100
,
0000
0100
1000
0000
0001
0000
0100
0000
0010
0000
0100
0000
0001
0000
1000
0000
,
0010
0000
0000
0000
1000
0000
0001
0100
0000
0100
0001
0000
1000
0000
0100
1000
,
0000
1000
0100
0000
1000
0000
0010
0000
0100
0000
0001
0000
0010
0000
0100
0000
,
1000
0001
0200
0000
0310
1000
0001
0010
,
0001
0100
0002
0000
1003
0010
0100
2002
,
0000
0000
3003
0000
0011
0001
0100
0010
,
0100
0001
0202
0000
0303
1010
0220
0000
,
0000
0330
0022
0000
0033
1100
2020
0000
,
3030
0000
0000
0000
0010
0000
1000
0000
0001
0000
0100
0010
0100
0001
1000
0001
,
0100
0000
0001
1000
0010
0000
0010
1000
0000
1000
0001
0100
0001
0100
0001
0000
,
1001
0000
0001
0000
0100
0010
0100
0010
0100
0000
0010
1000
0000
1000
0001
0000
,
0100
0000
0001
0000
1000
0000
0010
1000
0010
0000
0100
0000
0100
0000
0001
1000
,
0020
0000
0030
0000
1000
0000
0001
0100
0020
0030
1000
0001
0100
0001
1000
0000
,
1001
0000
1000
0000
0001
0000
0100
0010
0100
0001
1000
0000
0010
1000
0010
0100
,
0020
0000
0030
0000
0100
0001
0000
0001
0100
0000
0010
0000
1000
0001
0000
0001
,
1000
0000
0010
1000
0100
0000
0010
0001
0100
0000
0001
1000
0001
0000
0100
0000
,
0010
0100
0001
1000
0001
0100
0110
0010
,
1010
0000
1000
0000
0001
0000
0100
0001
0100
0000
0010
0000
1000
0000
0001
0010
,
0001
0000
0100
0000
0010
0000
1000
0001
1000
0000
0001
0000
0100
0000
0010
0100
,
0010
0100
0010
0100
0010
0000
1000
0000
0001
0000
0100
0000
0010
0000
0100
0000
,
0001
0000
1000
0000
0100
0000
0010
0000
0001
0000
1000
0000
0001
1000
0001
1000
,
0001
1000
0001
1000
0001
0000
0100
0010
0000
0010
0100
0000
0001
0000
1000
0100
,
0000
0100
1000
0000
0001
0000
0100
0001
0000
0001
0100
0000
0110
0000
0000
0101
,
0000
0000
0011
0000
0001
0000
1000
0010
0000
0010
1000
0000
0001
0000
1000
0100
,
0000
0100
1000
0000
0001
0000
0100
0010
0000
0010
0100
0000
0001
0000
0010
0000
,
0100
0000
1000
0000
0001
0000
0100
0010
0100
0000
0001
0000
2000
0000
0000
0000
,
3100
0000
1000
0000
0010
0000
0100
0001
0010
0000
0001
0000
0100
0000
0010
0000
,
0100
0001
2000
0000
3001
0010
0110
0000
,
0011
0000
0202
0000
0303
1010
2200
0000
,
3300
0000
0022
0000
0033
1001
0220
0000
,
0330
0000
0000
0000
0010
0100
0001
0100
0010
0000
0010
1000
0000
1000
0001
0000
,
1000
0000
0100
0000
0010
0000
0001
0000
0100
0000
0010
0100
0001
0000
0100
0000
,
0220
0000
0330
0000
0010
0000
1000
0000
0001
0000
0100
0001
0000
0001
1000
0000
,
0001
0000
0010
0000
0001
0000
0100
0000
0010
0000
0100
0001
0000
0001
1000
0000
,
0010
0000
0100
0000
0001
0000
0100
0000
0010
0000
1000
0100
0000
0100
1000
0100
,
1000
0000
0010
0000
0100
0000
0001
1000
0001
0000
0100
0010
0100
0000
0001
0010
,
0002
0000
0003
0000
0100
0000
0010
0100
0000
0100
0010
0000
1000
0000
0001
0000
,
0010
0000
0000
0100
0000
0000
1000
0000
0001
0000
0100
0000
0010
0000
0100
0000
0001
0000
1000
0000
0010
0000
0100
0000
,
0001
0100
0000
0000
0000
0000
0000
2002
0000
0000
0000
0000
,
0000
0000
0000
0000
,
0000
0000
0000
3003
;
