#TITLE:My Brother is Street Singer;
#SUBTITLE:;
#ARTIST:Hyang Lim Park vs Yahpp;
#TITLETRANSLIT:;
#SUBTITLETRANSLIT:;
#ARTISTTRANSLIT:;
#GENRE:;
#CREDIT:;
#MUSIC:My Brother is a Street Singer.ogg;
#BANNER:My Brother is a Street Singer.png;
#BACKGROUND:My Brother is a Street Singer-BG.png;
#CDTITLE:;
#SAMPLESTART:7.473;
#SAMPLELENGTH:12.800;
#SELECTABLE:YES;
#OFFSET:-0.089;
#BPMS:0.000=129.000;
#STOPS:;
#BGCHANGES:;
#FGCHANGES:;

//--------------- dance-single - Alex ----------------
#NOTES:
     dance-single:
     Alex:
     Beginner:
     1:
     0,0,0,0,0:
0000
0000
0000
0000
,
0000
0000
0000
0000
,
0000
0000
0000
0000
,
0000
0000
0000
0000
,
0000
0000
0000
0000
,
1001
0000
0000
0000
,
0010
0000
0000
0000
,
0100
0000
0000
0000
,
0010
0000
0000
0000
,
0001
0000
0000
0000
,
1000
0000
0000
0000
,
0001
0000
0001
0000
,
0001
0000
0000
0000
,
1000
0000
1000
0000
,
1000
0000
0000
0000
,
0020
0000
0030
0000
,
0200
0000
0300
0000
,
2002
0000
0000
0000
,
3003
0000
0000
0000
,
0001
0000
0000
0000
,
1000
0000
0000
0000
,
0010
0000
0000
0000
,
1000
0000
0000
0000
,
0001
0000
0000
0000
,
0100
0000
0000
0000
,
0001
0000
0000
0000
,
0001
0000
0000
0000
,
1000
0000
0000
0000
,
1000
0000
1000
0000
,
2000
0000
3000
0000
,
1001
0000
0000
0000
,
1000
0000
0000
0000
,
0010
0000
0000
0000
,
1000
0000
0000
0000
,
0001
0000
0000
0000
,
0100
0000
0000
0000
,
0001
0000
0001
0000
,
0001
0000
0000
0000
,
0010
0000
0010
0000
,
0010
0000
0000
0000
,
0200
0000
0300
0000
,
0020
0000
0030
0000
,
2002
0000
0000
0000
,
3003
0000
0000
0000
,
1000
0000
0000
0000
,
1000
0000
0000
0000
,
0010
0000
0000
0000
,
0010
0000
0000
0000
,
1000
0000
0000
0000
,
0001
0000
0000
1001
;

//--------------- dance-single - Alex ----------------
#NOTES:
     dance-single:
     Alex:
     Easy:
     3:
     0,0,0,0,0:
0000
0000
0000
0000
,
0000
0000
0000
0000
,
0000
0000
0000
0000
,
0000
0000
0000
0000
,
2002
0000
3003
0000
,
0001
0000
1000
0000
,
0001
0001
0001
0000
,
0100
0000
0010
0000
,
0100
0000
0010
0000
,
1000
1000
0001
0001
,
0200
0000
0300
0000
,
0010
0000
0010
0000
,
2020
0000
3030
0000
,
0100
0000
0100
0000
,
0202
0000
0303
0000
,
0000
0001
0001
0001
,
0000
1000
1000
1000
,
0000
0010
0010
0010
,
0020
0000
0030
0000
,
1001
0000
0001
0000
,
1000
0000
0010
0000
,
1000
0000
1000
0000
,
0100
0100
0100
0000
,
1000
0000
0001
0000
,
0010
0000
0001
0000
,
1000
0000
0001
0000
,
1000
1000
1000
0000
,
0001
0000
1000
0000
,
0010
0000
1001
0000
,
2002
0000
3003
0000
,
0010
0000
0100
0000
,
0001
0001
0001
0000
,
1000
0000
0001
0000
,
1000
0000
1000
0000
,
0010
0000
0100
0100
,
0010
0010
2000
3000
,
0001
0000
0001
0000
,
0202
0000
0303
0000
,
0010
0000
0010
0000
,
2020
0000
3030
0000
,
0000
1000
1000
1000
,
0000
0010
0010
0010
,
0000
0100
0100
0100
,
0200
0000
0300
0000
,
0001
0000
1000
0000
,
0001
0000
1000
0000
,
0010
0000
0010
0000
,
1000
1000
1000
0000
,
0001
0000
0100
0000
,
0020
0000
0030
1001
;

//--------------- dance-single - Alex ----------------
#NOTES:
     dance-single:
     Alex:
     Medium:
     5:
     0,0,0,0,0:
0000
0000
0000
0000
,
0000
0000
0000
0000
,
0000
0000
0000
0000
,
0000
0000
0000
0000
,
2002
0000
3003
0000
,
0001
0001
1000
1000
,
0010
0000
0010
0000
0100
0010
0100
0000
,
0001
0010
0100
0010
,
0001
1000
0001
0000
1000
0010
1000
0000
,
0001
0000
1000
0000
0010
0100
0010
0100
,
0010
0000
0110
0000
,
0100
0100
0001
1000
,
0010
1000
0002
0003
,
0100
0001
0010
0100
,
1000
0010
0200
0300
,
0000
0001
1000
0020
,
0030
1000
0001
0200
,
0300
0001
1000
0010
,
1001
1001
2002
3003
,
0001
0000
0001
0000
0100
0001
0100
0000
,
0001
0000
1000
0000
0010
1000
0010
0000
,
1000
1000
0010
0010
,
1000
0001
0020
0030
,
0001
0001
0100
0010
,
1000
0001
2000
3000
,
0001
0001
1000
1000
,
0010
0100
0110
0000
,
0011
0000
1100
1100
,
0101
0000
0011
0000
,
2002
0000
3003
0000
,
0001
0010
0100
1000
,
0001
0000
0001
0000
0100
0010
0100
0000
,
0010
1000
0001
0010
,
0001
0010
0001
0000
1000
0100
1000
0000
,
0001
0000
1000
0000
0001
1000
0001
1000
,
0001
0000
1001
0000
,
0001
0001
0100
0010
,
1000
0100
2000
3000
,
0010
1000
0001
0010
,
0001
0100
0020
0030
,
0000
0100
0001
0020
,
0030
0001
1000
0020
,
0030
1000
0001
0100
,
0110
0000
1001
0000
,
0001
0000
0001
0000
1000
0100
1000
0000
,
0001
0000
0100
0000
0001
0100
0001
0000
,
0100
0010
0100
0001
,
1000
0001
0100
0010
,
1000
0001
0101
0000
,
0110
0000
0110
0110
;

//--------------- dance-single - Alex ----------------
#NOTES:
     dance-single:
     Alex:
     Hard:
     7:
     0,0,0,0,0:
0000
0000
0000
0000
,
0000
0000
0000
0000
,
0000
0000
0000
0000
,
0000
0000
0000
0000
,
0000
0001
1000
0010
1000
0001
0100
0001
,
2000
0000
3001
0000
,
0000
0001
1000
0100
0010
0001
0100
0010
,
0200
0000
0310
0000
,
0000
0010
1000
0001
000M
0001
1000
0100
,
0M00
0100
1000
0010
0100
0001
1000
0010
,
0200
0000
0301
2000
0000
0000
3000
0000
,
0000
0001
0010
0001
0100
0010
1000
0100
,
0010
0001
0100
0010
2000
0000
0000
3000
,
0000
0001
1000
0010
1000
0001
0010
0001
,
0100
0010
0100
0001
2000
0000
0000
3000
,
0000
0001
1000
0100
1000
0001
0100
0010
,
0000
0010
0100
0001
0100
0010
1000
0001
,
0000
0001
1000
0010
0100
0001
1000
0001
,
1001
0110
2002
3003
,
0001
0000
1000
0001
1000
0000
0001
0000
,
0100
0000
0010
0100
0010
0000
1000
0000
,
0001
0010
0001
0100
0010
0100
0001
0010
,
0100
0000
1000
0010
0200
0000
0300
0000
,
0001
1000
0001
0000
1000
0000
0010
0000
,
1000
0010
1000
0000
0001
0000
0100
0000
,
0010
0100
0001
0100
0010
1000
0001
0010
,
0100
0000
1000
0001
0100
0000
0101
0000
,
1010
1100
0022
0033
,
0220
0000
0330
0000
,
0000
0001
1000
0010
0100
0001
1000
0001
,
0200
0000
0310
0000
,
0000
0010
1000
0100
1000
0010
1000
0001
,
0020
0000
0031
0000
,
0000
0001
0100
0010
00M0
1000
0001
0100
,
0M00
0001
1000
0100
1000
0001
0100
0010
,
2000
0000
3001
0020
0000
0000
0030
0000
,
0000
0001
0100
0010
1000
0100
0010
0001
,
0100
0010
0100
0001
2000
0000
0000
3000
,
0000
1000
0001
1000
0010
0010
1000
0001
,
1000
0010
0100
0010
2000
0000
0000
3000
,
0000
0001
1000
0001
0100
0010
1000
0001
,
0000
1000
0100
0010
0001
0100
0010
0100
,
0000
0001
0100
0010
0100
0001
1000
0010
,
2020
0000
3030
0000
,
0001
0000
1000
0000
0010
1000
0010
0000
,
1000
0000
0001
0000
0100
0001
0100
0000
,
0001
0010
0100
1000
0001
1000
0001
0100
,
0010
0000
0010
1000
0001
0000
0101
0000
,
1010
0101
0022
0033
,
2200
0000
3300
0000
0000
0010
0110
0000
;

//--------------- dance-single - Alex ----------------
#NOTES:
     dance-single:
     Alex:
     Challenge:
     9:
     0,0,0,0,0:
0000
0000
0000
0000
,
0000
0000
0000
0000
,
0000
0000
0000
0000
,
0000
0000
0000
0000
,
MMMM
0001
0010
0100
1000
0001
0100
0110
,
0010
0000
1000
0010
0100
0000
0001
0000
1000
0000
0001
0100
0010
0000
0100
0000
,
0001
1000
1010
0010
1000
0001
1001
0001
,
0100
0000
0001
0100
0001
0000
0100
0000
0010
0000
1000
0010
1000
0000
0001
0000
,
0010
0100
1000
1010
M0M0
0100
0001
0101
,
0M0M
0000
0001
0000
0100
0000
0010
0000
1000
0000
0001
0010
0100
1000
0001
0000
,
0200
0000
0310
2000
0000
0001
0010
3001
,
1001
0001
0100
0010
1000
0100
0010
0001
,
0100
0010
1000
0001
0102
0000
2003
0000
,
3010
0001
0010
1000
0100
0010
0100
1000
,
0001
0100
1000
0100
0002
0000
2003
0000
,
3010
0100
0001
1000
0010
0100
0001
1001
,
M00M
1000
0001
0100
0010
1000
0001
1001
,
M00M
0001
1000
0010
0100
0001
0010
0001
,
0101
0110
1010
1100
,
1000
0001
0100
0010
0100
0001
0010
0100
,
1000
0001
0100
1000
0100
0001
2000
0000
,
3010
0010
1000
0001
0100
0010
0100
0001
,
0010
0000
0100
0000
1000
0100
0010
0001
1000
0000
0000
0000
1001
0000
0000
0000
,
0001
0100
0010
1000
0001
0010
0001
0100
,
0010
1000
0100
0010
0001
0100
0020
0000
,
0130
0000
0000
0001
0100
0001
0100
0000
0000
0001
0000
0000
0100
0000
0000
0010
0000
0000
1000
0000
0000
0001
0000
0000
,
2000
0000
3000
0001
0010
0100
1000
0001
0100
0000
0000
0010
1000
0000
0001
0000
,
0010
0000
0001
0000
0100
0000
0010
0000
0110
0000
0000
0010
1000
0000
0001
0000
,
0100
0000
0010
0000
0100
0000
2002
0000
3003
0000
0001
0000
0010
0000
0100
1000
,
0010
1000
0001
1000
0010
0100
0001
1000
0010
0000
0100
0000
0001
0000
1001
0000
,
1000
0000
0010
1000
0001
0000
0100
0000
0001
0000
1000
0100
0010
0000
0001
0000
,
0100
0010
0100
0001
0010
0100
1000
0001
,
0100
0000
0010
1000
0001
0000
1000
0000
0001
0000
0100
0010
1000
0000
0001
0000
,
0010
0001
0100
0110
0MM0
1000
0001
1001
,
M00M
0000
0001
0000
1000
0000
0010
0000
0100
0000
0001
1000
0010
0100
0001
0000
,
2000
0000
3010
0200
0000
0010
0001
0310
,
1001
0001
0100
0010
1000
0001
0010
0100
,
1000
0001
0100
0010
2010
0000
3002
0000
,
0103
0100
0001
1000
0010
1000
1000
0001
,
0100
1000
0100
0001
2001
0000
3020
0000
,
0130
0001
1000
0001
0010
0001
1000
1010
,
M0M0
1000
0001
0100
0010
1000
0001
0101
,
0M0M
0001
1000
0010
1000
0001
0010
0001
,
0101
0110
0101
1001
,
0001
1000
0010
1000
0001
0010
0100
1000
,
0001
0100
1000
0100
0001
1000
0020
0000
,
0130
0000
0000
0001
1000
0001
1000
0000
0000
0001
0000
0000
0100
0000
0000
0010
0000
0000
1000
0000
0000
0001
0000
0000
,
0020
0000
0030
0001
0100
0010
0100
0001
1000
0000
0000
0001
0100
0000
0001
0000
,
1000
0000
0010
0000
1000
0000
0001
0000
0101
0000
0000
0100
0010
0000
0100
0000
,
0001
0000
2002
0000
3003
0110
0110
0000
,
0MM0
0000
0000
0000
;
