#TITLE:Mr. Larpus;
#SUBTITLE:;
#ARTIST:Banya;
#TITLETRANSLIT:;
#SUBTITLETRANSLIT:;
#ARTISTTRANSLIT:;
#GENRE:;
#CREDIT:;
#MUSIC:Mr. Larpus.ogg;
#BANNER:Mr. Larpus.png;
#BACKGROUND:Mr. Larpus-BG.png;
#CDTITLE:;
#SAMPLESTART:21.552;
#SAMPLELENGTH:15.000;
#SELECTABLE:YES;
#OFFSET:-0.118;
#BPMS:0.000=190.000;
#STOPS:;
#BGCHANGES:;
#FGCHANGES:;

//--------------- dance-single - Alex ----------------
#NOTES:
     dance-single:
     Alex:
     Beginner:
     2:
     0,0,0,0,0:
0000
0000
0000
0000
,
0000
0000
0000
0000
,
0000
0000
0000
0000
,
0000
0000
0000
0000
,
0000
0000
0000
0000
,
0001
0000
0000
0000
,
0100
0000
0000
0000
,
0010
0000
0000
0000
,
0010
0000
0000
0000
,
1000
0000
0000
0000
,
0100
0000
0000
0000
,
1000
0000
0000
0000
,
0001
0000
0000
0000
,
0001
0000
0000
0000
,
1000
0000
0000
0000
,
0010
0000
0000
0000
,
0010
0000
0000
0000
,
1001
0000
0000
0000
,
0001
0000
0000
0000
,
0100
0000
0000
0000
,
0100
0000
0000
0000
,
0001
0000
0000
0000
,
0010
0000
0000
0000
,
0001
0000
0000
0000
,
0001
0000
0000
0000
,
1000
0000
0000
0000
,
0100
0000
0000
0000
,
1000
0000
0000
0000
,
1000
0000
0000
0000
,
1001
0000
0000
0000
,
0000
0000
0000
0000
,
0110
0000
0000
0000
,
0000
0000
0000
0000
,
1001
0000
0000
0000
,
0000
0000
0000
0000
,
0110
0000
0000
0000
,
0000
0000
0000
0000
,
1000
0000
0000
0000
,
0001
0000
0000
0000
,
1000
0000
0000
0000
,
0000
0000
0000
0000
,
1001
0000
0000
0000
,
0001
0000
0000
0000
,
1000
0000
0000
0000
,
0010
0000
0000
0000
,
0100
0000
0000
0000
,
0100
0000
0000
0000
,
0001
0000
0000
0000
,
0010
0000
0000
0000
,
0001
0000
0000
0000
,
0001
0000
0000
0000
,
1000
0000
0000
0000
,
1000
0000
0000
0000
,
0010
0000
0010
0000
,
0010
0000
0000
0000
,
0100
0000
0100
0000
,
0100
0000
0000
0000
,
0001
0000
0001
0000
,
0001
0000
0000
0000
,
1000
0000
1000
0000
,
1000
0000
0000
0000
,
0001
0000
0001
0000
,
0001
0000
0000
0000
,
1000
0000
1000
0000
,
1000
0000
0000
0000
,
0010
0000
0010
0000
,
0010
0000
0000
0000
,
0100
0000
0100
0000
,
0100
0000
0000
0000
,
0001
0000
0000
0000
,
1000
0000
0000
0000
,
0001
0000
0000
0000
,
1000
0000
0000
0000
,
1001
0000
0000
0000
,
0110
0000
0000
0000
,
1001
0000
0000
0000
,
1001
0000
0000
0000
;

//--------------- dance-single - Alex ----------------
#NOTES:
     dance-single:
     Alex:
     Easy:
     4:
     0,0,0,0,0:
0000
0000
0000
0000
,
0000
0000
0000
0000
,
0000
0000
0000
0000
,
0000
0000
0000
0000
,
0000
0000
0000
0000
,
0001
0000
1000
0000
,
0001
1000
0001
0000
,
1000
0000
0010
0000
,
1000
0010
1000
0000
,
0001
0000
0100
0000
,
0010
0100
0010
0000
,
1000
0000
0100
0000
,
1000
0100
1000
0000
,
0001
0001
0001
0000
,
1000
1000
1000
0000
,
0010
0000
0100
0000
,
0010
0100
0010
0000
,
1000
0001
1000
0000
,
0001
1000
0001
0000
,
0100
0010
0100
0000
,
0100
0100
0100
0000
,
0001
0010
0001
0000
,
1000
1000
0010
0000
,
0100
0001
0001
0000
,
0010
0001
0010
0000
,
0001
1000
1000
0000
,
0001
0100
0001
0000
,
1000
0100
1000
1000
,
0001
0000
1000
0000
,
1001
0000
0000
0000
,
0010
0000
0000
0000
,
1001
0000
0000
0000
,
0100
0000
0000
0000
,
0110
0000
0000
0000
,
0001
0000
0000
0000
,
0110
0000
0000
0000
,
1000
0000
0000
0000
,
1001
0000
0000
0000
,
0110
0000
0000
0000
,
1001
0000
0000
0000
,
0220
0000
0330
0000
,
0001
0000
1000
0000
,
0010
0100
0010
0000
,
1000
0000
0100
0000
,
1000
0001
1000
0000
,
0001
0000
0100
0000
,
0010
0100
0010
0000
,
0100
0000
0100
0000
,
0001
1000
0001
0000
,
1000
0010
1000
0000
,
0001
0010
0001
0000
,
0100
0010
0100
0010
,
0100
0000
1001
0000
,
0001
1000
0001
0000
,
1000
0100
1000
0000
,
0010
0100
0010
0000
,
0100
0001
0100
0000
,
0001
0010
0001
0000
,
1000
0001
1000
0000
,
0001
0100
0001
0000
,
1000
0100
1000
0000
,
0010
0010
0010
0000
,
1000
1000
1000
0000
,
0001
0100
0001
0000
,
0100
0010
0100
0000
,
0001
1000
0001
1000
,
0001
1000
0001
1000
,
0010
0100
0010
0100
,
0010
0100
0010
0010
,
1000
1000
0001
0001
,
1000
1000
0100
0100
,
1000
0010
0100
0100
,
0001
1000
0010
0100
,
1001
0000
0110
0000
,
1001
1001
1001
1001
,
0220
0000
0000
0330
,
1001
0000
0000
0000
;

//--------------- dance-single - Alex ----------------
#NOTES:
     dance-single:
     Alex:
     Medium:
     7:
     0,0,0,0,0:
0000
0000
0000
0000
,
0000
0000
0000
0000
,
0000
0000
0000
0000
,
0000
0000
0000
0000
,
0000
0000
0000
0000
,
0001
1000
0010
1000
,
0001
0000
0100
0020
0000
0000
0030
0000
,
0100
0001
0010
0100
,
1000
0000
0001
2000
0000
0000
3000
0000
,
0001
0001
1000
1000
,
0010
0000
0100
0002
0000
0000
0003
0000
,
0010
0001
1000
0010
,
1000
0000
0100
0020
0000
0000
0030
0000
,
0001
0000
0100
0000
0010
1000
0000
0001
,
0000
0100
0000
0010
0100
0001
1000
0000
,
0100
0000
0010
0000
0001
0100
0001
0100
,
0000
0010
0200
0000
0000
0000
0300
0000
,
0001
1000
0010
1000
,
1000
0000
0001
0000
0010
0000
0100
0010
,
0001
0100
0010
1000
,
0100
0000
0010
0000
0001
0000
1000
0010
,
1000
0001
0010
0001
,
0001
0000
0100
0000
0010
0000
0100
0001
,
0100
0001
0001
1000
,
0010
0000
1000
0000
0001
0000
0010
0001
,
0010
0001
0100
0010
,
0100
0000
0100
0000
0001
0000
1000
0100
,
1000
1000
0001
0100
,
0010
0100
0010
0000
1000
0000
0001
0000
,
2000
0000
0010
0000
,
0010
0000
3010
0000
,
0002
0000
0010
0000
,
0010
0000
0013
0000
,
0200
0000
0010
0000
,
0010
0000
0310
0000
,
2000
0000
0100
0000
,
0100
0000
3100
0000
,
1100
0000
0000
0000
,
0011
0000
0000
0000
,
1001
0000
0000
0000
,
2002
0000
0000
3003
,
0001
0100
0010
0100
,
0001
0000
1000
0020
0000
0000
0030
0000
,
1000
1000
0001
0100
,
0010
0000
0100
0002
0000
0000
0003
0000
,
0010
0001
1000
1000
,
0001
0000
0100
0020
0000
0000
0030
0000
,
1000
0100
1000
1000
,
0001
0000
0100
0020
0000
0000
0030
0000
,
0100
0000
0001
0000
1000
0010
0000
1000
,
0000
0001
0000
0100
0001
0100
0001
0000
,
1000
0010
1000
0001
,
0100
0010
1000
0001
0200
0000
0300
0000
,
1001
0001
1000
0010
,
1000
0000
0001
0000
0100
0001
0100
0000
,
0001
0010
0100
0010
,
0001
0000
0100
0000
0010
1000
0010
0000
,
1010
0010
1000
0100
,
1000
0000
1000
0000
0001
1000
0001
0000
,
1000
0010
0100
0001
,
0010
0000
0001
0000
0100
0010
0100
0000
,
0101
0001
1000
1000
,
0001
0000
0010
0000
0001
0000
0100
0010
,
0100
0001
1000
0100
,
0010
0000
0001
0000
1000
0010
1000
0000
,
1001
0001
0100
0100
,
0001
0000
1000
0000
0010
1000
0010
0000
,
1000
0001
0010
0100
,
0010
0000
0001
0000
1000
0010
1000
0000
,
1001
0001
0100
0010
,
0100
0000
0100
0000
0001
0100
0001
0000
,
1000
0100
0010
0001
,
1000
0001
0100
0010
0200
0000
0300
0000
,
1001
0000
0110
0000
,
1001
1001
1001
1001
,
0220
0000
0000
0330
,
1001
0000
0000
0000
;

//--------------- dance-single - Alex ----------------
#NOTES:
     dance-single:
     Alex:
     Hard:
     10:
     0,0,0,0,0:
0000
0000
0000
0000
,
0000
0000
0000
0000
,
0000
0000
0000
0000
,
0000
0000
0000
0000
,
0000
0000
0000
0000
,
0001
0100
0010
1000
0100
0010
0100
1000
,
0001
0100
0010
0200
0000
0000
0300
0000
,
0001
0010
0001
0100
0001
1000
0010
0010
,
1000
0001
0100
0020
0000
0000
0030
0000
,
1000
0100
1000
0001
1000
0010
1000
0001
,
0010
0001
0100
0020
0000
0000
0030
0000
,
0100
0100
0001
0010
0001
1000
0100
0010
,
0100
1000
0001
0200
0000
0000
0300
0000
,
1010
0000
0101
0000
0001
1000
0000
1001
,
0000
0110
0000
0010
1000
0100
0010
0001
,
0001
1000
0010
1000
0001
0010
0001
1000
,
0000
0010
0100
0001
0100
0010
0100
0001
,
1000
0100
0001
0100
1000
0100
0001
0100
,
1000
0010
0001
0010
1000
0010
0001
0010
,
1000
0100
0001
0100
1000
0100
0001
0100
,
1000
0010
0001
0010
1000
0010
0001
0010
,
1000
0001
0010
0001
0100
0001
0010
0100
,
1000
0001
0100
0010
1000
0100
0010
0100
,
1000
0001
1000
0010
1000
0001
0010
0001
,
0100
0100
0001
0010
0010
0001
0100
0010
,
0100
0100
0001
0001
1000
1000
0010
0010
,
0001
0100
1000
0100
0001
0010
1000
0010
,
0001
1000
0010
0100
0001
1000
0100
0010
,
0000
0001
0100
0010
0100
0001
1000
0010
,
0210
0000
0001
0000
,
0010
0000
0001
0300
,
0012
0000
0100
0000
,
1000
0000
0010
0003
,
1020
0000
0100
0000
,
1000
0000
0001
0030
,
0201
0000
0010
0000
,
0001
0000
1000
0300
,
2200
0000
3300
0000
,
0022
0000
0033
0000
,
0202
0000
0303
0000
,
2002
0000
0000
3003
,
0001
1000
0010
1000
0001
0010
0001
0100
,
0010
0100
0001
0020
0000
0000
0030
0000
,
0010
0001
1000
0010
1000
0001
0010
0001
,
1000
0100
0010
0002
0000
0000
0003
0000
,
0100
0100
0001
0001
1000
0010
1000
0001
,
0010
0100
1000
0002
0000
0000
0003
0000
,
1000
1000
0001
0001
0100
0010
1000
0100
,
0001
0100
1000
0020
0000
0000
0030
0000
,
0101
0000
1001
0000
0010
1000
0001
0100
,
0000
0110
0000
0010
0100
0001
0010
0001
,
0001
1000
0010
1000
0001
0010
0001
0100
,
0000
0010
1000
0100
0010
0001
0100
0010
,
0110
0100
0001
0010
0001
1000
0010
1000
,
0001
0010
0100
1000
0010
0000
1010
0000
,
0010
0010
1000
1000
0001
0001
0100
0100
,
0001
0010
0001
0100
0010
0000
0110
0000
,
0010
1000
0100
0010
0001
1000
0010
0001
,
0010
1000
0001
0100
0001
0000
1001
0000
,
0001
0001
1000
1000
0010
0100
0001
1000
,
0100
0010
0100
1000
0001
0000
0101
0000
,
0001
1000
0001
1000
0010
1000
0001
0010
,
0001
0100
0001
0010
0100
0010
0001
0100
,
0010
0100
0001
1000
0010
0100
0001
0100
,
0001
1000
0100
1000
0001
1000
0010
1000
,
0001
0001
0100
0100
0010
0010
1000
0100
,
0010
0001
0100
0010
0100
0001
0010
0100
,
1000
0001
0100
0010
0100
0001
1000
0010
,
0000
0010
1000
0001
0100
0010
1000
0001
,
1001
0001
0100
0010
0100
0001
0010
0100
,
1000
0001
0100
1000
0100
0001
1000
0010
,
1000
0001
0010
0001
1000
0010
0100
0001
,
0000
0001
1000
0100
0010
0001
0100
0010
,
0220
0330
2002
3003
,
1100
0011
0101
1010
,
0001
1000
0010
0100
0001
1000
0010
1000
,
2002
0000
0000
0000
,
0000
3003
0000
0000
0000
0000
0000
0000
;
