#TITLE:Mr. Fire Fighter;
#SUBTITLE:;
#ARTIST:Spooky Banana;
#TITLETRANSLIT:;
#SUBTITLETRANSLIT:;
#ARTISTTRANSLIT:;
#GENRE:;
#CREDIT:;
#MUSIC:Mr. Fire Fighter.ogg;
#BANNER:Mr. Fire Fighter.png;
#BACKGROUND:Mr. Fire Fighter-BG.png;
#CDTITLE:;
#SAMPLESTART:37.769;
#SAMPLELENGTH:10.696;
#SELECTABLE:YES;
#OFFSET:-0.032;
#BPMS:0.000=158.000
,132.000=79.000
,144.000=158.000
;
#STOPS:182.000=1.111;
#BGCHANGES:;
#FGCHANGES:;

//--------------- dance-single - Alex ----------------
#NOTES:
     dance-single:
     Alex:
     Beginner:
     1:
     0,0,0,0,0:
0000
0000
0000
0000
,
0000
0000
0000
0000
,
0000
0000
0000
0000
,
0110
0000
0000
0000
,
0001
0000
0000
0000
,
1000
0000
0000
0000
,
1000
0000
0000
0000
,
0001
0000
0000
0000
,
1000
0000
0000
0000
,
0010
0000
0000
0000
,
0010
0000
0000
0000
,
1000
0000
0000
0000
,
0001
0000
0000
0000
,
0100
0000
0100
0000
,
0100
0000
0000
0000
,
2002
0000
0000
0000
,
3003
0000
0000
0000
,
0010
0000
0000
0000
,
0001
0000
0000
0000
,
1000
0000
0000
0000
,
0001
0000
0000
0000
,
0100
0000
0000
0000
,
0100
0000
0000
0000
,
0010
0000
0010
0000
,
0010
0000
0000
0000
,
1001
0000
0000
0000
,
1000
0000
0000
0000
,
0001
0000
0000
0000
,
0100
0000
0000
0000
,
0110
0000
0000
0000
,
0001
0000
0000
0000
,
1000
0000
0000
0000
,
0010
0000
0000
0000
,
1001
0000
0000
0110
,
0000
0000
1001
0000
,
0000
0110
0000
0000
,
0200
0000
0300
0000
,
0020
0000
0030
0000
,
0001
0000
1000
0000
,
0001
0000
0000
0000
,
1001
0000
0000
0000
,
0110
0000
0000
0000
,
1001
0000
0000
0000
,
0110
0000
0000
0000
,
0010
0000
0000
0000
,
1000
0000
0000
0000
,
0001
0000
0001
0000
,
0001
0000
0000
1001
,
0000
0000
0000
0100
,
0000
0000
0000
1000
,
0000
0000
0000
0010
,
0000
0000
0000
1000
,
0000
0000
0000
1000
,
0000
0000
0000
0010
,
0000
0000
0000
0001
,
0000
0000
0000
0100
,
0000
0000
0000
0100
,
0000
0000
0000
0001
,
0000
0000
0000
0100
,
0100
0100
0000
0000
;

//--------------- dance-single - Alex ----------------
#NOTES:
     dance-single:
     Alex:
     Easy:
     3:
     0,0,0,0,0:
0000
0000
0000
0000
,
0100
0000
0001
0000
,
2002
0000
3003
0000
,
0001
0001
0001
0000
,
1000
1000
1000
0000
,
0010
0010
0010
0000
,
0100
0000
2002
3003
,
0001
0000
1000
0000
,
0001
0000
0001
0000
,
1000
1000
1000
0000
,
0010
0010
0010
0000
,
1001
0000
0001
0000
,
1000
0000
0100
0000
,
1000
0000
1000
0000
,
0010
0010
0010
0000
,
0200
0000
0000
0000
,
0310
0000
0010
0010
,
0010
0000
1000
0000
,
0001
0000
0100
0000
,
0001
0001
0001
0000
,
1000
1000
1000
0000
,
0010
0000
1000
0000
,
0001
0000
0001
0000
,
1000
0000
0100
0000
,
2002
0000
3003
0000
,
0010
0000
1000
0000
,
0010
0000
0010
0000
,
0100
0100
0100
0000
,
1001
0000
1001
0000
,
0001
0000
1000
0000
,
0001
0000
0001
0000
,
1000
1000
1000
0000
,
0010
0000
1001
0000
,
0020
0000
0030
0200
0000
0300
0002
0000
,
0003
2000
0000
3000
0020
0000
0030
2000
,
0000
3000
0002
0000
0003
0200
0000
0300
,
2002
0000
3003
0000
,
0001
0001
0001
0000
,
1000
1000
1000
0000
,
0010
0010
0010
0000
,
1001
0000
1001
0000
,
0220
0000
0330
0000
,
0011
0000
0011
0000
,
2200
0000
3300
0000
,
1000
1000
1000
0000
,
0001
0001
0001
0000
,
1001
0000
1001
0000
,
0220
0000
0330
0001
,
0001
0001
0000
1000
,
1000
1000
0000
0001
,
0000
1000
0000
0010
,
0000
0100
0000
0001
,
0001
0002
0003
0100
,
0100
0200
0300
0010
,
0000
1000
0000
2020
,
0000
3030
0000
1000
,
1000
2000
3000
0100
,
0100
0200
0300
1000
,
0000
0001
0000
0100
,
0100
0100
0110
0000
;

//--------------- dance-single - Alex ----------------
#NOTES:
     dance-single:
     Alex:
     Medium:
     5:
     0,0,0,0,0:
0000
0000
0000
0000
,
0100
0000
0100
0000
,
0010
0000
1001
0000
,
0001
0100
0010
1000
,
0001
0010
0100
1001
,
1000
0010
1000
1000
,
0001
0000
0101
0000
0000
0100
0020
0030
,
0100
0100
0001
1000
,
0010
1000
0001
0001
,
0100
0010
1000
0100
,
0010
0001
0200
0320
,
1030
0001
0010
0001
,
1000
0010
1000
1000
,
0001
0100
0010
0100
,
0001
1000
0002
0023
,
0031
0001
0100
0100
,
0010
0000
1000
0000
0001
1000
0001
0000
,
1001
0001
0100
0010
,
1000
0100
0010
0010
,
0001
1000
0010
1000
,
0001
0100
0020
2030
,
3001
0001
0100
0100
,
0010
0010
1001
0000
,
1000
1000
0001
0001
,
0100
0100
0110
0000
,
0010
0100
0001
0100
,
0010
1000
0002
1000
,
1003
0001
0100
0010
,
1000
0001
1000
0100
,
1100
0000
1000
0010
,
1000
0001
0010
0001
,
0100
0100
0010
0010
,
1000
0001
0010
0001
,
2002
0000
3003
0220
0000
0330
0022
0000
,
0033
2200
0000
3300
2020
0000
3030
0202
,
0000
0303
0022
0000
0033
2002
0000
3003
,
0001
0100
0010
0010
,
1000
0100
1000
1000
,
0001
0100
0010
1000
,
0001
0010
1001
0000
,
0001
0100
0010
0100
,
0001
0000
1000
0000
0001
0100
0001
0000
,
1000
0010
1000
0001
,
1000
0000
0100
0000
1000
0100
1000
0100
,
0000
1000
0001
0100
,
0010
0010
2002
3003
,
0001
0001
1000
1000
,
0001
0010
0000
0011
,
0011
0001
0100
0100
,
0010
1000
0100
0010
,
0100
1000
0001
0100
,
0010
0000
0100
0010
0100
0020
0000
0000
,
0130
0000
0001
0000
1000
0200
0000
0000
,
1300
0000
0001
0000
0100
0002
0000
0000
,
0013
0000
0001
0000
1000
0010
0000
1000
,
0000
0001
0000
0100
0000
0000
0010
0000
,
1000
0000
0001
0000
1000
0002
0000
0000
,
0103
0000
0010
0000
1000
0200
0000
0000
,
1300
0010
1000
0010
,
0100
0001
0100
0001
0100
0000
0000
0000
;

//--------------- dance-single - Alex ----------------
#NOTES:
     dance-single:
     Alex:
     Hard:
     8:
     0,0,0,0,0:
0000
0000
0000
0000
,
0100
0100
0010
0010
,
1000
0000
0000
0000
0001
0000
0000
0000
1000
0000
0000
0001
0000
0000
1000
0000
,
0010
0100
0001
0000
0010
0100
1000
0000
,
0001
0100
0010
0100
0001
1000
0010
0000
,
1000
0001
0010
0000
0001
1000
0010
0000
,
1000
0100
0010
0100
0000
1000
1001
0000
,
0001
0100
0010
0100
0001
0000
1000
0010
,
0000
1000
0000
0001
0100
0000
0110
0000
,
0010
0000
1000
0000
0100
0010
0001
0100
,
0000
0010
1000
1000
0001
0000
1001
0000
,
0001
0000
0100
0000
0010
0100
0001
0010
,
0000
0100
1000
0000
0001
0100
0010
0000
,
1000
0100
0010
0001
0100
0010
1000
0000
,
0001
0000
0100
0000
0010
1000
0001
0010
,
0001
0000
0100
0000
0010
0100
0010
0000
,
1000
0100
0010
0001
0000
1000
0010
0000
,
0100
0001
0100
0010
0100
0000
0001
0000
,
1000
0010
1000
0001
0100
0010
1000
0000
,
1001
0000
0110
0000
0010
0100
0001
0100
,
0010
0000
1000
0000
0001
0010
0100
1000
,
0001
0100
0002
0003
1000
0010
2000
3000
,
0001
0010
0100
1000
0001
0100
0010
0000
,
1000
0100
2000
3000
0001
0100
0002
0003
,
1000
0010
1000
0001
0010
0001
0100
0010
,
0000
0010
0100
0000
0001
1000
0100
0010
,
0000
0001
0000
1001
0000
0001
1000
0010
,
0000
0100
0001
1000
0100
2000
0000
3000
,
0000
0001
0100
0010
0100
0001
1000
0000
,
1001
0000
0110
0000
0010
1000
0100
1000
,
0000
0001
0000
0100
0000
0010
0100
0010
,
0000
0100
0000
0001
0000
0010
0100
1000
,
0000
0001
0100
0010
0100
0002
0000
0003
,
1000
0001
1000
0001
0000
0000
1000
0001
1000
0001
0000
0000
1000
0001
1000
0001
,
0000
0000
1000
0001
1000
0001
0000
0000
0100
0010
0100
0010
0000
0000
0100
0010
,
0100
0010
0000
0000
0100
0010
0100
0010
0000
0000
0100
0010
0100
0010
0000
0000
,
0100
0001
1000
0010
0000
2020
3030
0000
,
0010
1000
0001
0200
0000
0300
0000
0000
,
0001
0010
0100
1000
0001
0100
0020
0000
,
0000
0100
0100
0130
,
0010
1000
0100
1000
0010
1000
0100
1000
,
0010
0100
0001
1000
0001
0000
1001
0000
,
0001
0100
0001
0100
0010
0100
0010
1000
,
0010
1000
0100
0010
0001
0100
0010
1000
,
0000
0001
1000
0000
0001
1000
0010
0100
,
0000
1001
0000
0220
0330
1001
0000
0000
,
0001
0100
0010
0100
0001
1000
0010
0000
,
1000
0001
0010
0100
1000
0000
1001
0000
,
0110
0000
0010
0100
0001
1000
0000
0002
,
0003
0200
0300
0010
1000
0001
0000
2000
,
3000
0200
0300
1000
0010
1000
0000
0001
,
0100
0010
0100
0001
1000
0020
0030
1000
,
0001
0010
0100
1000
0001
0200
0300
0001
,
1000
0010
1000
0001
0010
0002
0003
0100
,
0010
0100
0001
1000
0010
1000
0000
0001
,
0100
0001
0000
0000
1001
0000
0001
0100
,
0010
0100
0001
0000
0001
1000
0000
1000
,
0001
0100
0010
0000
0010
1000
0000
0002
,
0003
0200
0300
0020
0030
2000
3000
0001
,
0010
0100
1000
0001
2002
0000
3003
0000
;

//--------------- dance-single - Alex ----------------
#NOTES:
     dance-single:
     Alex:
     Challenge:
     11:
     0,0,0,0,0:
0000
0000
0000
0000
,
0001
0010
0100
1000
0020
0000
0030
0000
1000
0001
0100
0010
2000
0000
3000
0000
,
0001
0010
0001
0100
0010
0000
0100
0000
1001
0000
0000
0110
0000
0000
1001
0000
,
0001
0010
0100
1000
0001
0100
0010
1000
,
0100
0010
0001
0100
0010
1000
1001
0000
,
0001
0100
1000
0100
0001
0010
1000
0010
,
0001
0100
0010
0100
MMMM
0110
0110
0000
,
0010
0000
0100
0001
0100
0000
0001
0000
0010
0000
0100
0000
1000
0000
0001
1000
,
0001
1000
0010
0100
0001
1000
0100
1000
,
1100
0000
0100
1000
0100
0000
1000
0010
1000
0000
0010
0000
0100
0000
1000
0000
,
0100
0000
0001
0000
0010
0000
0001
0000
0100
0010
0100
0010
0100
0000
0010
0000
,
1001
0000
0001
0000
0010
0000
0001
0000
0100
0000
1000
0000
0100
0000
0001
0010
,
0100
0000
1000
0000
0010
0000
1000
0000
0100
0000
0010
0000
0100
0000
1000
0001
,
0100
0000
0001
0000
1000
0000
0010
1000
0001
0000
0010
0000
0001
0000
0100
0000
,
0110
0000
0010
0000
1000
0000
0100
0000
0010
0001
1000
0010
0100
0000
0001
0000
,
0101
0000
0001
0100
0001
0100
0010
0100
0001
0100
0001
1000
0001
1000
0010
1000
,
0010
1000
0001
0100
0010
0100
1001
0000
,
0010
0000
1000
0001
1000
0000
0001
0000
0100
0000
0010
0000
1000
0000
0001
0000
,
0010
0000
0001
0100
0001
0000
0100
0000
0010
0000
0100
0000
0001
0000
1000
0000
,
1010
0000
0010
1000
0010
0000
1000
0001
0010
0000
0001
0000
0100
0000
1000
0000
,
0100
0000
0001
0000
0010
0000
1000
0000
0010
0000
0001
0100
0001
0000
0100
0000
,
1001
0110
2002
3003
0011
1100
0022
0033
,
0001
0100
0010
0100
0001
1000
2200
3300
,
1010
0101
2020
3030
0101
1010
0202
0303
,
0001
0000
1000
0000
0010
0000
0100
0000
0001
0010
0100
1000
0001
0100
0020
0000
,
0000
0100
0130
0001
1000
0010
1000
1010
,
0000
0000
0101
0000
0000
0000
0011
0000
0000
0000
0001
0100
0010
0000
1000
0000
,
0001
0000
1000
0100
1000
0000
0001
0100
0001
0000
1000
0000
0010
0000
1000
0000
,
0001
0000
0010
0001
0100
0010
0100
0001
1000
0010
1000
0001
0200
0000
0300
0000
,
1001
0000
0110
0000
0010
1000
1001
0001
,
0100
0000
1000
0000
0100
0000
0001
0000
0010
0000
0001
0100
0010
0000
0100
0000
,
0001
0000
0010
0000
0100
0000
1000
0000
0010
0000
1000
0010
1000
0000
0001
0000
,
1000
0000
0010
1000
0010
1000
0001
0100
0001
1000
0010
0100
0001
0000
1000
0000
,
0020
0100
0100
0100
0130
0000
0200
0001
0001
0001
0301
0000
0002
1000
1000
1000
,
1003
0000
2000
0010
0010
0010
3010
0000
0020
1000
1000
1000
1030
0000
0002
0100
,
0100
0100
0103
0000
0200
0010
0010
0010
0310
0000
2000
0001
0001
0001
3001
0000
,
1001
0000
0001
0000
0100
0000
0010
0100
0010
0000
1000
0000
0002
0000
0003
0000
,
1000
0000
0100
0000
0010
0000
0001
0100
0010
0100
0001
0000
1001
0000
0000
0000
,
0001
0000
0100
0000
0010
0000
0100
0001
0100
0000
0001
0000
0010
0000
0100
0000
,
1000
0000
0010
0000
1000
0000
0001
0000
0100
0001
0100
0001
0200
0000
0300
0000
,
0001
1000
0010
1000
0001
1000
0010
1000
0001
0010
0100
1000
0001
0100
0001
0100
,
0010
0100
0010
1000
0010
1000
0001
0010
0001
0100
0001
0000
1001
0000
0000
0000
,
0001
1000
0010
1000
0001
0010
0100
1000
0001
0100
0010
1000
0100
0010
0100
1000
,
0001
1000
0001
0100
0001
0100
0010
1000
0001
0000
0010
0000
0100
0000
2000
0000
,
0000
0010
3010
0100
0001
1000
0010
1010
,
0000
0101
0000
0011
MMMM
0000
MMMM
0000
,
0001
0100
1000
0100
0001
0010
0001
0100
,
0010
0000
1000
0010
0100
0000
0001
0100
0020
0000
0030
0000
1001
0000
0010
0000
,
1001
0000
0001
0000
0100
0000
0001
1000
0010
0000
1000
0000
0100
0000
0010
0000
,
0100
0000
1000
0000
0001
0000
0100
0010
0100
0000
0001
0010
0001
0000
1000
0000
,
0010
0000
1000
0000
0001
0000
0010
0000
0100
0000
1000
0000
0001
0000
0100
0010
,
0100
0001
0010
0100
1000
0000
0001
0000
0100
0000
0010
1000
0001
0010
0001
1000
,
0010
1000
0001
0100
0001
0000
0100
0000
0010
0000
0100
0001
0010
0100
1000
0001
,
1000
0010
1000
0001
1000
0000
0010
0000
0100
0000
0001
0010
0100
1000
0001
0100
,
0010
1000
0001
0010
0001
0000
0100
0000
0010
0000
0100
0001
0100
0000
0010
0000
,
1000
0000
0001
1000
0010
0000
0100
0000
2002
0000
3003
0000
0001
0100
0010
0100
,
0001
1000
0001
0100
0001
0000
1000
0000
0010
0000
1000
0001
0010
0100
1000
0001
,
0100
0010
1000
0100
0010
0000
0001
0000
0100
0000
0010
0100
0001
0010
0100
1000
,
0001
1000
0010
1000
0001
0000
0100
0000
0010
0000
1000
0000
0001
0000
0011
0000
,
1100
0110
0101
1010
2002
0000
3003
0000
;
