#TITLE:Moonlight;
#SUBTITLE:;
#ARTIST:Banya;
#TITLETRANSLIT:;
#SUBTITLETRANSLIT:;
#ARTISTTRANSLIT:;
#GENRE:;
#CREDIT:;
#MUSIC:Moonlight.ogg;
#BANNER:Moonlight.png;
#BACKGROUND:Moonlight-BG.png;
#CDTITLE:;
#SAMPLESTART:6.869;
#SAMPLELENGTH:12.653;
#SELECTABLE:YES;
#OFFSET:-0.244;
#BPMS:0.000=180.000
,128.000=45.000
,146.000=90.000
,150.000=180.000
;
#STOPS:;
#BGCHANGES:;
#FGCHANGES:;

//--------------- dance-single - Alex ----------------
#NOTES:
     dance-single:
     Alex:
     Beginner:
     1:
     0,0,0,0,0:
0000
0000
0000
0000
,
0000
0000
0000
0000
,
0100
0000
0000
0000
,
0100
0000
0000
0000
,
0100
0000
0000
0000
,
1001
0000
0000
0000
,
0001
0000
0000
0000
,
1000
0000
0000
0000
,
0010
0000
0000
0000
,
0010
0000
0000
0000
,
1000
0000
0000
0000
,
0001
0000
0000
0000
,
0001
0000
0000
0000
,
1001
0000
0000
0000
,
0100
0000
0000
0000
,
0100
0000
0000
0000
,
0010
0000
0000
0000
,
0010
0000
0000
0000
,
0010
0000
0000
0000
,
1000
0000
0000
0000
,
0002
0000
0003
0000
,
0200
0000
0300
0000
,
0020
0000
0030
0000
,
0002
0000
0003
0000
,
2000
0000
3000
0000
,
0200
0000
0300
0000
,
1001
0000
0000
0000
,
0110
0000
0000
0000
,
1001
0000
0000
0000
,
0110
0000
0000
0000
,
2002
0000
0000
0000
,
3003
0000
0000
0000
,
0001
0000
1000
0000
,
0010
0010
0010
0000
,
1000
0000
0100
0000
,
1000
0000
0001
0000
,
1000
1000
0010
0000
,
0100
0000
0001
0000
,
0000
0000
0001
0000
,
0000
0000
1000
0000
,
0000
0000
0001
0000
,
0000
0000
0010
0000
,
0000
0000
0010
0000
,
0000
0000
0001
0000
,
0000
0000
0001
0000
,
0000
0000
1001
0000
,
0000
0000
0100
0000
,
0000
0000
0010
0000
,
0000
0000
1000
0000
,
0000
0000
1000
0000
,
0000
0000
0001
0000
,
0000
0000
0001
0000
,
0000
0000
1000
0000
,
0000
0000
0010
0000
,
0000
0000
0010
0000
,
0000
0000
1000
0000
,
0000
0000
0100
0000
,
0000
0000
1000
0000
,
0000
0000
1000
0000
,
1000
0000
1001
0000
;

//--------------- dance-single - Alex ----------------
#NOTES:
     dance-single:
     Alex:
     Easy:
     4:
     0,0,0,0,0:
0000
0000
0000
0000
,
0000
0000
0000
0000
,
0100
0000
0010
0000
,
0100
0000
0010
0000
,
2002
0000
3003
0000
,
0001
0000
1000
0000
,
0001
0100
0001
0000
,
1000
0000
0010
0000
,
1000
0010
1000
0000
,
0001
0000
1000
0000
,
0001
0010
0001
0000
,
0100
0100
0100
0000
,
0010
0010
0010
0000
,
1000
0000
0001
0000
,
1000
0000
1001
0000
,
0001
0000
0100
0000
,
0010
0000
0110
0000
,
0010
0010
0010
0000
,
0100
0100
0100
0000
,
2002
0000
3003
0000
,
0001
0000
0000
0000
1000
0000
0000
0001
,
0000
0100
0100
0000
,
0010
0000
0000
0000
0010
0000
0000
0100
,
0000
0001
0001
0000
,
1000
0000
0000
0000
1000
0000
0000
0001
,
0000
1000
0001
0000
,
0100
0100
0100
0000
,
0001
0001
0001
0000
,
1000
1000
1000
0000
,
0010
0010
0010
0000
,
2002
0000
0000
0000
,
3003
0100
0100
0100
,
0010
0200
0300
0001
1000
0020
0030
0100
,
0001
1000
0001
0100
0020
0000
0030
0000
,
0100
0100
0010
0010
2000
0000
3100
0000
,
1000
0001
1000
0001
0020
0000
0030
0000
,
0002
0003
2000
3000
0001
0000
1000
0000
,
0001
1000
0001
0001
,
0001
0000
1000
1000
,
1000
0000
0010
0010
,
0010
0000
0100
0100
,
0100
0000
0010
0000
,
1000
0000
0001
0000
,
0100
0000
0010
0100
,
0010
0000
0100
0010
,
0100
0000
0001
0000
,
1000
0000
0001
0000
,
0010
0001
0010
0000
,
0001
0000
0100
0000
,
0010
0100
0010
0000
,
1000
0000
0001
0000
,
1000
0100
1000
0000
,
0001
0000
0100
0000
,
0010
0100
0010
0000
,
0010
0000
1000
0000
,
1000
0000
0001
0000
,
0001
0000
0100
0000
,
0100
0000
0010
0010
,
0010
0010
1001
0000
,
1001
0000
1001
0000
;

//--------------- dance-single - Alex ----------------
#NOTES:
     dance-single:
     Alex:
     Medium:
     6:
     0,0,0,0,0:
0000
0000
0000
0000
,
0000
0000
0000
0000
,
0001
1000
0001
0001
,
0100
0010
1000
0001
,
2002
0000
3003
0000
,
0001
0100
0010
1000
,
0100
1000
0010
1010
,
0010
1000
0001
0100
,
0010
0100
0001
1001
,
0001
0001
1000
1000
,
0010
0100
0001
0011
,
0001
0000
0001
0000
0100
0001
0100
0000
,
0010
0000
0010
0000
1000
0010
1000
0000
,
0001
0001
1000
1000
,
0010
0000
0010
0000
0100
0000
0001
0100
,
0001
0100
0010
1000
,
0100
0000
0100
0000
0100
0000
1000
0010
,
1000
1010
1001
0101
,
0110
1001
1001
0000
,
1001
1001
2002
3003
,
0002
0000
0003
0000
2000
0000
3000
0020
,
0000
0030
0100
0000
0100
0000
1001
0000
,
0002
0000
0003
0000
0020
0000
0030
0002
,
0000
0003
1000
0000
1000
0000
1001
0000
,
0002
0000
0003
0000
2000
0000
3000
0020
,
0000
0030
0100
0000
0100
0000
1001
0000
,
0001
1000
0001
1000
0020
0000
0030
0000
,
0010
1000
0010
1000
0002
0000
0003
0000
,
0001
0100
0001
0100
0002
0000
0003
0000
,
1000
0010
1000
0010
1000
0000
0001
0000
,
0200
0000
0000
0000
,
0300
0010
0010
0010
,
1001
0000
0220
0000
0330
0000
0001
1000
0100
0000
0020
0000
0030
0000
0001
1000
,
0010
0000
1000
0000
0001
0000
0100
0000
0020
0000
0030
0100
0200
0000
0300
0000
,
0001
0000
0001
0000
1000
0000
1000
0000
0200
0000
0300
0010
0020
0000
0030
0000
,
0001
1000
0010
0100
2002
0000
3003
0000
,
0002
0003
0200
0300
0001
0000
1000
0000
,
1000
0001
1000
0001
0100
0000
0100
0000
,
0001
0001
1000
0010
,
0100
0101
0001
0001
,
1000
1000
0100
1000
,
0010
1010
0010
0100
,
0001
0100
0010
1000
,
0001
1001
0001
0001
,
0100
0010
0100
0000
0010
0000
0010
0000
,
1000
0100
1000
0000
0001
0000
0100
0000
,
0010
0100
0001
1000
,
0001
0000
0010
0001
0010
0000
0001
0000
,
0100
0010
0100
0001
,
1000
0000
0100
1000
0100
0000
1000
0000
,
1000
0010
1000
0001
,
0100
0000
0010
0100
0010
0000
0100
0000
,
0001
1000
0100
0010
,
0001
0000
1000
0000
0010
0100
0010
0000
,
0100
0010
0100
0000
0001
1000
0001
0000
,
1000
0001
1000
0000
0001
0010
0001
0000
,
1000
0010
1000
0000
0001
0100
0001
0000
,
1000
0100
1000
0000
0010
0000
0010
0000
,
0100
0100
2002
3003
,
0220
0330
2002
0000
,
0000
0000
0000
3003
0000
0000
0000
0000
;

//--------------- dance-single - Alex ----------------
#NOTES:
     dance-single:
     Alex:
     Hard:
     9:
     0,0,0,0,0:
0000
0000
0000
0000
,
0000
0000
0000
0000
,
0001
1001
1000
1001
,
0001
0000
0100
0000
0010
0000
0100
0000
0001
0000
1000
0000
0010
0000
0100
0001
,
2000
0000
0000
3000
0010
0000
1001
0000
,
0001
0100
0010
0100
0001
1000
0010
0100
,
0001
1000
0100
0010
0001
1000
1001
0000
,
0001
0100
0001
1000
0010
1000
0001
1000
,
0100
1000
0010
0100
0001
0010
0011
0000
,
0001
0100
0010
0100
0001
0010
0100
1000
,
0001
0100
0001
1000
0010
1000
1010
0000
,
0010
0100
0001
1000
0100
0100
0010
0010
,
0001
0100
0010
0100
0001
0001
1000
1000
,
0001
0010
0100
1000
0001
0100
0010
1000
,
0100
0000
0010
0000
0001
0000
0100
0000
0010
0000
0100
0001
1000
0000
1000
0000
,
0010
1000
0001
0100
0001
1000
0010
1000
,
0100
0000
0010
0000
0100
0000
1000
0000
0001
0000
0100
0010
0100
0000
0001
0000
,
1000
0000
0000
0001
1000
0000
0000
1000
0010
0000
0000
0010
0100
0000
0000
0100
,
0001
1000
0001
1000
0001
0000
0000
0000
,
1001
1001
2002
3003
,
0001
0100
0000
0100
0010
0000
0010
1000
,
0000
1000
0001
0010
0001
0000
1001
0000
,
0001
1000
0000
1000
0001
0000
0001
0100
,
0000
0100
0010
1000
0100
0000
1100
0000
,
1000
0010
0000
0010
1000
0000
1000
0001
,
0000
0000
0001
0000
0100
0000
0010
0000
0100
0010
0100
0000
0001
0000
1000
0000
,
0100
0010
0001
0100
0010
0100
0002
0003
,
1000
0010
1000
0001
0010
0001
2000
3000
,
0001
1000
0010
0010
0100
0001
2000
3000
,
0100
0010
0001
0100
0010
0100
0002
0003
,
2000
0000
0000
0000
,
3000
0010
0010
0010
,
1001
0000
0002
0000
0003
0000
0100
0010
1000
0000
0020
0000
0030
0000
1000
0001
,
0200
0320
2030
3002
0023
0000
0032
0000
,
1003
0000
0010
0000
0100
0000
0001
0000
2000
0000
3000
0010
0020
0000
0030
0000
,
0100
0001
0010
0100
2000
0000
3000
0000
,
0002
0000
0000
0003
2000
0000
0000
3000
0010
0000
0010
0000
0100
0000
0100
0000
,
0001
0001
1000
1000
0001
0010
0100
1000
,
0001
0100
0010
1000
0100
0010
0001
0100
,
0010
1000
1001
0000
0001
0100
0001
0100
,
0010
0100
0001
0010
0001
1000
0010
0100
,
0001
1000
1001
0000
0001
1000
0100
1000
,
0010
1000
0001
0010
0001
0100
0010
1000
,
0100
1000
1001
0000
0001
0100
0010
0100
,
0001
0001
0010
0010
0001
0100
0010
0100
,
0001
0001
1000
1000
0001
0010
0100
1000
,
0001
0100
0010
1000
0100
0010
0001
1000
,
0010
0000
0100
0001
1000
0000
0001
0000
0010
0000
0001
0000
1000
0000
0010
0000
,
1000
0001
1000
0100
0010
0100
1000
0001
,
0100
0000
0010
0100
0010
0000
0100
0000
0100
0000
0001
0000
0010
0000
0001
0000
,
1000
0010
1000
0001
0100
0001
0010
0100
,
1000
0000
0001
0100
0010
0000
0100
0000
0100
0000
0001
0000
1000
0000
0100
0000
,
1000
0001
0100
0001
0010
0001
1000
0010
,
0100
0000
0001
1000
0010
0000
0010
0000
0100
0000
0001
0000
1000
0000
0100
0000
,
0010
0100
1000
0001
0100
0010
0100
0001
,
0010
0100
1000
0001
0100
0010
1000
0100
,
0010
0001
0100
0010
0100
0001
1000
0010
,
0100
0001
1000
0001
0100
0100
0010
0010
,
1000
1000
0001
0001
2002
0000
3003
0000
,
0220
0330
2002
0000
,
0000
0000
0000
3003
0000
0000
0000
0000
;

//--------------- dance-single - Alex ----------------
#NOTES:
     dance-single:
     Alex:
     Challenge:
     13:
     0,0,0,0,0:
0000
0000
0000
0000
,
0000
0000
0000
0000
,
1001
0110
1001
0110
,
1100
0000
0001
0000
1100
0000
0001
0000
0011
0000
1000
0000
0011
0000
1000
0010
,
0400
0004
0000
0000
0000
0000
0000
0000
0000
0000
0000
0000
0303
0000
0000
0000
,
0001
0010
0100
1000
0001
0100
0010
1000
0100
0010
0100
1000
0001
1000
0010
0100
,
0001
0010
0100
1000
0001
0100
0010
1000
0001
0000
1001
0000
1001
0000
0000
0000
,
0001
1000
0010
0100
0001
0010
0001
0100
0001
0100
0010
1000
0100
0010
0100
1000
,
0001
0100
0010
0100
0001
0010
0100
1000
0010
0000
1010
0000
1010
0000
0000
0000
,
0010
1000
0010
1000
0001
1000
0010
0100
0001
1000
0100
0010
0001
0100
0010
0100
,
0001
0010
0100
1000
0001
0100
0001
1000
0010
0000
1001
0000
1001
0000
0000
0000
,
0001
0010
0100
1000
0001
1000
0100
0010
0100
1000
0001
0100
0110
0000
0110
0000
,
0010
1000
0100
1000
0010
1000
0001
0010
0001
0100
0001
1000
1001
0000
1001
0000
,
0001
0001
0100
0100
0010
0010
1000
1000
,
0100
0000
0100
0000
1000
0000
0010
0000
0100
0000
0001
0100
0001
0000
1001
0000
,
0001
0010
0001
0100
0010
1000
0100
0010
,
0100
0000
1000
0000
0001
0000
0001
0000
0100
0000
0010
0100
0010
0000
0110
0000
,
0020
0030
1000
0001
0200
0300
0001
0010
0200
0300
1000
0010
2000
3000
0001
0100
,
0002
0003
0020
0030
0200
0300
2000
3000
0020
0000
0000
0000
0030
0000
0000
0000
,
1000
0001
1000
0001
1000
0001
1000
0001
4000
0004
0000
0000
0000
0000
3003
0000
,
0011
0101
0000
0110
1010
0000
1100
0110
,
0000
0000
0001
0000
1000
0000
0010
1000
0001
0000
0000
0000
1001
0000
0000
0000
,
0011
0101
0000
0110
1010
0000
1100
0110
,
0000
0000
0001
0000
1000
0000
0010
0100
0001
0000
0000
0000
1001
0000
0000
0000
,
0101
0110
0000
1010
1100
0000
1001
0011
,
0000
0000
0001
0000
0100
0000
0010
0000
1000
0100
1000
0000
0001
0000
0100
0000
,
0010
1000
0001
0100
0010
0100
0001
0010
0100
1000
0001
0100
0020
0000
0000
0030
,
0100
0001
0010
0001
1000
0010
1000
0001
1000
0100
1000
0001
0200
0000
0000
0300
,
0001
1000
0010
0100
0001
0010
0001
0100
0010
0100
0001
1000
0200
0000
0000
0300
,
1000
0010
1000
0001
0010
0001
0100
0010
0100
0001
0010
0100
2000
0000
0000
3000
,
0002
0000
0000
0000
,
0003
1001
1001
1001
,
1000
0000
0010
0000
0100
0000
0001
0000
1000
0000
0001
0000
0000
0000
0101
0000
0000
0000
0001
0000
0100
0000
0010
0000
0100
0000
0001
0000
1000
0100
1000
0000
0001
0000
0100
0000
0010
0000
0100
0000
0001
0000
1000
0000
0000
0000
1001
0000
0000
0000
0001
0000
0100
0000
0010
0000
1000
0000
0100
0000
0010
0001
0010
0000
,
0001
0000
0100
0000
0010
0000
0100
0000
0001
0000
1000
0000
0000
0000
1010
0000
0000
0000
0010
0000
1000
0000
0001
0000
0100
0000
0010
0000
1000
0001
1000
0000
0010
0000
0100
0000
0001
0000
0100
0000
0010
0000
1000
0000
0000
0000
1100
0000
0000
0000
0100
0000
0010
0000
0001
0000
0100
0000
0010
0000
0100
0001
0100
0000
,
0020
0000
2030
0000
3002
0000
0203
0000
0320
0000
0000
0130
0200
0000
0000
0300
,
0002
0000
0023
0000
2030
0000
3200
0000
0302
0000
0000
0000
0000
0000
0000
0003
,
0200
0000
0000
0000
0320
0000
0000
0000
1030
0001
1000
0001
1000
0001
1000
0001
,
0100
0010
0100
0010
1000
0001
0010
0100
1000
0100
0010
0001
1000
0000
1001
0000
,
0001
0100
0010
0100
0001
0000
0101
0000
0001
1000
0010
0100
0001
0010
0100
1000
,
0001
0000
1001
0000
1001
0000
0000
0000
0001
1000
0010
0100
0001
0000
0011
0000
,
0001
1000
0100
1000
0010
0000
1010
0000
0010
1000
0010
0100
0010
1000
0001
0100
,
0001
0000
1001
0000
1001
0000
0000
0000
0001
0010
0100
1000
0001
0100
0010
1000
,
0100
0010
0100
1000
0001
0100
0010
0100
0010
0100
0001
0010
0001
1000
0010
1000
,
0010
0000
1001
0000
1001
0000
0000
0000
0001
1000
0010
0100
0001
1000
0100
0010
,
0001
0100
0010
0000
0110
0000
0110
0000
1000
0001
0010
0001
1000
0010
1000
0001
,
0100
0001
1000
0000
1001
0000
1001
0000
0001
0000
0001
0000
1000
0000
1000
0000
,
0010
0010
0100
0100
0001
0010
0100
1000
,
0001
0000
0100
0001
0100
0000
0101
0000
0001
0000
0001
0000
0010
0000
0010
0000
,
0001
0001
1000
1000
0010
1000
0001
0100
,
0010
0000
1000
0001
0100
0000
1001
0000
0001
0000
0001
0000
0100
0000
0100
0000
,
0010
0010
1000
1000
0100
0010
0001
0100
,
0010
0000
0100
0001
0010
0000
0011
0000
0001
0000
0001
0000
0100
0000
0100
0000
,
0010
0010
1000
1000
0001
1000
0010
0100
,
0001
0000
1000
0100
1000
0000
1001
0000
0001
0100
0010
1000
0100
0010
0001
1000
,
0010
0100
0001
0010
0100
1000
0001
0100
0010
0100
0001
0100
0001
1000
0010
1000
,
0001
0010
0100
1000
0001
0100
0010
1000
0100
0010
0100
1000
0001
0100
0010
0100
,
0001
0010
0100
1000
0001
1000
0010
1000
0001
0010
0001
0100
0001
0100
0010
1000
,
0100
0010
0001
0100
0010
1000
0001
0010
0001
0100
0001
0100
0001
0100
0001
0100
,
0001
0100
0001
0100
0001
0100
0001
0100
0202
0000
0000
0000
0303
0000
0000
0000
,
2020
3030
2002
0000
,
0000
0000
0000
3003
0000
0000
0000
0000
;
