#TITLE:Monkey Magic;
#SUBTITLE:;
#ARTIST:E-Paksa;
#TITLETRANSLIT:;
#SUBTITLETRANSLIT:;
#ARTISTTRANSLIT:;
#GENRE:;
#CREDIT:;
#MUSIC:Monkey Magic.ogg;
#BANNER:Monkey Magic.png;
#BACKGROUND:Monkey Magic-BG.png;
#CDTITLE:;
#SAMPLESTART:17.414;
#SAMPLELENGTH:13.586;
#SELECTABLE:YES;
#OFFSET:-0.095;
#BPMS:0.000=152.000
,84.000=151.500
,148.000=152.000
;
#STOPS:;
#BGCHANGES:;
#FGCHANGES:;

//--------------- dance-single - Alex ----------------
#NOTES:
     dance-single:
     Alex:
     Beginner:
     1:
     0,0,0,0,0:
0000
0000
0000
0000
,
0000
0000
0000
0000
,
0000
0000
0000
0000
,
0100
0000
0000
0000
,
1000
0000
0000
0000
,
0001
0000
0000
0000
,
0010
0000
0000
0000
,
0001
0000
0000
0000
,
0001
0000
0000
0000
,
1000
0000
0000
0000
,
1000
0000
0000
0000
,
0010
0000
0010
0000
,
0010
0000
0000
0000
,
0100
0000
0100
0000
,
0100
0000
0000
0000
,
1000
0000
1000
0000
,
1000
0000
0000
0000
,
0010
0000
0010
0000
,
0020
0000
0000
0000
,
0030
0000
0000
0000
,
1000
0000
1000
0000
,
1001
0000
0000
0000
,
0001
0000
0000
0000
,
0100
0000
0000
0000
,
0001
0000
0000
0000
,
1000
0000
0000
0000
,
0020
0000
0030
0000
,
0100
0000
0000
0000
,
0200
0000
0300
0000
,
1001
0000
0000
0000
,
0001
0000
0000
0000
,
0001
0000
0000
0000
,
1000
0000
0000
0000
,
0010
0000
0000
0000
,
0010
0000
0000
0000
,
1000
0000
0000
0000
,
1000
0000
0000
0000
,
1001
0000
0000
0000
,
0001
0000
0000
0000
,
0001
0000
0000
0000
,
0100
0000
0000
0000
,
0010
0000
0000
0000
,
0010
0000
0000
0000
,
1000
0000
0000
0000
,
1000
0000
0000
0000
,
0001
0000
0001
0000
,
0001
0000
0000
0000
,
1000
0000
1000
0000
,
1000
0000
0000
0000
,
0010
0000
0010
0000
,
0010
0000
0000
0000
,
1000
0000
1000
0000
,
2000
0000
0000
0000
,
3000
0000
0000
0000
,
0001
0000
1000
0000
,
1001
0000
0000
0000
;

//--------------- dance-single - Alex ----------------
#NOTES:
     dance-single:
     Alex:
     Easy:
     3:
     0,0,0,0,0:
0000
0000
0000
0000
,
0000
0000
0000
0000
,
0000
0000
0000
0000
,
1001
0000
0010
0000
,
0010
0000
1000
0000
,
0001
0000
1000
0000
,
0100
0000
0100
0000
,
1000
1000
1000
0000
,
0001
0001
0001
0000
,
0100
0000
0010
0000
,
0200
0000
0300
0000
,
1001
0000
0001
0000
,
1000
1000
1000
0000
,
0001
0000
0010
0000
,
0001
0001
0001
0000
,
0100
0000
0010
0000
,
1000
1000
1000
0000
,
0001
0000
1000
0000
,
0100
0100
0100
0000
,
1000
0000
1000
0000
,
0001
0000
0001
0000
,
1001
0000
0001
0000
,
1000
0000
0010
0000
,
0100
0000
0100
0000
,
0001
0000
1000
0000
,
0001
0001
0001
0000
,
1000
0000
0010
0000
,
1000
1000
1000
0000
,
0001
0000
0100
0000
,
0110
0000
0010
0000
,
0100
0000
0010
0000
,
1000
0000
0001
0000
,
1000
0000
0100
0000
,
1000
1000
1000
0000
,
0001
0001
0001
0000
,
1000
0000
0001
0000
,
0010
0000
0001
0000
,
1001
0000
0010
0000
,
0100
0000
0100
0000
,
0001
0000
1000
0000
,
0010
0000
0010
0000
,
1000
1000
1000
0000
,
0001
0001
0001
0000
,
1000
0000
0001
0000
,
0200
0000
0300
0000
,
1001
0000
0010
0000
,
0100
0100
0100
0000
,
0001
0000
1000
0000
,
0001
0001
0001
0000
,
1000
0000
1000
0000
,
0010
0010
0010
0000
,
1000
0000
0100
0000
,
1000
1000
1000
0000
,
0001
0000
1000
0000
,
0001
1000
0001
1000
,
1001
0000
0000
0000
;

//--------------- dance-single - Alex ----------------
#NOTES:
     dance-single:
     Alex:
     Medium:
     5:
     0,0,0,0,0:
0000
0000
0000
0000
,
0000
0000
0000
0000
,
0000
0000
0000
0000
,
0001
1000
0001
0100
,
0010
0100
0002
0003
,
1000
0100
1000
0010
,
1000
0001
0020
0030
,
0001
0000
0100
0000
0010
0100
0010
0000
,
1000
0000
0001
0000
1000
0100
1000
0000
,
0001
0100
0010
0100
,
0001
0010
0200
0300
,
1001
1001
0110
0110
,
0100
0001
1000
0000
,
1100
1100
1010
1010
,
0010
1000
0001
0000
,
0011
0011
0101
0101
,
0010
0100
0001
0000
,
1001
1001
0110
0110
,
0010
0100
0001
2000
0000
0000
0000
0000
,
0001
0001
0001
3001
,
1000
0010
0100
0001
,
1001
0010
0100
0001
,
0010
0010
0001
0001
,
1000
0010
1000
0001
,
1000
0100
0010
0001
,
0101
0101
1010
1010
,
0010
0100
0001
0000
,
1001
1001
0110
0110
,
1000
0100
0010
0000
,
0001
0001
1000
1000
,
0010
0100
0010
0100
,
0001
0010
0100
1000
,
0001
0000
0100
0000
0010
0100
0010
0000
,
0100
0001
1000
0100
,
1000
1000
0001
0001
,
0100
0010
0100
0100
,
0001
0000
1000
0000
0010
0100
0010
0000
,
1001
0001
1000
0100
,
1000
0001
0100
0000
,
0010
1000
0001
0010
,
0001
1000
0100
0000
,
1000
0000
0010
0000
1000
0010
1000
0000
,
0001
0000
0100
0000
0001
0100
0001
0000
,
1000
0100
0010
0001
,
0100
0010
0200
0300
,
1001
1001
0110
0110
,
0001
1000
0010
0000
,
1010
1010
0101
0101
,
0100
0001
0010
0000
,
0011
0011
1100
1100
,
1000
0001
1000
0000
,
1001
1001
0110
0110
,
0010
0100
0010
0200
0000
0000
0000
0000
,
0010
0010
0010
0310
,
1000
0001
0100
2002
,
3003
0000
0000
0000
;

//--------------- dance-single - Alex ----------------
#NOTES:
     dance-single:
     Alex:
     Hard:
     8:
     0,0,0,0,0:
0000
0000
0000
0000
,
0000
0000
0000
0000
,
0000
0000
0000
0000
,
0001
1000
0000
1000
0001
0100
0000
0100
,
0010
1000
0001
0020
0000
0030
1001
0000
,
0001
1000
0000
1000
0100
1000
0000
0001
,
0100
0010
0100
0002
0000
0003
1001
0000
,
0001
0000
1000
0000
0010
0000
0100
0000
0001
0100
0020
0000
0000
0000
0030
0000
,
1000
0001
1000
0100
0020
0000
0030
0000
,
0001
0100
0010
0100
0001
1000
0000
1000
,
0001
0100
0010
2000
0000
3000
1001
0000
,
0001
1000
0010
1000
0001
0010
0000
0001
,
0100
0010
0100
0001
0000
2002
3003
0000
,
0001
1000
0100
1000
0001
1000
0000
1000
,
0001
0100
0010
0100
0000
0220
0330
0000
,
0001
1000
0010
1000
0001
0010
0000
0010
,
0001
0100
0010
0100
0000
2002
3003
0000
,
0001
1000
0100
1000
0010
2000
0000
3000
,
0001
0100
0010
0200
0000
0000
0000
0000
,
0010
0010
0010
0310
,
0010
1000
0001
0100
0010
1000
1001
0000
,
0001
0100
0001
0000
1000
0010
1000
0000
,
0001
0010
0001
0000
1000
0100
1000
0000
,
0010
0100
0010
0100
0001
0100
0001
1000
,
0001
1000
0010
1000
0010
0100
0001
1000
,
0100
0010
0001
0100
0010
0100
0000
0001
,
1000
0010
0100
0001
0000
2002
3003
0000
,
0001
1000
0100
1000
0001
1000
0000
0001
,
0100
0010
1000
0010
0000
0220
0330
0000
,
0010
0100
0010
0000
0100
0000
0001
0000
,
1000
0100
1000
0000
0001
0000
0100
0000
,
0010
1000
0010
0000
1000
0000
0001
0000
,
0010
0001
0010
0000
0001
0000
0100
0000
,
0010
0100
0010
0000
1000
0100
1000
0000
,
0001
0100
0001
0100
0000
0100
0010
0000
,
1000
0100
0010
0001
,
1000
0010
0100
0001
0000
2002
0000
3003
,
0001
0100
0000
0100
0010
1000
0000
1000
,
0100
0010
0001
0200
0000
0300
0110
0000
,
0010
0100
0000
0100
0001
0010
0000
0010
,
0001
1000
0010
2000
0000
3000
1001
0000
,
0001
0000
1000
0000
0100
0000
1000
0000
0001
0100
0002
0000
0000
0000
0003
0000
,
1000
0010
0100
0001
0020
0000
0030
0000
,
0001
0100
0010
0100
0001
1000
0000
0001
,
0010
0100
1000
0010
0000
0220
0000
0330
,
0010
0100
0001
0100
0010
0100
0001
0000
,
1000
0100
0010
0001
0000
2002
3003
0000
,
0001
1000
0010
1000
0001
0010
0000
0010
,
0001
0100
0001
1000
0000
2200
3300
0000
,
1000
1000
0001
0100
0001
1000
0000
0010
,
0100
0001
0010
0001
0000
0202
0303
0000
,
0001
0100
0001
0100
0010
0200
0000
0300
,
0001
1000
0010
0200
0000
0300
0000
0000
,
0001
0010
0100
1000
0001
0010
0100
1000
,
0001
0100
0010
1000
0001
0100
0220
0000
,
0330
0000
0000
0000
;
