#TITLE:Monkey Fingers;
#SUBTITLE:;
#ARTIST:Banya;
#TITLETRANSLIT:;
#SUBTITLETRANSLIT:;
#ARTISTTRANSLIT:;
#GENRE:;
#CREDIT:;
#MUSIC:Monkey Fingers.ogg;
#BANNER:Monkey Fingers.png;
#BACKGROUND:Monkey Fingers-BG.png;
#CDTITLE:;
#SAMPLESTART:26.031;
#SAMPLELENGTH:10.215;
#SELECTABLE:YES;
#OFFSET:0.058;
#BPMS:0.000=186.000;
#STOPS:;
#BGCHANGES:;
#FGCHANGES:;

//--------------- dance-single - Alex ----------------
#NOTES:
     dance-single:
     Alex:
     Beginner:
     1:
     0,0,0,0,0:
0000
0000
0000
0000
,
0000
0000
0000
0000
,
0000
0000
0000
0000
,
0000
0000
0000
0000
,
0000
0100
0000
0000
,
0000
0001
0000
0000
,
0000
1000
0000
0000
,
0000
0010
0000
0000
,
0000
1000
0000
0000
,
0000
1000
0000
0000
,
0000
0001
0000
0000
,
0000
0100
0000
0000
,
0000
0001
0000
0000
,
0000
1000
0000
0000
,
0000
0010
0000
0000
,
0000
1000
0000
0000
,
0000
0001
0000
0000
,
0000
1000
0000
0000
,
0000
0100
0000
0000
,
0000
0100
0000
0000
,
0000
1000
0000
1000
,
0000
1000
0000
0000
,
0000
0001
0000
0001
,
0000
0001
0000
0000
,
0000
0100
0000
0100
,
0000
0100
0000
0000
,
0000
0001
0000
0001
,
0000
0001
0000
0000
,
0000
1000
0000
1000
,
0000
1000
0000
0000
,
0000
0010
0000
0000
,
0000
1000
0000
0000
,
0000
1001
0000
0000
,
0000
0001
0000
0000
,
0000
0100
0000
0100
,
0000
0100
0000
0000
,
0000
0010
0000
0000
,
0000
0010
0000
0000
,
0000
1000
0000
1000
,
0000
1000
0000
0000
,
0000
1001
0000
0000
,
0000
0000
0000
0000
,
0000
0110
0000
0000
,
0000
0000
0000
0100
,
0000
0100
0000
0000
,
0000
0001
0000
0000
,
0000
1000
0000
0000
,
0000
0010
0000
0000
,
0000
1000
0000
0000
,
0000
0100
0000
0000
,
0000
0001
0000
0000
,
0000
1000
0000
0000
,
0000
0010
0000
0010
,
0000
0010
0000
0000
,
0000
1000
0000
1000
,
0000
1000
0000
0000
,
0000
0001
0000
0001
,
0000
0001
0000
0000
,
0000
1000
0000
1000
,
0000
1000
0000
0000
,
0000
0100
0000
0100
,
0000
0100
0000
0000
,
0000
0110
0000
0000
,
0000
1001
0000
0000
,
0000
0001
0000
0000
,
0000
0001
0000
0000
,
0000
1000
0000
0000
,
0000
0010
0000
0000
,
0000
0010
0000
0000
,
0000
1000
0000
0000
,
0000
0100
0000
0000
,
0000
1000
0000
0000
,
0000
0001
0000
0000
,
0000
0001
0000
0000
,
0000
1000
0000
0000
,
0000
0010
0000
0000
,
1001
0000
0000
0000
;

//--------------- dance-single - Alex ----------------
#NOTES:
     dance-single:
     Alex:
     Easy:
     3:
     0,0,0,0,0:
0000
0000
0000
0000
,
0000
0000
0000
0000
,
0000
0000
0000
0000
,
0000
0000
0000
0000
,
0000
0001
0000
0001
,
0000
1000
0000
1000
,
0000
0001
0000
0001
,
0000
1000
0000
1000
,
0000
0010
0000
0010
,
0000
0100
0000
0100
,
0000
0010
0000
0010
,
0000
0100
0000
0100
,
0000
0001
0000
1000
,
0000
0001
1000
0001
,
0000
1000
0000
0001
,
0000
1000
0100
1000
,
0000
0010
0000
0100
,
0000
0001
0010
0001
,
0000
1000
0000
0001
,
0000
1000
0100
1000
,
0000
0000
0001
0000
0000
0001
0000
0000
,
0001
0000
0000
0002
0000
0000
0000
0000
,
0003
0000
1000
0000
0000
1000
0000
0000
,
1000
0000
0000
2000
0000
0000
0000
0000
,
3000
0000
0010
0000
0000
0010
0000
0000
,
0010
0000
0000
0020
0000
0000
0000
0000
,
0030
0000
0100
0000
0000
0100
0000
0000
,
0100
0000
0000
0200
0000
0000
0000
0000
,
0300
0000
0010
0000
0000
0010
0000
0000
,
1000
0000
0000
2000
0000
0000
0000
0000
,
3000
0001
0000
1000
,
0000
0001
0000
1000
,
0000
0001
0100
0001
,
0000
1000
0001
1000
,
0000
1001
0000
1001
,
0000
2002
0000
3003
,
0000
0010
0100
0010
,
0000
0100
0010
0100
,
0000
0110
0000
0110
,
0000
0220
0000
0330
,
0000
1000
0001
1000
,
0000
0010
0000
0100
,
0000
0001
0100
0001
,
0000
0010
0000
0010
,
0010
0010
0000
1000
,
0000
0001
0100
0001
,
0000
1000
0000
0100
,
0000
1000
0100
1000
,
0000
0010
0000
1000
,
0000
0001
0010
0001
,
0000
1000
0000
0100
,
0000
1000
0100
1000
,
0000
0000
0001
0000
0000
0001
0000
0000
,
0001
0000
0000
0002
0000
0000
0000
0000
,
0003
0000
0010
0000
0000
0010
0000
0000
,
0010
0000
0000
0020
0000
0000
0000
0000
,
0030
0000
0100
0000
0000
0100
0000
0000
,
0100
0000
0000
0200
0000
0000
0000
0000
,
0300
0000
1000
0000
0000
1000
0000
0000
,
1000
0000
0000
2000
0000
0000
0000
0000
,
3000
0000
0010
0000
0000
0010
0000
0000
,
0100
0000
0000
0200
0000
0000
0000
0000
,
0300
1001
0000
1001
,
0000
2002
0000
3003
,
0000
0001
0000
1000
,
0000
0010
0100
0010
,
0000
1000
0000
0001
,
0000
1000
1000
1000
,
1000
0001
0000
0100
,
0000
0010
0100
0010
,
0000
0100
0000
0001
,
0000
0010
0001
0010
,
0000
1001
0000
0001
,
0000
1000
0010
1000
,
0000
0001
0000
0100
,
0000
0010
0010
0100
,
0200
0000
0000
0300
0000
0000
0000
0000
;

//--------------- dance-single - Alex ----------------
#NOTES:
     dance-single:
     Alex:
     Medium:
     6:
     0,0,0,0,0:
0000
0000
0000
0000
,
0000
0000
0000
0000
,
0000
0000
0000
0000
,
0000
0000
0000
0000
,
0000
0010
1000
0010
,
0010
1000
0001
0100
,
0010
1000
0001
0100
,
0100
0001
0010
0001
,
1000
0100
1000
0001
,
1001
1000
0010
1000
,
1001
0100
0010
1000
,
1001
0001
0100
0010
,
0110
0010
0010
1000
,
1000
0000
0001
0100
0001
0100
0001
0000
,
1000
0100
0010
0001
,
1000
0000
0010
1000
0010
1000
0010
0000
,
1000
0001
0001
1000
,
0100
0000
1000
0100
1000
0100
1000
0000
,
0001
0100
0010
0100
,
0001
0000
0010
0001
0010
0001
0010
0000
,
0001
0000
1001
0000
0000
0110
0000
0000
,
1010
0000
0000
0101
0000
0000
0001
1000
,
0001
0000
1001
0000
0000
0011
0000
0000
,
1100
0000
0000
0110
0000
0000
0001
0100
,
0001
0000
0110
0000
0000
1010
0000
0000
,
1100
0000
0000
0011
0000
0000
0001
1000
,
0001
0000
1001
0000
0000
0110
0000
0000
,
0011
0000
0000
1100
0000
0000
1000
0100
,
1000
0000
1100
0000
0000
0110
0000
0000
,
0011
0000
0000
1001
0000
0000
0001
0100
,
0001
0101
0100
0100
,
0100
0010
0010
0010
,
0010
1000
0010
1000
,
0001
0000
0100
0010
0100
0010
0200
0000
,
0000
0300
0001
0000
0010
0000
0100
0000
,
1000
0001
1000
2002
,
3003
0001
0100
0010
,
1000
0000
0100
1000
0100
1000
0200
0000
,
0300
1000
0010
1000
,
0001
0100
0001
2002
,
3003
0000
0001
1000
0001
1000
0002
0000
,
0003
0000
1000
0100
1000
0100
2000
0000
,
3000
0000
0010
0100
0010
0100
0020
0000
,
0030
0000
0100
0001
0100
0001
0200
0000
,
0300
0001
0010
0100
,
1000
0000
0001
1000
0001
1000
0001
0000
,
1000
0010
0100
0001
,
1000
0000
0100
1000
0100
1000
0100
0000
,
1000
1000
0001
0100
,
0010
0000
0100
0001
0100
0001
0100
0000
,
0001
0010
0100
0010
,
0001
0000
1000
0010
1000
0010
1000
0000
,
0001
0000
1001
0000
0000
0011
0000
0000
,
1100
0000
0000
0110
0000
0000
0001
0100
,
0001
0000
0101
0000
0000
1010
0000
0000
,
1001
0000
0000
0110
0000
0000
0010
0100
,
0010
0000
0101
0000
0000
0011
0000
0000
,
1001
0000
0000
1100
0000
0000
1000
0010
,
1000
0000
1010
0000
0000
0101
0000
0000
,
0011
0000
0000
0011
0000
0000
0001
0100
,
0001
0000
0101
0000
0000
0110
0000
0000
,
1010
0000
0000
1001
0000
0000
0001
1000
,
0001
1000
1000
1000
,
1000
0001
0001
0001
,
0001
1001
1000
0010
,
1000
0000
0001
0100
0001
0100
0001
0000
,
0100
0010
1000
0100
,
0010
0000
0001
1000
0001
1000
0001
0000
,
1000
0010
1000
0001
,
0010
0000
0001
0100
0001
0100
0001
0000
,
0100
0010
1000
0100
,
0010
0000
0100
1000
0100
1000
0100
0000
,
1000
1001
0001
0100
,
0010
0000
1000
0010
1000
0010
1000
0000
,
0001
0010
0001
0100
,
0010
0000
0100
0001
0100
0001
0100
0000
,
2002
0000
0000
3003
0000
0000
0000
0000
;

//--------------- dance-single - Alex ----------------
#NOTES:
     dance-single:
     Alex:
     Hard:
     9:
     0,0,0,0,0:
0000
0000
0000
0000
,
0000
0000
0000
0000
,
0000
0000
0000
0000
,
0000
0000
0000
0000
,
0000
0000
0001
1000
0010
0100
0001
0000
,
1000
0000
0001
1000
0100
1000
0001
0000
,
0100
0000
0010
1000
0100
0010
0100
0000
,
1000
0000
0001
0100
0010
0100
0001
0000
,
1000
0000
0001
0010
0100
1000
0001
0000
,
1001
0000
0001
0001
1000
0100
1000
0000
,
1010
0000
0010
1000
0100
1000
0001
0000
,
1001
0000
0010
1000
0001
0010
0001
0000
,
0011
0000
0001
0100
0010
0100
0001
0100
,
0010
0100
0001
0010
0100
1000
0002
0000
,
2003
0000
3010
0100
0001
0100
0010
1000
,
0100
0010
0100
1000
0001
0100
0020
0000
,
2030
0000
3001
0001
1000
0100
1000
0010
,
0010
1000
0001
0010
0100
1000
0002
0000
,
2003
0000
3001
0010
0001
0100
0010
0100
,
0001
0010
0100
1000
0001
0100
0020
0000
,
2030
0000
3100
1000
0000
1000
0100
0000
,
1000
0010
0000
0010
1000
0000
0001
0100
,
0010
0100
0001
1000
0000
1000
0001
0000
,
0001
0010
0000
0010
0001
0000
1000
0001
,
0100
0010
0100
0001
0000
0001
1000
0000
,
1000
0100
0000
0100
1000
0000
0010
1000
,
0010
1000
0001
1000
0000
0010
0100
0000
,
0001
0100
0000
0001
1000
0000
0001
0010
,
0100
1000
0001
1000
0000
1000
0010
0000
,
0010
0100
0000
0100
0001
0000
0001
1000
,
0100
0010
0001
0000
0001
0000
1000
0000
,
1000
0010
0010
0110
,
0110
0000
0001
0000
0010
0001
0010
0000
,
0001
0001
1000
0010
0100
0001
2000
0000
,
3000
0000
0001
0010
0100
1000
0001
1000
,
0010
0100
0001
1000
0100
0000
2200
0000
,
3300
0000
1000
0000
0010
1000
0010
0000
,
1000
0001
0010
0100
1000
0001
2000
0000
,
3000
0000
0001
0100
0010
0100
0001
0010
,
0100
0010
0001
1000
0010
0000
2002
0000
,
3003
0000
0001
1000
0001
1000
0001
0000
,
0001
0000
1000
0010
1000
0010
1000
0000
,
1000
0000
0001
0010
0001
0010
0001
0000
,
0001
0000
0100
0010
0100
0010
0100
0000
,
0100
0000
0010
1000
0100
0010
0100
1000
,
0001
0100
0010
0100
0001
1000
0020
0000
,
2030
0000
3001
0010
0001
1000
0100
1000
,
0010
1000
0001
0100
0010
0100
0002
0000
,
0023
0000
0031
0001
0100
0010
0100
0001
,
1000
0100
1000
0001
1000
0010
0020
0000
,
0230
0000
0301
0001
1000
0100
1000
0001
,
0100
0010
0100
0001
0010
0100
2000
0000
,
3020
0000
1030
0010
0000
0010
1000
0000
,
1000
0001
0000
0001
0100
0000
0010
0100
,
0001
0100
0010
1000
0000
1000
0001
0000
,
0001
0010
0000
0010
0001
0000
0001
1000
,
0100
1000
0010
0100
0000
0001
0100
0000
,
0010
1000
0000
0100
0010
0000
0001
1000
,
0001
0100
0001
1000
0000
1000
0001
0000
,
0100
0010
0000
0010
0100
0000
0001
0010
,
0100
1000
0001
1000
0000
1000
0010
0000
,
0010
0100
0000
0100
0001
0000
0001
1000
,
0100
1000
0001
0000
1000
0000
0001
0000
,
0001
1000
0010
1010
,
1010
0000
0010
1000
0100
1000
0010
1000
,
0100
0010
0001
0100
0010
1000
1001
0000
,
0110
0000
0010
0100
0001
0100
0010
0100
,
0001
0010
0100
1000
0001
0100
0001
1000
,
0010
1000
0001
0010
0100
1000
0001
1000
,
0010
1000
0100
0010
0001
0100
0101
0000
,
0110
0000
0010
1000
0010
0100
0010
1000
,
0001
0010
0100
1000
0001
1000
1001
0000
,
0110
0000
0010
0100
0001
0100
0010
1000
,
0100
0010
0100
1000
0001
1000
1001
0000
,
0110
0000
0010
1000
0100
0010
0001
0100
,
0010
0100
0001
0010
0100
1000
1001
0000
,
0220
0000
0000
0330
0000
0000
0000
0000
;
