#TITLE:Mexi Mexi;
#SUBTITLE:;
#ARTIST:Mozquito;
#TITLETRANSLIT:;
#SUBTITLETRANSLIT:;
#ARTISTTRANSLIT:;
#GENRE:;
#CREDIT:;
#MUSIC:Mexi Mexi.ogg;
#BANNER:Mexi Mexi.png;
#BACKGROUND:Mexi Mexi-BG.png;
#CDTITLE:;
#SAMPLESTART:34.877;
#SAMPLELENGTH:13.333;
#SELECTABLE:YES;
#OFFSET:-0.149;
#BPMS:0.000=138.000;
#STOPS:;
#BGCHANGES:;
#FGCHANGES:;

//--------------- dance-single - Alex ----------------
#NOTES:
     dance-single:
     Alex:
     Beginner:
     1:
     0,0,0,0,0:
0000
0000
0000
0000
,
0000
0000
0000
0000
,
0000
0000
0000
0000
,
0000
0000
0000
0000
,
0001
0000
0000
0000
,
0010
0000
0000
0000
,
0001
0000
0000
0000
,
1000
0000
0000
0000
,
1000
0000
0000
0000
,
0010
0000
0000
0000
,
1000
0000
0000
0000
,
0002
0000
0003
0000
,
1000
0000
0000
0000
,
0100
0000
0000
0000
,
1000
0000
0000
0000
,
0001
0000
0001
0000
,
0001
0000
0000
0000
,
1000
0000
0000
0000
,
0010
0000
0000
0000
,
0100
0000
0100
0000
,
0100
0000
0000
0000
,
0010
0000
0000
0000
,
0010
0000
0000
0000
,
1000
0000
0000
0000
,
1000
0000
0000
0000
,
0010
0000
0000
0000
,
0001
0000
0000
0000
,
0100
0000
0000
0000
,
0020
0000
0030
0000
,
1000
0000
0000
0000
,
0002
0000
0003
0000
,
0001
0000
0000
0000
,
2000
0000
3000
0000
,
0100
0000
0000
0000
,
0200
0000
0300
0000
,
0010
0000
0000
0000
,
0001
0000
0001
0000
,
0001
0000
0000
0000
,
1000
0000
1000
0000
,
1000
0000
0000
0000
,
0010
0000
0000
0000
,
1000
0000
0000
0000
,
0001
0000
0000
0000
,
1000
0000
1000
0000
,
1000
0000
0000
0000
,
0010
0000
0000
0000
,
0100
0000
0000
0000
,
0001
0000
0001
0000
,
0001
0000
0000
0000
,
1000
0000
0000
0000
,
0001
0000
0000
0000
,
0100
0000
0000
0000
,
0010
0000
0000
0000
,
0010
0000
0000
0000
,
1000
0000
0000
0000
,
0002
0000
0000
0000
0000
0000
0000
0003
;

//--------------- dance-single - Alex ----------------
#NOTES:
     dance-single:
     Alex:
     Easy:
     3:
     0,0,0,0,0:
0000
0000
0000
0000
,
0000
0000
0000
0000
,
0000
0000
0000
0000
,
0000
0000
0000
0000
,
1000
0001
1000
0000
,
0001
0000
0100
0000
,
0010
0100
0010
0000
,
1000
0000
1000
0000
,
0001
0010
0001
0000
,
0100
0000
0100
0000
,
0001
1000
0100
0000
,
2002
0000
3003
0000
,
0000
0001
0001
0001
,
0000
0100
0100
0100
,
0000
0010
0000
0010
,
0000
1000
0000
1000
,
0000
0001
0001
0001
,
0000
1000
1000
1000
,
0000
0010
0010
0010
,
0200
0000
0300
0000
,
1001
0000
1001
0000
,
0001
1000
0001
0000
,
1001
0000
1001
0000
,
1000
0001
1000
0000
,
0110
0000
0110
0000
,
0100
0010
0100
0000
,
0110
0000
0110
0000
,
0010
0010
0100
0100
,
0010
0000
0010
0000
,
1000
0000
1000
0000
,
0001
0000
0001
0000
,
1000
1000
1000
0000
,
0001
0000
0100
0000
,
0010
0000
0010
0000
,
1000
0000
0001
0000
,
0010
0010
0010
0000
,
1001
0000
0000
0000
,
1001
0000
0000
0000
,
0110
0000
0000
0000
,
0220
0000
0330
0000
,
1000
1000
1000
0000
,
0001
0000
1000
0000
,
0010
0010
0010
0000
,
0100
0000
0100
0000
,
0001
0001
0001
0000
,
1000
0000
0001
0000
,
1000
1000
1000
0000
,
2002
0000
3003
0000
,
1001
0000
1001
0000
,
0100
0100
0010
0000
,
1001
0000
1001
0000
,
0001
1000
0001
0000
,
0110
0000
0110
0000
,
0010
0100
0010
0000
,
0110
0000
0110
0000
,
0000
1000
0001
1000
,
0001
0000
0000
0000
;

//--------------- dance-single - Alex ----------------
#NOTES:
     dance-single:
     Alex:
     Medium:
     5:
     0,0,0,0,0:
0000
0000
0000
0000
,
0000
0000
0000
0000
,
0000
0000
0000
0000
,
0010
0010
0010
0010
,
1001
1000
0001
0100
,
0010
1000
0200
0300
,
1000
0001
0100
0010
,
0100
0001
0020
0030
,
0001
1000
0010
1000
,
0001
0001
2000
3000
,
0001
0010
0100
1000
,
2002
0000
0000
3003
,
0001
1000
0010
1010
,
0000
1000
0001
0011
,
0000
0001
0100
0010
,
0100
0000
0001
0000
1000
0000
0100
1000
,
0100
1000
0010
1010
,
0000
1000
0001
0101
,
0000
0100
0010
0100
,
2002
0000
0000
3003
,
0001
1000
0010
1010
,
0000
1000
0001
0100
,
0100
0001
1000
1100
,
0000
1000
0001
0001
,
0100
0010
0100
0101
,
0000
0001
0001
1000
,
0010
1000
0001
1001
,
0000
0100
0100
0100
,
0001
1000
0010
0010
,
0100
0000
0001
1000
0000
0100
0000
0010
,
0000
0001
0000
1000
0010
0000
1000
0000
,
0001
0000
0010
0001
0010
0000
0001
0000
,
0100
0010
0100
0001
,
1000
0000
0100
1000
0000
0001
0000
0100
,
0000
0100
0000
0001
1000
0000
0010
0000
,
0100
0000
0001
1000
0001
0000
1000
0000
,
2002
3003
0220
0330
,
2002
3003
0001
1000
,
2200
3300
0022
0033
,
2200
3300
1001
0000
,
0001
0100
0010
0100
,
0001
1000
0020
0030
,
1000
0001
0010
0100
,
1000
1000
0002
0003
,
1000
0001
0001
0100
,
0010
0100
0002
0003
,
1000
0100
0010
0001
,
2002
0000
0000
3003
,
0001
1000
0010
1010
,
0000
1000
1000
1000
,
0001
0100
0001
0011
,
0000
0100
0100
0100
,
0010
1000
0001
0011
,
0000
0001
1000
0001
,
0100
0100
0010
1010
,
0000
0000
1000
0000
0001
0000
0100
0020
,
0000
0030
0000
0000
;

//--------------- dance-single - Alex ----------------
#NOTES:
     dance-single:
     Alex:
     Hard:
     9:
     0,0,0,0,0:
0000
0000
0000
0000
,
0000
0000
0000
0000
,
0000
0000
0000
0000
,
1001
0110
1001
0110
,
0010
1000
0010
0100
0010
1000
0001
0010
,
0100
1000
0001
0100
0010
0000
0110
0000
,
0010
0100
0001
0100
0001
1000
0001
1000
,
0010
1000
0001
0010
0001
0000
1001
0000
,
0001
1000
0100
1000
0001
0100
0001
0010
,
0100
1000
0001
0100
0010
0000
1010
0000
,
1000
1000
0001
0001
0100
0010
0100
0001
,
0040
0400
0000
0000
0000
0000
0000
0000
0000
0000
0000
0000
0330
0000
0000
0000
,
0010
0001
0100
0010
0100
0000
1001
0000
,
0001
1000
0100
1000
0001
0000
1001
0000
,
0001
1000
0010
1000
0001
0010
0001
0100
,
0010
0000
0100
0000
0001
0000
1000
0100
,
0010
0001
0001
0100
0010
0000
1001
0000
,
0001
1000
0010
0100
0001
0000
1001
0000
,
1000
0100
1000
0010
1000
0001
0100
0010
,
4000
0004
0000
0000
0000
0000
0000
0000
0000
0000
0000
0000
3003
0000
0000
0000
,
0001
1000
0010
0100
0000
0001
1001
0000
,
0000
0001
0010
0100
1000
0000
0001
0000
,
0100
0010
0100
0001
0000
1000
1010
0000
,
0000
0010
1000
0010
0100
0000
0001
0010
,
0100
1000
0001
0100
0000
0001
1001
0000
,
0000
0001
0010
0001
1000
0000
0010
0000
,
0100
0001
0010
0001
0000
1000
1100
0000
,
0000
0010
0001
0100
0010
0100
0001
1000
,
0000
0010
0000
0100
0001
0000
1000
0000
,
0010
0000
1000
0001
0000
0011
0000
0101
,
0000
0100
0000
0010
1000
0000
0100
0000
,
1000
0000
0010
1000
0001
0000
1000
0010
,
0000
1010
0000
1000
0001
0000
0010
0000
,
0001
0000
0100
0010
0000
0100
0000
0101
,
0000
0001
0000
0001
1000
0000
0010
0000
,
0100
0000
0001
1000
0010
0000
1001
0000
,
0001
1000
0100
1000
0002
0003
0100
0010
,
2000
0000
3000
0000
0001
0000
0010
0000
0001
0010
0001
0010
0002
0000
0003
0000
,
0100
0010
0100
0001
2000
3000
0001
1000
,
0020
0000
0030
0000
0100
0000
0001
0000
1000
0100
1000
0100
2000
0000
3000
0000
,
0001
1000
0010
1000
0001
0010
0001
0100
,
0010
0100
0001
0010
0001
0000
0101
0000
,
0001
0001
0100
0010
0100
0001
1000
0100
,
0010
0001
1000
0010
0100
0000
0001
1000
,
0010
0010
1000
0001
0010
0001
0100
0010
,
0100
0001
1000
0100
1000
0000
1100
0000
,
1000
0010
1000
0001
0100
0010
1000
0001
,
2002
0000
0000
0000
0000
3003
0000
0000
,
0001
1000
0010
0100
0000
0001
0101
0000
,
0000
0100
0010
0100
0001
0000
1000
0000
,
0001
1000
0010
1000
0000
0001
1001
0000
,
0000
0001
1000
0100
0010
0000
0001
0100
,
0010
0100
0001
1000
0000
0001
1001
0000
,
0000
0001
1000
0010
1000
0000
0001
0000
,
0010
0001
0100
0010
0000
0100
0101
0000
,
0000
0001
1000
0100
0010
0001
1000
0020
,
0000
0030
0000
0000
0000
0000
0000
0000
;
