#TITLE:Lucid(PIU Edit);
#SUBTITLE:;
#ARTIST:Yak Won;
#TITLETRANSLIT:;
#SUBTITLETRANSLIT:;
#ARTISTTRANSLIT:;
#GENRE:;
#CREDIT:;
#MUSIC:Lucid(PIU Edit).ogg;
#BANNER:Lucid(PIU Edit).png;
#BACKGROUND:Lucid(PIU Edit)-BG.png;
#CDTITLE:;
#SAMPLESTART:11.394;
#SAMPLELENGTH:14.451;
#SELECTABLE:YES;
#OFFSET:-0.152;
#BPMS:0.000=160.000
,16.000=150.000
,18.000=130.000
,20.000=120.000
,21.000=105.000
,22.000=95.000
,23.000=70.000
,24.000=180.000
,108.000=90.000
,122.000=180.000
,174.000=170.000
,176.000=165.000
,178.000=160.000
,180.000=155.000
,182.000=150.000
,184.000=145.000
,186.000=140.000
,187.000=135.000
,188.000=120.000
,189.000=100.000
,189.500=70.000
,189.750=45.000
,190.000=140.000
,192.000=150.000
,194.000=155.000
,196.000=160.000
,198.000=165.000
,202.000=170.000
,206.000=175.000
,210.000=180.000
,214.000=185.000
,218.000=190.000
;
#STOPS:;
#BGCHANGES:;
#FGCHANGES:;

//--------------- dance-single - Alex ----------------
#NOTES:
     dance-single:
     Alex:
     Beginner:
     2:
     0,0,0,0,0:
0000
0000
0000
0000
,
0000
0000
0000
0000
,
0000
0000
0000
0000
,
0000
0000
0000
0000
,
0100
0000
0000
0000
,
0010
0000
0010
0000
,
0010
0000
0000
0000
,
1001
0000
0000
0000
,
0001
0000
1000
0000
,
0001
0000
0000
0000
,
1000
0000
0100
0000
,
1000
0000
0000
0000
,
0010
0000
0000
0000
,
1000
0000
0000
0000
,
0001
0000
0001
0000
,
0100
0000
0000
0000
,
0010
0000
0000
0000
,
0100
0000
0000
0000
,
0001
0000
0001
0000
,
0001
0000
0000
0000
,
1000
0000
0000
0000
,
0010
0000
0000
0000
,
0100
0000
0000
0000
,
0010
0000
0010
0000
,
0010
0000
0000
0000
,
1000
0000
1000
0000
,
1000
0000
0000
0000
,
1001
0000
0001
0000
,
1000
0000
0010
0000
,
0100
0000
0100
0000
,
0010
0000
0010
0000
,
0000
0000
1001
0000
,
0000
0000
0001
0000
,
0001
0000
0001
0000
,
0000
0000
0100
0000
,
0100
0000
0010
0000
,
0000
0000
1000
0000
,
0010
0000
1000
0000
,
0000
0000
0001
0000
,
0000
0000
0110
0000
,
0000
0000
0010
0000
,
0000
0000
0100
0000
,
0000
0000
0001
0000
,
1000
0000
0001
0000
,
0000
0000
1000
0000
,
0000
0000
0001
0000
,
0000
0000
1000
0000
,
0000
0000
1001
0000
,
0000
0000
0010
0000
,
0000
0000
1000
0000
,
0000
0000
0100
0000
,
0000
0000
1000
0000
,
0000
0000
1000
0000
,
0000
0000
0001
0000
,
0000
0000
0001
0000
,
0100
0000
0001
0000
,
0000
0000
1000
0000
,
0000
0000
0010
0000
,
0000
0000
0100
0000
,
0100
0000
0100
0000
,
0000
0000
0010
0000
,
0000
0000
0010
0000
,
0000
0000
1000
0000
,
0000
0000
0001
0000
,
0001
0000
0001
0000
,
0000
0000
1000
0000
,
1000
0000
1000
0000
,
0000
0000
0010
0000
,
0100
0000
0010
0000
,
0100
0000
0010
0000
,
0000
0000
0100
0000
,
0000
0000
1001
0000
;

//--------------- dance-single - Alex ----------------
#NOTES:
     dance-single:
     Alex:
     Easy:
     4:
     0,0,0,0,0:
0000
0000
0000
0000
,
0000
0000
0000
0000
,
0000
0000
0000
0000
,
0000
0000
0000
0000
,
1001
0000
0000
0000
,
0001
1000
0010
0100
,
1001
0000
0000
0001
,
0200
0300
0020
0030
,
1000
0001
1000
0001
,
0020
0030
0002
0003
,
0200
0300
0100
0100
,
1001
0000
0001
0000
,
1000
0000
0010
0000
,
0100
0000
0001
0000
,
1000
1000
0001
0001
,
0020
0000
0031
0000
,
0002
0000
0103
0000
,
2000
0000
3100
0000
,
0020
0000
0100
0130
,
0002
0000
0103
0000
,
2000
0000
3001
0000
,
0020
0000
0130
0000
,
0200
0000
0301
0000
,
1001
0000
0001
0000
,
1000
0000
0010
0000
,
0100
0000
0100
0000
,
0001
0001
0100
0100
,
0010
1000
0100
0010
,
0002
0003
0100
0100
,
0020
0030
2000
3000
,
0002
0003
2002
0000
,
3003
0001
0200
0300
,
0020
0030
1000
1000
,
0001
0001
0020
0030
,
0002
0003
0200
0300
,
1001
1001
0020
0030
,
2000
3000
0001
0001
,
0100
0100
0002
0003
,
2000
3000
0200
0300
,
0001
0001
1001
0000
,
1000
0000
0010
0000
,
1000
0000
0001
0000
,
0100
0000
0010
0010
,
0100
0100
0001
0000
,
0001
0000
0001
0000
,
0001
0000
1000
0000
,
1000
0000
1000
0000
,
1000
1000
0010
0000
,
0010
0000
0100
0000
,
0100
0000
0001
0000
,
1000
0000
0001
0000
,
0001
0000
0100
0000
,
0010
0000
0010
0000
,
1000
0000
0100
0000
,
1000
0000
1000
1000
,
0001
0001
0010
0000
,
0001
0100
0020
0030
,
2000
3000
0002
0000
,
0003
0000
0100
0100
,
0001
0001
0010
0000
,
0001
0100
0002
0003
,
2000
3000
0020
0000
,
0030
0100
0200
0000
,
0300
0000
1001
0000
,
0001
0000
0100
0000
,
0010
1000
1010
0000
,
0010
0000
1000
0000
,
0001
0010
0011
0000
,
0001
0000
0100
0100
,
0010
0010
2000
0000
,
3000
0000
0002
0000
,
0003
0000
0200
0000
,
0000
0000
0000
0000
,
0000
0000
0000
0000
,
0300
0000
0000
0000
;

//--------------- dance-single - Alex ----------------
#NOTES:
     dance-single:
     Alex:
     Medium:
     6:
     0,0,0,0,0:
0000
0000
0000
0000
,
0000
0000
0000
0000
,
0000
0000
0000
0000
,
0000
0000
0000
0000
,
0020
0000
0030
1000
,
0001
0000
0100
0000
0010
0000
2000
3000
,
2002
0000
0000
0000
3003
0000
0001
1000
,
0020
0000
0100
0130
,
0001
0010
0100
0010
,
0012
0000
1000
1003
,
0200
0000
0000
0300
1001
0000
0110
0000
,
0010
1000
0001
0010
,
0100
1000
0001
0100
,
0010
0100
0001
1000
,
0001
1000
0001
1000
0001
0000
1001
0000
,
0002
0100
0100
0103
,
2000
0010
0010
3010
,
0200
0010
0010
0310
,
0002
0010
0010
0013
,
2001
0100
0100
3100
,
0120
0100
0100
0130
,
0012
0010
0010
0013
,
0201
0010
0010
0310
,
1000
0010
0001
0010
,
1000
0100
0001
0100
,
1000
0010
0100
0001
,
1000
0001
1000
0001
1000
0000
0001
0000
,
1002
0003
0100
0010
2000
3000
0002
0003
,
0020
0000
0030
0000
0001
0100
0010
1000
,
0200
0300
1000
0010
2000
3000
0002
0003
,
0200
0000
0300
0010
2002
0000
0000
0000
,
3003
0000
0001
1000
0200
0000
0000
0000
,
1000
1300
0001
0100
,
0010
0100
0002
0000
,
1000
1003
2000
3000
,
1001
0110
0020
0000
,
0100
0130
0001
1000
,
0100
1000
0002
0000
,
1000
1003
0020
0030
,
0110
0110
0010
1000
,
0001
0010
0001
1000
,
0010
0100
0001
0010
,
0100
0000
1000
0000
0010
0100
0010
0100
,
0010
1001
0001
1000
,
0001
1000
0001
1000
,
0001
1000
0001
1000
,
0001
1000
0001
1000
,
0001
1000
1001
0110
,
0010
1000
1001
1001
,
0001
0010
0011
0011
,
0001
0100
0101
0101
,
0100
0010
1010
1010
,
1000
0001
1001
1001
,
0001
0100
0110
0110
,
0100
0100
1001
1001
,
0010
0100
0020
0030
,
1000
0001
0020
0030
,
0002
0003
0200
0000
,
0000
0000
0300
0000
0002
0003
0200
0300
,
0020
0030
0200
0300
0002
0000
0003
0000
,
2000
3000
0200
0300
2000
0000
0000
3000
,
0020
0000
0000
0030
0200
0000
0000
0300
,
0002
0000
0000
0003
2002
0000
0000
0000
,
3003
0000
1001
0001
,
0100
0010
0100
0001
,
1000
0100
1100
1000
,
0010
0100
0001
0010
,
0001
1000
1001
0001
,
0100
0010
0110
0100
,
0001
1001
0220
0000
,
0000
0330
0022
0000
,
0000
0033
2002
0000
,
0000
0000
0000
0000
,
0000
0000
0000
0000
,
3003
0000
0000
0000
;

//--------------- dance-single - Alex ----------------
#NOTES:
     dance-single:
     Alex:
     Hard:
     9:
     0,0,0,0,0:
0000
0000
0000
0000
,
0000
0000
0000
0000
,
0000
0000
0000
0000
,
0000
0000
0000
0000
,
2001
0000
3000
0000
,
0001
0100
0010
0100
,
2002
0000
0000
0000
3003
0000
0001
1000
,
0200
0000
0300
1000
0001
0000
0101
0000
,
0100
0000
0000
0001
0000
0000
0100
0000
0010
0000
0000
0000
0110
0000
0000
0000
,
0020
0000
0030
1000
0001
0000
0011
0000
,
0001
2000
0000
3000
1001
0000
0110
0000
,
0010
1000
0100
0010
0001
0100
0010
0100
,
0001
0010
0001
1000
0010
1000
0001
1000
,
0100
1000
0001
0100
0010
0100
0001
0010
,
0100
1000
0001
0100
0010
0000
1001
0000
,
0002
0000
0103
0000
0010
1000
0100
1000
,
0020
0000
1030
0000
1000
0001
0010
0001
,
2000
0000
3001
0000
0001
0100
0010
0100
,
0002
0000
0013
0000
0100
1000
0010
1000
,
0002
0000
1003
0000
1000
0001
0100
0001
,
2000
0000
3010
0000
0010
0100
0001
0010
,
0002
0000
0103
0000
0100
0001
1000
0010
,
0200
0000
0310
0000
1000
0010
0100
0001
,
0010
0010
0001
0001
1000
1000
0010
0010
,
1000
0001
0010
0100
1000
0001
0100
0010
,
0100
0100
0001
0001
1000
0100
0010
0100
,
1000
0001
0100
0010
0100
0000
0001
0000
,
1002
0003
0100
0010
2000
3000
0002
0003
,
0020
0000
0000
0030
0001
0100
0010
0100
,
0002
0003
1000
0100
0020
0030
0002
0003
,
0200
0000
0300
0010
1000
0001
0200
0300
,
0001
0010
0100
1000
0020
0000
0030
1000
,
0010
0000
0000
0000
0110
0000
0000
0000
0010
0000
0000
1000
0000
0000
0100
0000
,
1000
0000
1001
0000
0002
0000
0003
1000
,
0001
0000
0011
0000
0001
2000
0000
3000
,
1100
0000
0011
0000
0200
0000
0300
0010
,
1000
0000
0000
0000
1010
0000
0000
0000
0010
0000
0000
1000
0000
0000
0001
0000
,
0010
0000
0011
0000
0002
0000
0003
0100
,
0010
0000
1010
0000
0010
2000
0000
3000
,
1010
0000
1001
0000
0001
1000
0010
0100
,
0001
1000
0010
1000
0001
0010
0100
1000
,
0001
0100
0010
0100
0001
0010
0100
1000
,
0100
1000
0010
0100
0001
0010
0100
0010
,
0002
0003
0200
0300
0010
0100
0010
0100
,
0010
0100
0010
0100
0010
0100
0010
0100
,
0010
0100
0010
0100
0010
0100
0010
0100
,
0010
0100
0010
0100
0010
0100
0010
0100
,
0010
0100
0010
0000
1001
0000
0110
0000
,
0010
0100
0001
0100
0010
0000
0110
0000
,
0010
1000
0100
1000
0010
0000
1010
0000
,
0010
1000
0001
1000
0010
0000
0110
0000
,
0100
0001
0010
0001
0100
0000
0001
0100
,
0010
0100
0001
0010
0100
0000
1000
0010
,
0100
0001
1000
0010
1000
0000
0001
0010
,
0001
1000
0010
0100
0001
0000
1000
0100
,
0010
0001
0100
0010
0120
0000
0000
0030
,
2000
3000
0002
0003
0020
0000
0000
0030
,
0002
0000
0000
0003
0200
0000
0000
0000
,
0000
0000
0000
0300
0020
0030
2000
3000
,
0200
0300
0020
0030
0002
0000
0000
0003
,
0200
0300
0002
0003
2000
0000
0000
3000
,
0020
0000
0000
0030
0200
0000
0000
0000
,
0000
0300
0010
0000
0020
0000
0000
0000
,
0030
0000
0000
0000
0001
0100
0010
1000
,
0100
0010
0001
1000
0010
1000
0001
0010
,
0001
0100
0001
0100
0010
1000
0010
0100
,
0001
0010
0100
0010
0001
0100
0010
0100
,
0001
1000
0100
0010
0001
0001
1000
1000
,
0010
0010
0100
0100
0001
0010
0100
1000
,
1100
0011
0220
0000
,
0330
0000
2200
0000
,
3300
0000
2002
0000
,
0000
0000
0000
0000
,
0000
0000
0000
0000
,
3003
0000
0000
0000
;

//--------------- dance-single - Alex ----------------
#NOTES:
     dance-single:
     Alex:
     Challenge:
     13:
     0,0,0,0,0:
0000
0000
0000
0000
,
0000
0000
0000
0000
,
0000
0000
0000
0000
,
0000
0000
0000
0000
,
2002
0000
0000
0000
0000
0000
0000
3003
,
0002
0000
0000
0203
0000
0000
0320
0000
0000
2030
0000
3000
,
1001
0000
0110
0000
0010
0100
0001
0100
0010
0000
0110
0000
0010
1000
0100
0010
,
0002
0000
0000
0000
0000
0003
0100
0010
0100
0000
0000
0000
1001
0000
0000
0000
,
0001
0000
0000
0100
0000
0000
0010
0000
1010
0000
0000
0000
1100
0000
0000
0000
,
0022
0000
0000
0000
0033
0000
0001
0100
0010
0000
0000
0000
0110
0000
0000
0000
,
0010
1000
0200
0000
0000
0000
0300
0000
1100
0000
0000
0000
0011
0000
0000
0000
,
0001
0100
0010
0100
0001
0010
0100
1000
0001
0100
0010
1000
0100
0010
0100
1000
,
0001
0100
0010
0100
0001
0010
0001
1000
0010
1000
0001
0100
0010
1000
0100
0010
,
0001
0100
0010
0100
0001
0010
0100
1000
0001
0100
0010
1000
0100
0010
0001
0100
,
0010
0100
0001
0010
0100
1000
0010
1000
0001
0000
0000
0000
1001
0000
0000
0000
,
0002
0000
0000
0000
1003
0000
0000
0000
1000
0100
0010
0001
1000
0010
0100
0001
,
0020
0000
0000
0000
0130
0000
0000
0000
1000
0010
1000
0010
0100
0001
0100
0001
,
0020
0000
0000
0000
0031
0000
0000
0000
0001
0100
0010
0100
0001
0010
0100
1000
,
0020
0000
0000
0000
0130
0000
0000
0000
0001
1000
0100
1000
0001
0100
0001
1000
,
0020
0000
0000
0000
1030
0000
0000
0000
1000
0001
0010
0001
1000
0010
1000
0001
,
0200
0000
0000
0000
0301
0000
0000
0000
0001
0010
0100
0010
0001
0100
0010
0100
,
0020
0000
0000
0000
1030
0000
0000
0000
1000
0100
0010
0100
1000
0001
0100
0010
,
0200
0000
0000
0000
0301
0000
0000
0000
1000
0001
0010
0001
1000
0010
1000
0001
,
0100
0100
0010
0010
1000
1000
0001
0001
,
0010
0000
0010
0000
0001
0000
0001
0000
1000
0010
1000
0010
0100
0001
0100
0001
,
0010
0001
0010
0001
0100
0001
0100
0010
0100
0001
0010
0100
1000
0010
0100
0001
,
0100
0010
1000
0100
0010
0100
1000
0001
0100
0000
0000
0000
1001
0000
0000
0000
,
0002
0000
0000
0000
0203
0300
0020
0030
2000
0000
0000
0000
3200
0000
0000
0000
,
0320
0000
0000
0000
0000
0000
0000
0030
0002
0003
0200
0300
0020
0030
0200
0300
,
0002
0000
0000
0003
0020
0030
0002
0003
0200
0000
0000
0300
0020
0000
0000
0030
,
2000
0000
0000
0000
0000
3000
0002
0003
0110
0000
1001
0000
0001
0100
0010
0100
,
0001
0000
0101
0000
0001
1000
0100
1000
0020
0000
0000
0000
0030
0000
0100
0001
,
1000
0000
0000
0000
1001
0000
0000
0000
0001
0000
0000
0100
0000
0000
0010
0000
,
0110
0000
0000
0000
0101
0000
0000
0000
0022
0000
0000
0000
0033
0000
0001
0100
,
0010
0000
0000
0000
0110
0000
0000
0000
0010
1000
0200
0000
0000
0000
0300
0000
,
1100
0000
0000
0000
0011
0000
0000
0000
2000
0000
0000
0000
3000
0000
0001
1000
,
0010
0000
0000
0000
1010
0000
0000
0000
0010
0000
0000
1000
0000
0000
0001
0000
,
0101
0000
0000
0000
0110
0000
0000
0000
2002
0000
0000
0000
3003
0000
0001
1000
,
0020
0000
0000
0030
0101
0000
0000
0000
0001
0010
0002
0000
0000
0000
0003
0000
,
0101
0000
0000
0000
0110
0000
0000
0000
0010
1000
0100
1000
0010
0100
0001
0010
,
0100
1000
0010
0100
0001
0010
0100
0010
0001
0100
0010
0100
0001
0100
0001
1000
,
0010
1000
0001
0010
0100
1000
0010
0100
0001
0010
0001
1000
0010
1000
0001
1000
,
0100
0010
0100
1000
0001
0100
0010
0100
0001
0010
0100
1000
0010
0100
0001
1000
,
0010
0000
0000
0000
1001
0000
0000
0000
0001
1000
0001
1000
0001
1000
0001
1000
,
0001
1000
0001
1000
0001
1000
0001
1000
0001
1000
0001
1000
0001
1000
0001
1000
,
0001
1000
0001
1000
0001
1000
0001
1000
0001
1000
0001
1000
0001
1000
0001
1000
,
0001
1000
0001
1000
0001
1000
0001
1000
0001
1000
0001
1000
0001
1000
0001
1000
,
0001
1000
0001
1000
0001
1000
0001
1000
1001
0000
0000
0000
0110
0000
0000
0000
,
0010
1000
0100
1000
1010
0000
0101
0000
,
0001
0010
0100
0010
0011
0000
0101
0000
,
0001
0100
0010
0100
0101
0000
1010
0000
,
0010
1000
0001
1000
1001
0000
0001
0100
,
0010
1000
0100
1000
1010
0000
0010
0100
,
0001
0010
0001
0100
0101
0000
0001
0100
,
0010
0100
0001
1000
1001
0000
0001
0100
,
0010
0100
0001
1000
1100
1000
0010
0100
,
0101
0001
1001
1000
1010
0010
0100
0001
,
0011
0001
0100
0010
0110
0010
1000
0100
,
0010
0001
0100
0010
0110
0100
0101
0001
,
1001
1000
1010
0010
0110
0100
0001
0010
,
0011
0001
0101
0100
0110
0010
1000
0001
,
1001
0001
1000
0100
1100
1000
0010
0100
,
0001
0010
0110
0100
1100
1000
0001
0100
,
0010
0000
1000
0000
0001
0000
1001
0000
0001
1000
0010
0100
0001
0010
0100
1000
,
0001
0100
0010
1000
0100
0010
0001
0100
0010
0100
0001
0010
0001
1000
0010
1000
,
0001
0100
0001
0010
0001
0100
0010
0100
0001
0010
0100
0010
0001
0100
0001
1000
,
0001
1000
0001
0100
0001
0100
0010
1000
0100
0010
0001
0100
0010
1000
0001
0010
,
0100
1000
0001
0100
0010
1000
0010
0100
0001
0010
0001
0100
0010
1000
0100
1000
,
0010
1000
0010
0100
0010
0100
0001
0100
0001
1000
0001
0010
0001
1000
0010
1000
,
1001
0110
2002
0000
,
3003
0000
0022
0000
,
0033
0000
2112
0000
,
0000
0000
0000
0000
,
0000
0000
0000
0000
,
3003
0000
0000
0000
;
