#TITLE:Lovely;
#SUBTITLE:;
#ARTIST:Kim Jong Kook;
#TITLETRANSLIT:;
#SUBTITLETRANSLIT:;
#ARTISTTRANSLIT:;
#GENRE:;
#CREDIT:;
#MUSIC:Lovely.ogg;
#BANNER:Lovely.png;
#BACKGROUND:Lovely-BG.png;
#CDTITLE:;
#SAMPLESTART:62.456;
#SAMPLELENGTH:13.896;
#SELECTABLE:YES;
#OFFSET:0.017;
#BPMS:0.000=188.000
,134.000=94.000
,149.000=188.000
,259.000=94.000
;
#STOPS:;
#BGCHANGES:;
#FGCHANGES:;

//--------------- dance-single - Alex ----------------
#NOTES:
     dance-single:
     Alex:
     Beginner:
     1:
     0,0,0,0,0:
0000
0000
0000
0000
,
0000
0000
0010
0000
,
0000
0000
1000
0000
,
0000
0000
0100
0000
,
0000
0000
1000
0000
,
0000
0000
0001
0000
,
0000
0000
1000
0000
,
0000
0000
0010
0000
,
0000
0000
1000
0000
,
0000
0000
0001
0000
,
0000
0000
0001
0000
,
0000
0000
1000
0000
,
0000
0000
0100
0000
,
0000
0000
1000
0000
,
0000
0000
0010
0000
,
0000
0000
2002
0000
,
0000
0000
3003
0000
,
0000
0000
1001
0000
,
0000
0000
0001
0000
,
0000
0000
1000
0000
,
0000
0000
0010
0000
,
0000
0000
1000
0000
,
0000
0000
0100
0000
,
0000
0000
1000
0000
,
0000
0000
0001
0000
,
0000
0000
0100
0000
,
0000
0000
0001
0000
,
0000
0000
1000
0000
,
0000
0000
1000
0000
,
0000
0000
0010
0000
,
0000
0000
0010
0000
,
0000
0000
0200
0000
,
0000
0000
0300
0000
,
0000
0000
0110
0000
,
0010
0000
1000
0000
,
0001
0000
0001
0000
,
1000
0000
0100
0000
,
1000
0000
0000
1001
,
0000
0000
0000
0010
,
0000
0000
0000
0010
,
0000
0000
0000
1000
,
0000
0000
0000
0001
,
0000
0000
0000
0001
,
0000
0000
0000
1000
,
0000
0000
0000
0220
,
0000
0330
0000
0100
,
0000
0000
0000
0010
,
0000
0000
0000
1000
,
0000
0000
0000
1000
,
0000
0000
0000
0001
,
0000
0000
0000
0001
,
0000
0000
0000
1000
,
0000
0000
0000
0010
,
0000
0000
0000
0100
,
0000
0000
0000
1000
,
0000
0000
0000
0001
,
0000
0000
0000
0001
,
0000
0000
0000
1000
,
0000
0000
0000
0010
,
0000
0000
0000
0220
,
0000
0000
0000
0330
,
0000
0000
0000
0100
,
0000
0000
0000
0001
,
0000
0000
0000
1000
,
0000
0000
0000
1001
,
0000
0000
0000
0010
,
0000
0000
0000
1000
0000
0000
0000
0000
,
0000
0000
0000
0000
0000
0000
0000
1001
0000
0000
0000
0000
;

//--------------- dance-single - Alex ----------------
#NOTES:
     dance-single:
     Alex:
     Easy:
     3:
     0,0,0,0,0:
0000
0000
0000
0000
,
0000
0000
0001
0000
,
1000
0000
0001
0000
,
0100
0000
0010
0100
,
0010
0100
0020
0000
,
0030
0000
1000
0000
,
0001
0000
0100
0000
,
0001
0000
1000
0100
,
1000
0100
2000
0000
,
3000
0000
0001
0000
,
1000
0000
0001
0000
,
0100
0000
0010
0000
,
0100
0000
0001
0000
,
0001
0000
1000
0100
,
1000
0000
2002
0000
,
3003
0000
0010
0010
,
0100
0100
0020
0000
,
0030
0000
2000
0000
,
3010
0000
0020
0000
,
1030
0000
2000
0000
,
3001
0000
0002
0000
,
0103
0000
0200
0000
,
0301
0000
0020
0000
,
0130
0000
2000
0000
,
3010
0000
0100
0100
,
0100
0100
0002
0000
,
0103
0000
0020
0000
,
1030
0000
2000
0000
,
3100
0000
2000
0000
,
3001
0000
0002
0000
,
0103
0000
0200
0000
,
0310
0000
0020
0000
,
0130
0000
2002
0000
,
3003
0000
0001
1000
,
0020
0030
0100
0001
,
2000
3000
0001
0010
,
0002
0003
1000
0100
,
2000
0000
3000
0001
,
0001
0001
0000
1000
,
1000
1000
0000
0010
,
0000
0010
0000
0200
,
0000
0300
0000
0001
,
0000
1000
0000
0001
,
0000
0100
0000
0010
,
0100
0010
0100
0020
,
0000
0030
0000
1000
,
0000
0001
0000
1000
,
0000
0001
0000
1000
,
0100
1000
0100
2000
,
0000
3000
0000
0001
,
0000
0100
0000
0010
,
0000
0010
0000
1000
,
0001
1000
0001
0020
,
0000
0030
0000
0001
,
0000
0100
0000
0001
,
0000
0001
0000
1000
,
0000
0010
0000
1000
,
0000
1000
0000
0010
,
1000
0010
0000
2020
,
0000
3030
0000
0010
,
0010
1000
1000
0200
,
0000
0300
0000
1000
,
0001
1000
0000
0001
,
1000
0001
0000
1000
,
0010
1000
0000
2002
,
0000
0000
3003
0020
,
0000
0000
0000
0030
0000
0000
0000
0000
0000
2000
0000
0000
0000
0000
0000
0000
0000
0000
0000
0000
0000
0000
3000
0000
,
0000
0000
0000
0000
0000
0000
0000
0002
0000
0000
0000
0000
,
0000
0000
0000
0000
0000
0000
0000
0003
0000
0000
0000
0000
;

//--------------- dance-single - Alex ----------------
#NOTES:
     dance-single:
     Alex:
     Medium:
     6:
     0,0,0,0,0:
0000
0000
0000
0000
,
0000
0000
0001
1000
,
0001
0100
0010
0010
,
1000
1000
0001
0010
,
0100
1000
0020
0000
,
0130
0000
0100
0001
,
0010
0100
0010
0010
,
0001
0001
1000
0010
,
1000
0001
0200
0000
,
0301
0000
0001
0001
,
0100
0010
1000
0000
,
1010
0000
1000
0001
,
1000
0001
0100
0000
,
0101
0000
0001
0100
,
0010
0000
0000
1000
0000
0000
0002
0000
0000
0000
0000
0000
0000
0000
0000
0000
,
0100
0103
0001
1000
,
0010
1000
2002
0000
,
3003
0000
0001
0100
,
0010
1000
0001
0010
,
0100
0010
0001
0100
,
0010
1000
0002
0000
,
0003
0000
0100
0100
,
0001
1000
0010
1000
,
0001
0001
0100
0010
,
1000
0100
0020
0000
,
0030
0000
0001
0100
,
0010
0100
0001
1000
,
0020
0000
1030
0001
,
1000
0100
2000
0000
,
3000
0000
0001
0100
,
0010
0100
0001
1000
,
0001
0000
0010
0000
0002
0000
0000
0003
,
2000
0000
0000
3000
0000
2002
0000
0000
0000
0000
0000
0000
,
3003
0000
0000
0000
0001
1000
0010
0000
,
0200
0300
0020
0030
1000
0001
0010
0000
,
0002
0003
0200
0300
0001
1000
0100
0000
,
2000
3000
0020
0030
1000
0010
1000
0000
,
0002
0003
2000
0000
3000
0000
0001
0000
,
0001
1000
1000
0010
,
0100
0001
0100
0010
,
1000
0100
0010
0002
,
0000
1003
0000
1000
,
0001
0100
0010
0010
,
1000
0001
1000
0100
,
1000
0000
0000
0010
0000
0000
0000
0000
2002
0000
0000
0000
,
0000
3003
0000
1000
,
1000
0001
0001
1000
,
0010
1000
0001
0100
,
0010
1000
0100
0020
,
0000
0031
0000
0001
,
0100
0001
0001
1000
,
0010
1000
0001
0100
,
0100
0010
1000
0200
,
0000
1300
0000
1000
,
0001
0001
0100
0001
,
0000
1001
0000
1000
,
1000
0001
0001
0100
,
0000
0110
0000
0010
,
1000
0000
0000
0000
0001
0000
0000
1000
0000
0000
0020
0000
0000
0000
0000
0000
,
0000
0030
0000
1000
,
0001
0100
0010
0220
,
0000
0330
0000
0100
,
0100
0001
0001
1000
,
0000
1001
0000
0001
,
1000
0000
0000
0010
0000
0000
0100
0000
0020
0000
0000
0000
,
0000
0000
0000
0000
0000
0030
0000
0000
0000
2000
0000
0000
,
0000
0000
0000
0000
0000
0000
3000
0000
0000
0002
0000
0000
0000
0000
0000
0000
0000
0000
0003
0000
0000
0000
0200
0000
,
0000
0000
0000
0000
0000
0000
0000
0000
0000
0000
0300
0000
;

//--------------- dance-single - Alex ----------------
#NOTES:
     dance-single:
     Alex:
     Hard:
     9:
     0,0,0,0,0:
0000
0000
0000
0000
,
0000
0000
1000
0001
,
0100
0000
0010
1000
0000
0001
0000
0100
,
0001
1000
0010
0100
,
0001
0000
0010
0001
0000
0100
0000
0010
,
1000
0001
0100
1000
,
0100
0000
0001
1000
0000
0001
0000
0010
,
0001
0100
0010
1000
,
0001
0000
1000
0010
0000
0100
0000
0001
,
1000
0000
0010
1000
0000
0001
0100
0000
0001
0010
0000
0001
,
0100
0000
0010
0100
0000
0001
1000
0000
0100
0010
0000
0001
,
1000
0000
0010
1000
0000
0001
1000
0000
0001
0100
0000
0001
,
1000
0000
0010
0100
0000
0001
0010
0000
0100
1000
0000
0001
,
0100
0000
0010
0100
0000
0001
1000
0000
0010
1000
0000
0001
,
0010
0000
0000
0100
0000
0000
2000
0000
0000
0000
0000
0000
0000
0000
0000
0000
,
0010
0000
0000
3010
0000
0000
1000
0000
0001
1000
0000
0000
,
0001
0000
0100
0001
0000
0000
0100
0000
0010
1000
0000
0001
,
1000
0001
1000
0001
1000
0001
1000
0000
0001
0100
0000
0010
,
2000
0000
3000
0002
0000
0003
0100
0000
0010
1000
0000
0001
,
0020
0000
0030
0002
0000
0003
0100
0000
0010
1000
0000
0001
,
2000
0000
3000
0002
0000
0003
0100
0000
0010
1000
0000
0001
,
0020
0000
0030
0002
0000
0003
0100
0000
0010
1000
0000
0100
,
0020
0000
0030
0002
0000
0003
1000
0000
0010
1000
0000
0001
,
2000
0000
3000
0002
0000
0003
0100
0000
0001
0100
0000
0010
,
2000
0000
3000
0020
0000
0030
1000
0000
0001
0010
0000
0001
,
1000
0000
1000
0001
0000
0001
0100
0000
0100
0010
0000
0010
,
2000
0000
3000
0002
0000
0003
0100
0000
0010
1000
0000
0001
,
2000
0000
3000
0002
0000
0003
0100
0000
0001
1000
0000
0001
,
0020
0000
0030
0002
0000
0003
0100
0000
0010
1000
0000
0100
,
2000
0000
3000
0002
0000
0003
0100
0000
0001
1000
0000
0001
,
0020
0000
0030
0002
0000
0003
0100
0000
0010
1000
0000
0001
,
2000
0000
3000
0020
0000
0030
0100
0000
0001
1000
0000
0001
,
0010
0000
0010
0001
0000
0202
0000
0000
0000
0000
0000
0000
,
0303
0000
0000
0000
0001
0000
0100
0000
0000
0000
0010
0000
0100
0000
0000
0001
0000
0000
2000
0000
0000
3000
0000
0001
,
0100
0000
0000
0010
0000
0000
1000
0000
0000
0001
0000
0000
0100
0000
0000
0010
0000
0000
2000
0000
0000
3000
0000
0001
,
1000
0000
0000
0010
0000
0000
0100
0000
0000
0001
0000
0000
0010
0000
0000
0001
0000
0000
2000
0000
0000
3000
0000
0001
,
0010
0000
0000
0001
0000
0000
0100
0000
0000
0010
0000
0000
0100
0000
0000
0001
0000
0000
2000
0000
0000
3000
0000
0100
,
1000
0000
0000
0010
0000
0000
1000
0000
0010
0000
1000
0000
0010
0000
1000
0000
0010
0000
1000
0000
0000
0000
0010
0000
,
1000
0000
1000
0001
0000
0000
0110
0000
0000
1001
0000
1000
,
0001
0000
0001
0010
0000
0000
0011
0000
0000
0101
0000
0010
,
0100
0000
0100
0001
0000
0000
0101
0000
0000
1010
0000
0010
,
1000
0000
1000
0001
0000
0000
1001
0000
0000
0110
0000
0010
,
0100
0000
0001
0100
0000
0000
0110
0000
0000
1010
0000
1000
,
0100
0000
1000
0010
0000
0000
1010
0000
0000
0101
0000
0001
,
1000
0000
0001
0100
0000
0010
0100
0000
2002
0000
0000
0000
,
3003
0000
0000
0100
0010
0100
0010
0100
0010
0100
0000
0000
,
0001
0000
1000
0000
0001
0010
0000
0001
,
0000
0100
0010
0000
0100
0000
0101
0000
,
0100
0000
0110
0000
0010
2000
3000
0002
,
0003
0000
0100
0001
0000
0001
1000
0000
1000
0010
0000
0000
,
0100
0000
0001
0000
1000
0100
0000
1000
,
0000
0010
1000
0000
0001
0000
0101
0000
,
0110
0000
1010
0000
0010
1000
0000
0001
,
0000
0000
0100
0001
0000
0001
1000
0000
1000
0010
0000
0010
,
1000
0000
1000
0001
0000
0001
0100
0000
0100
0001
0000
0001
,
0010
0000
0010
0100
0000
0100
1000
0000
1000
0001
0000
0001
,
1000
0000
1000
0010
0000
0010
1000
0000
1000
0001
0000
0001
,
0010
0000
0010
0001
0000
0001
0100
0000
0100
0010
0000
0100
,
0001
0000
0100
0010
0000
0100
0001
0000
1000
0020
0000
0000
,
0000
0100
0130
0101
,
0001
0000
0000
1001
0000
0000
1000
0000
0000
0010
0000
1000
,
0010
0000
0010
1000
0010
1000
0010
1000
0010
1000
0000
1000
,
0010
0000
0010
1000
0000
1000
0001
0000
0001
0100
0000
0100
,
0001
0000
0001
0010
0000
0010
0100
0000
0010
0001
0000
0001
,
0100
0000
0100
0010
0000
0010
1000
0000
0002
0000
0000
0000
,
0000
0000
0000
0000
0000
0000
0003
0000
0000
1000
0000
0010
,
0000
0000
0000
0000
0001
0000
0000
0000
0000
0100
0000
0000
0000
0000
0000
0000
0000
0000
1000
0000
0000
0000
0000
0000
0000
0000
0000
0000
0000
0000
0100
0000
0000
0000
0000
0000
0000
0000
0000
0000
0001
0000
0000
0000
0200
0000
0000
0000
,
0000
0000
0000
0000
0000
0000
0300
0020
0000
0000
0000
0000
,
0000
0000
0000
0000
,
0030
0000
0000
0000
;
