#TITLE:Love Is a Danger Zone;
#SUBTITLE:;
#ARTIST:Banya;
#TITLETRANSLIT:;
#SUBTITLETRANSLIT:;
#ARTISTTRANSLIT:;
#GENRE:;
#CREDIT:;
#MUSIC:Love Is A Danger Zone.ogg;
#BANNER:Love Is A Danger Zone.png;
#BACKGROUND:Love Is A Danger Zone-BG.png;
#CDTITLE:;
#SAMPLESTART:13.949;
#SAMPLELENGTH:13.464;
#SELECTABLE:YES;
#OFFSET:-0.288;
#BPMS:0.000=140.000;
#STOPS:;
#BGCHANGES:;
#FGCHANGES:;

//--------------- dance-single - Alex ----------------
#NOTES:
     dance-single:
     Alex:
     Beginner:
     1:
     0,0,0,0,0:
0000
0000
0000
0000
,
0000
0000
0000
0000
,
1001
0000
0000
0000
,
0000
0000
0000
0000
,
0110
0000
0000
0000
,
0000
0000
0000
0000
,
2002
0000
0000
0000
,
3003
0000
0000
0000
,
1000
0000
0000
0000
,
1000
0000
0000
0000
,
0001
0000
0000
0000
,
1000
0000
0000
0000
,
0010
0000
0000
0000
,
0010
0000
0000
0000
,
0010
0000
0000
0000
,
1000
0000
0000
0000
,
1001
0000
0000
0000
,
0100
0000
0000
0000
,
0100
0000
0000
0000
,
0010
0000
0000
0000
,
1000
0000
0000
0000
,
0001
0000
0000
0000
,
0001
0000
0000
0000
,
1000
0000
0000
0000
,
0010
0000
0000
0000
,
1000
0000
0000
0000
,
1000
0000
0000
0000
,
0001
0000
0000
0000
,
0100
0000
0000
0000
,
0100
0000
0000
0000
,
0001
0000
0000
0000
,
1000
0000
0000
0000
,
2002
0000
3003
0000
,
0010
0000
0010
0000
,
0010
0000
0000
0000
,
0100
0000
0000
0000
,
0001
0000
0000
0000
,
1000
0000
1000
0000
,
1000
0000
0000
0000
,
0010
0000
0000
0000
,
0100
0000
0100
0000
,
0200
0000
0300
0000
,
0010
0000
0010
0000
,
0020
0000
0030
0000
,
1000
0000
1000
0000
,
2000
0000
3000
0000
,
0001
0000
0001
0000
,
0002
0000
0003
0000
,
1001
0000
0000
0000
,
0100
0000
0000
0000
,
0001
0000
0000
0000
,
0001
0000
0000
0000
,
1000
0000
0000
0000
,
0010
0000
0000
0000
,
0100
0000
0000
0000
,
0010
0000
0000
0000
,
0000
0100
0100
0100
;

//--------------- dance-single - Alex ----------------
#NOTES:
     dance-single:
     Alex:
     Easy:
     3:
     0,0,0,0,0:
0000
0000
0000
0000
,
0000
0000
0000
0000
,
0020
0000
0030
0000
,
2000
0000
3000
0000
,
0002
0000
0003
0000
,
0200
0000
0300
0000
,
2002
0000
0000
0000
,
3003
0000
0000
0000
,
1001
0000
1000
0000
,
0001
0000
0100
0000
,
0010
0000
0010
0000
,
0200
0000
0300
0000
,
0001
0000
1000
0000
,
0001
0000
1000
0000
,
0100
0000
1000
0000
,
0020
0000
0030
0000
,
1000
0000
0001
0000
,
1000
0001
1000
0000
,
0001
0000
0100
0000
,
0001
0100
0001
0000
,
1000
0000
0010
0000
,
1000
0010
1000
0000
,
0001
0000
1000
0000
,
2002
0000
3003
0000
,
0001
0000
1000
0000
,
0001
0100
0001
0000
,
1000
0000
0010
0000
,
1000
0100
1000
0000
,
0001
0000
0100
0000
,
0010
0100
0010
0000
,
0100
0000
0001
0000
,
2002
0000
3003
0000
,
0010
0010
0010
0000
,
1000
1000
1000
0000
,
0001
0001
0001
0000
,
1001
0000
0000
0000
,
0100
0100
0100
0000
,
0001
0001
0001
0000
,
1000
1000
1000
0000
,
1001
0000
0000
0000
,
0010
0000
0010
0000
,
0100
0100
0100
0100
,
0100
1001
0000
0000
,
1001
0000
1001
0000
,
0001
0000
0001
0000
,
1000
1000
1000
1000
,
1000
1001
0000
0000
,
0110
0000
0110
0000
,
0100
0000
0001
0000
,
1000
0000
1000
0000
,
0001
0000
0010
0000
,
0001
0001
0001
0000
,
1000
0000
0001
0000
,
1000
0000
1000
0000
,
0010
0000
0100
0000
,
0010
0010
0010
0010
,
0000
0000
0000
0000
0000
1001
0000
0000
;

//--------------- dance-single - Alex ----------------
#NOTES:
     dance-single:
     Alex:
     Medium:
     5:
     0,0,0,0,0:
0000
0000
0000
0000
,
0000
0000
0000
0000
,
0001
0001
0001
0001
,
1000
1000
1000
1000
,
0010
0010
0010
0010
,
0100
0100
0100
0100
,
1000
0001
1000
0001
,
2002
0000
3003
0000
,
1001
0001
0100
0010
,
1000
1000
0001
0001
,
0100
0010
0100
0100
,
0001
0010
0002
0003
,
1000
0010
1000
0001
,
1000
1000
0100
0100
,
1000
0001
0100
0010
,
2002
0000
3003
0000
,
1001
0001
0100
0010
,
0100
0000
0001
0000
1000
0100
1000
0000
,
0001
1000
0001
0001
,
1000
0000
0010
0000
1000
0001
1000
0000
,
0001
0100
0010
0100
,
0001
0000
1000
0000
0001
1000
0001
0000
,
0100
0010
0100
0001
,
1001
0000
0110
0000
,
0010
0010
1000
1000
,
0001
0000
0001
0000
0010
0001
0010
0000
,
0001
1000
0100
0100
,
1000
0000
0001
0000
0100
0010
0100
0000
,
0001
0010
0100
1000
,
0001
0000
1000
0000
0010
1000
0010
0000
,
1000
0001
0010
0001
,
2002
0000
3003
0000
,
1001
0001
0100
0010
,
0100
0010
0100
0000
0010
0100
0010
0000
,
0110
1001
0000
0000
,
0001
1000
0001
1000
0001
0000
0000
0000
,
1000
1000
0001
0001
,
1000
0100
1000
0000
0001
0100
0001
0000
,
1001
0110
0000
0000
,
1000
0001
1000
0001
1000
0000
0000
0000
,
0001
0001
1000
1000
,
0001
1000
0001
1000
0001
1000
0001
1000
,
0001
1001
0000
0000
,
0110
0110
0110
0110
,
0010
0010
0100
0100
,
0010
0100
0010
0100
0010
0100
0010
0100
,
0010
1001
0000
0000
,
1001
1001
1001
1001
,
0001
0100
1000
0100
,
0001
1000
0010
0001
,
0010
1000
0001
0010
,
0001
0001
1000
1000
,
0001
0100
0010
0100
,
0001
1000
0100
0010
,
0100
1000
0001
0100
,
0010
0100
0001
1000
,
0000
0000
0001
1000
0001
1000
0000
0000
;

//--------------- dance-single - Alex ----------------
#NOTES:
     dance-single:
     Alex:
     Hard:
     8:
     0,0,0,0,0:
0000
0000
0000
0000
,
0000
0000
0000
0000
,
2000
0001
0001
3001
,
0002
0010
0010
0013
,
0020
0001
0001
0031
,
0200
0010
0010
0310
,
0010
1000
0001
0100
0010
0100
0001
0010
,
0100
1000
0001
0100
0010
1000
0100
0010
,
0001
1000
0001
1000
0001
1000
0010
0000
,
0100
0001
1000
0100
,
0010
0001
1001
0000
0000
0000
0000
0000
,
0001
1000
0010
0100
0002
0000
0003
0000
,
0100
0001
0100
0010
0100
0001
0100
0000
,
0010
1000
0001
0100
,
0010
0100
0110
0000
0000
0000
0000
0000
,
0010
1000
0001
1000
0200
0000
0300
0000
,
1000
0001
1000
0001
0100
0001
1000
0000
,
0010
0100
0001
0000
0010
0100
1000
0000
,
0001
0100
0010
0100
0001
0000
0101
0000
,
0001
1000
0010
0000
1000
0100
0010
0001
,
0100
0001
0100
0000
0010
1000
0010
0000
,
1000
0001
0010
0001
1000
0010
0100
0000
,
0001
1000
0001
0000
1000
0100
1000
0000
,
0001
1000
0000
1000
0001
0000
1001
0000
,
0001
1000
0010
1000
0001
1000
0100
1000
,
0001
1000
0010
0100
0001
0100
0010
0000
,
0100
0001
0010
0100
1000
0001
0100
0000
,
0001
1000
0001
0000
1001
0000
0110
0000
,
0010
0100
0001
0100
0010
0100
0001
0000
,
0010
0001
0100
0000
0001
1000
0100
0000
,
1000
1000
0010
0010
0100
0001
1000
0100
,
0010
0001
0100
0010
0100
0001
1000
0010
,
0100
0100
0001
0001
1000
0010
0100
0000
,
0001
0010
0100
1000
,
0001
0100
0101
0000
0000
0000
0000
0000
,
0001
1000
0010
0100
0002
0000
0003
0000
,
0100
0010
0100
0001
1000
0001
1000
0000
,
0100
1000
0001
0100
,
0010
1000
1010
0000
0000
0000
0000
0000
,
0010
1000
0001
1000
0002
0000
0003
0000
,
1000
0001
0100
0000
0001
1000
0100
0000
,
1000
1000
0001
0001
1000
1000
0001
0001
,
0100
0010
0200
0000
0300
0000
0000
0000
,
0110
1001
0110
1001
,
0001
1000
0001
0000
0100
0010
0100
0000
,
0001
0010
0010
0001
0001
1000
1000
0010
,
0010
0110
0000
0000
,
1001
0011
1001
1100
,
1000
0100
1000
0001
1000
0010
1000
0000
,
0001
0010
0001
0000
0100
0001
0100
0000
,
0010
0100
0001
0100
0010
0100
0001
0000
,
1000
0100
0010
0000
0001
0100
0010
0000
,
1000
0001
0010
0001
1000
0010
1000
0000
,
0001
1000
0001
0000
0100
0001
0100
0000
,
0010
0100
0010
1000
0010
0100
0010
1000
,
0001
0001
1000
1000
0010
0100
0001
1000
,
0000
0000
0001
1000
0010
2002
0000
0000
,
0000
0000
0000
0000
,
3003
0000
0000
0000
;

//--------------- dance-single - Alex ----------------
#NOTES:
     dance-single:
     Alex:
     Challenge:
     11:
     0,0,0,0,0:
0000
0000
0000
0000
,
0000
0000
0000
0000
,
2002
0010
0010
3013
,
2002
0100
0100
3103
,
0022
0100
0100
0133
,
2200
0010
0010
3310
,
0001
0010
0100
1000
0001
0010
0001
1000
0010
1000
0001
0100
0001
1000
0100
0010
,
0100
1000
0010
0100
0001
0010
0100
1000
0001
0100
0010
1000
0001
0010
0001
1000
,
0010
1000
0001
0100
0001
1000
0100
0010
,
0001
0010
0001
0000
0100
0000
0010
0000
0100
0010
0100
0000
0001
0000
1000
0000
,
1010
0010
1000
0001
0100
0001
0010
0100
,
1100
1000
1010
1000
2002
0000
0010
3003
,
0001
0100
1000
0100
0001
1000
0010
0001
,
1000
0010
1000
0000
0001
0000
0010
0000
0001
0010
0001
0000
0100
0000
0001
0000
,
1001
0001
1000
0010
0100
0001
0010
0100
,
1000
0001
0010
0001
1000
0010
1000
0001
0100
0001
0010
0100
1000
0001
0200
0300
,
0010
1000
0010
0000
1000
0000
0001
0000
0010
0001
0010
0000
0001
0000
0100
0000
,
0010
0100
0010
0000
1000
0000
0001
0000
1000
0100
1000
0000
0001
0000
0100
0000
,
0001
0010
0001
0000
0100
0000
0010
0000
0100
0001
0100
0000
0001
0000
0010
0000
,
0100
1000
0001
0100
0010
0000
1000
0000
0001
1000
0010
1000
0001
0000
1000
0000
,
0001
0000
0100
0001
0100
0000
0001
0000
0001
0000
1000
0010
1000
0000
0001
0000
,
1000
0000
0100
0010
0100
0000
1000
0000
0001
0000
0100
0001
0100
0000
0001
0000
,
0010
0000
0001
1000
0010
0000
0100
0000
0001
0000
1000
0100
0010
0000
0001
0000
,
1000
0010
0100
0001
1000
0000
0001
0000
0010
0001
0100
0010
0200
0000
0300
0000
,
0001
0010
0001
0010
0001
1000
0001
1000
0010
1000
0010
1000
0001
1000
0001
0100
,
0001
0100
0010
1000
0100
0010
0100
1000
0001
0100
0010
0100
0001
0010
0100
1000
,
0001
0000
1000
0010
1000
0000
0001
0000
0100
0000
0001
0010
0001
0000
0100
0000
,
0010
0100
0001
0010
0001
0000
0001
0000
1000
0010
1000
0100
1000
0000
1000
0000
,
0010
0000
1000
0001
1000
0000
0001
0000
0100
0000
0010
0100
0001
0000
0010
0000
,
0001
0000
1000
0100
0010
0000
0001
0000
0100
0000
0010
1000
0001
0000
0010
0000
,
0001
0000
1000
0010
1000
0000
0001
0000
0100
0000
0001
0010
0001
0000
0100
0000
,
0010
0100
0001
0010
0100
1000
0001
0100
0010
1000
0100
0010
0001
0100
0010
0100
,
0001
0000
1000
0001
1000
0000
0001
0000
0101
0000
0100
0000
0110
0000
0010
1000
,
0100
0010
0001
1000
0010
1000
0001
0010
0001
0100
0001
0100
0010
0100
0001
0010
,
0100
0000
1000
0010
0100
0000
0001
0000
1001
0000
0001
0000
1001
0000
1000
0010
,
1000
0001
1000
0010
1000
0001
0010
0001
0100
0001
0010
0100
1000
0001
0100
0010
,
0100
0000
0001
0010
0001
0000
1000
0000
1010
0000
0100
0000
0110
0000
0100
0001
,
0010
0001
1000
0100
0010
0100
1000
0001
0100
0010
0100
0001
0010
0100
1000
0001
,
0100
0000
0001
1000
0001
0000
1000
0000
1001
0000
0001
0000
0011
0000
0001
0100
,
0010
0100
0001
0010
0100
1000
0001
0100
0010
1000
0100
0010
0001
1000
0010
0100
,
0101
0000
0100
0001
0100
0000
0010
0000
0110
0000
0010
0100
0010
0000
0100
0000
,
1001
0110
1001
0110
0011
1100
0011
1100
,
1000
0000
0010
1000
0010
0000
1000
0000
0001
0000
0100
0001
0100
0000
0001
0000
,
1001
0010
1001
0100
1001
0010
2002
3003
,
0001
0000
1000
0010
1000
0000
0001
0000
1001
0000
1000
0010
0100
0000
0001
0000
,
0011
1100
0011
1100
1010
0101
1010
0101
,
0001
0000
1000
0010
0100
0000
0001
0000
0011
0000
0010
0001
0100
0000
0010
0000
,
0110
0001
0110
1000
0110
0001
2002
3003
,
0001
1000
0010
1000
0001
1000
0100
0010
0001
1000
0010
0100
0001
0010
0100
1000
,
0001
0100
0010
0100
0001
0100
0001
0010
0001
1000
0010
1000
0001
1000
0100
0010
,
0001
0100
0001
0010
0100
1000
0001
0010
0001
1000
0010
1000
0100
0010
0100
1000
,
0001
0100
0010
0100
0001
0010
0100
1000
0001
0100
0010
1000
0001
0010
0001
1000
,
0100
0010
0001
0100
0010
0100
0001
0010
0001
1000
0010
1000
0001
1000
0100
0010
,
0001
1000
0010
0100
0001
0010
0100
1000
0001
0100
0010
1000
0010
0100
0001
1000
,
0100
0010
0100
1000
0001
0010
0001
1000
0010
1000
0001
0010
0001
0100
0001
0010
,
0100
1000
0001
0100
0010
1000
0100
0010
0001
0100
0010
1000
0001
0010
0100
2000
,
0000
3000
0000
0000
1001
0000
0110
0000
1001
0000
0220
0000
0000
0000
0000
0000
,
0000
0000
0000
0000
,
0330
0000
0000
0000
;
