#TITLE:Love Is a Danger Zone 2;
#SUBTITLE:;
#ARTIST:Banya;
#TITLETRANSLIT:;
#SUBTITLETRANSLIT:;
#ARTISTTRANSLIT:;
#GENRE:;
#CREDIT:;
#MUSIC:Love Is a Danger Zone 2.ogg;
#BANNER:Love Is a Danger Zone 2.png;
#BACKGROUND:Love Is a Danger Zone 2-BG.png;
#CDTITLE:;
#SAMPLESTART:12.681;
#SAMPLELENGTH:11.667;
#SELECTABLE:YES;
#OFFSET:-0.135;
#BPMS:0.000=162.000;
#STOPS:;
#BGCHANGES:;
#FGCHANGES:;

//--------------- dance-single - Alex ----------------
#NOTES:
     dance-single:
     Alex:
     Beginner:
     2:
     0,0,0,0,0:
0000
0000
0000
0000
,
0000
0000
0000
0000
,
0000
0000
0000
0000
,
0000
0000
0000
0000
,
0000
0000
0000
0000
,
0000
0000
0000
0000
,
0000
0000
0000
0000
,
0000
0000
0220
0000
,
0330
0000
0100
0000
,
0000
0000
0001
0000
,
0000
0000
1000
0000
,
0000
0000
0001
0000
,
0010
0000
0001
0000
,
0000
0000
0100
0000
,
0000
0000
0010
0000
,
0000
0000
1000
0000
,
0010
0000
2000
0000
,
0000
0000
0000
0000
0000
0000
0000
3000
,
0000
0000
1001
0000
,
0000
0000
0010
0000
,
0000
0000
1000
0000
,
0000
0000
0001
0000
,
0001
0000
0001
0000
,
0000
0000
1000
0000
,
0000
0000
0010
0000
,
0000
0000
1000
0000
,
1000
0000
1001
0000
,
0000
0000
0110
0000
,
0000
0000
1001
0000
,
0000
0000
0110
0000
,
0000
0000
0000
0000
0000
0100
0000
0000
,
0000
0000
0000
0000
0000
0001
0000
0000
,
0000
0000
0000
0000
0000
1000
0000
0000
,
0000
0000
0000
0000
0000
0010
0000
0000
,
0000
0100
0000
0000
0000
0010
0000
0000
,
0000
0000
0000
0000
0000
1000
0000
0000
,
0000
0000
0000
1001
0000
0000
0000
0000
,
0000
0000
0000
0000
0000
0010
0000
0000
,
0000
0000
0000
2002
0000
0000
0000
0000
,
0000
0000
0000
3003
0000
0000
0000
0000
,
0000
0000
0001
0000
,
1000
0000
0020
0000
,
0030
0000
1001
0000
,
0000
0000
0010
0000
,
0000
0000
1000
0000
,
0000
0000
0001
0000
,
0000
0000
0110
0000
,
0000
0000
0100
0000
,
0000
0000
0001
0000
,
0001
0000
1000
0000
,
1000
0000
0010
0000
,
0000
0000
1000
0000
,
0000
0000
0001
0000
,
0000
0000
0100
0000
,
0010
0000
0100
0000
,
0000
0000
0001
0000
,
0000
0000
0001
0000
,
0000
0000
1000
0000
,
0100
0000
1000
0000
,
1000
0000
0001
0000
,
0001
0000
0200
0000
,
0300
0000
0010
0000
,
0010
0000
0100
0000
,
0100
0000
0001
0000
,
0001
0000
2000
0000
,
3000
0000
0010
0010
,
0010
0000
1001
0000
;

//--------------- dance-single - Alex ----------------
#NOTES:
     dance-single:
     Alex:
     Easy:
     5:
     0,0,0,0,0:
0000
0000
0000
0000
,
0000
0000
0000
0000
,
0000
0000
0000
0000
,
0000
0000
0000
0000
,
0000
0000
0000
0000
,
0000
0000
0000
0000
,
0000
0000
0000
0000
,
0000
0000
0100
0100
,
0200
0300
0010
1000
,
0001
0100
0010
0010
,
0100
0100
1001
2002
,
3003
0000
0001
0000
,
1000
1001
0001
0100
,
0010
0010
1000
1000
,
0100
0100
1001
2002
,
3003
0000
0110
0110
,
0110
0110
2002
0000
,
0000
0000
0000
0000
0000
0000
0000
3003
,
0000
0000
0001
0001
,
0100
0100
0010
1000
,
0100
0100
1000
1000
,
0001
0001
0100
0010
,
0200
0300
0010
0010
,
0100
0001
0010
0010
,
0001
1000
0010
1000
,
1000
0001
0100
0010
,
2000
3000
0001
0001
,
0100
0100
0010
0010
,
1000
1000
0001
0010
,
0100
1000
0001
0100
,
0220
0000
0330
0000
0000
1001
0000
0001
,
0000
0100
0000
1000
0000
0100
0000
0001
,
0000
0010
0000
1000
0000
0010
0000
0001
,
0000
0001
0000
0100
0000
0020
0000
0030
,
2000
0000
3000
0001
0000
1001
0000
0000
,
0000
0000
0000
0000
,
0000
0000
0000
0110
0000
0000
0000
0000
,
0000
0000
0000
0000
,
0000
0000
0000
2002
0000
0000
0000
0000
,
0000
0000
3003
0000
,
0000
0000
0002
0003
,
2000
0000
3000
0000
0020
0030
0200
0300
,
0001
1000
1001
0001
,
0010
0001
0100
0010
,
1000
0100
1000
1000
,
0010
0100
0001
0010
,
0100
1000
2020
3030
,
0010
0100
2002
0000
,
3003
0000
0001
0001
,
1000
1000
0001
1000
,
0001
1000
1001
0001
,
0001
0100
0010
1000
,
0100
0010
0022
0000
,
0033
0000
0001
0000
,
0110
0110
0001
0010
,
0001
0001
1000
1000
,
0010
0010
2020
0000
,
3030
0000
1010
1010
,
1001
1001
0001
0100
,
0010
1000
0100
0001
,
0100
1000
0001
0001
,
0100
0100
0110
0110
,
0110
0110
0010
0010
,
1000
1000
0001
0001
,
0010
0010
0001
0100
,
0010
0100
0101
0101
,
1010
1010
2002
0000
,
0000
0000
0000
0000
,
0000
0000
0000
3003
;

//--------------- dance-single - Alex ----------------
#NOTES:
     dance-single:
     Alex:
     Medium:
     8:
     0,0,0,0,0:
0000
0000
0000
0000
,
0000
0000
0000
0000
,
0000
0000
0000
0000
,
0000
0000
0000
0000
,
0000
0000
0000
0000
,
0000
0000
0000
0000
,
0000
0000
0000
0000
,
0000
0000
0000
0000
0001
1000
0001
1000
,
0001
1000
0020
0030
0100
0001
0010
0100
,
1000
0001
0100
0000
0010
0000
1000
0000
,
0001
0000
0010
0000
0001
0100
0120
0000
,
0000
0000
0130
0000
0001
1000
0010
0100
,
0101
0000
0110
0000
0010
1000
0100
1000
,
0010
1000
0100
0000
1000
0000
0001
0000
,
0100
0000
0010
0000
0100
0001
2001
0000
,
0000
3001
0011
0101
,
0110
1100
2002
0000
,
0000
0000
0000
0000
0000
0000
0000
3003
,
0000
0000
0000
0000
2000
3000
0010
1000
,
0010
1000
0020
0030
0200
0300
0001
0010
,
0001
0010
0002
0003
2000
3000
0001
0100
,
0001
0100
0002
0003
2000
3000
0100
0010
,
0100
0010
0200
0300
1001
0000
0010
0100
,
0010
0100
0020
0030
2000
3000
0001
0010
,
0001
0010
0002
0003
0200
0300
0010
1000
,
0100
1000
0020
0030
2000
3000
0001
1000
,
0010
0100
0002
0000
0103
0000
0010
0000
,
0100
0010
0100
0000
0001
0000
1000
0000
,
0010
1000
0010
0000
1000
0000
0001
0000
,
0010
0001
0010
0000
0001
0000
0100
0000
,
0010
0100
0001
0010
0100
2000
0000
3020
,
0000
0230
0000
0301
0010
0200
0000
0320
,
0000
0031
0100
0010
0100
0002
0000
2003
,
0000
3020
0000
0130
0001
1000
0100
0000
,
0100
1000
0000
1000
0010
0110
0000
0000
,
0000
0000
0000
0000
,
0000
0000
0000
0000
1000
1001
0000
0000
,
0000
0000
0000
0000
,
0000
0000
2002
0000
,
0000
0000
3003
0000
,
0000
0000
0000
0000
0200
0000
0000
0300
,
0020
0000
0000
0030
2000
3000
0002
0003
,
1000
0100
0010
0001
1000
0010
1000
0010
,
0100
0001
0010
0100
0010
0001
0100
0010
,
0100
0001
1000
0100
0010
0010
0001
0100
,
0010
0100
0001
1000
0010
0100
0001
0010
,
0100
1000
0001
0000
2002
0000
3003
0000
,
0001
1000
0010
0200
0002
0000
0000
0000
,
0303
0000
0000
0000
0001
0010
0100
1000
,
0001
0010
0100
1000
0010
0100
0001
1000
,
0010
0100
0001
1000
1001
0001
0100
0010
,
0100
0001
1000
0000
0001
0000
0010
0000
,
0100
0000
1000
0000
0010
0100
0201
0000
,
0000
0000
0301
0000
0001
0010
0100
1000
,
1010
0000
1001
0000
0001
0100
0010
0100
,
0001
1000
0010
0000
1000
0000
0001
0000
,
0010
0000
0001
0000
1000
0010
1020
0000
,
0000
1030
1010
1100
,
0011
0000
0101
0000
0010
0100
0001
0001
,
1000
0010
1000
1000
0001
0010
0100
1000
,
0001
0001
0100
0010
0110
0000
2002
0000
,
3003
0000
0011
0101
,
0110
0000
1010
0000
0010
1000
0100
0010
,
0100
1000
0001
0100
0010
0100
0001
1000
,
0010
0100
0001
1000
1001
0000
0220
0000
,
0330
0000
0011
0101
,
0110
1010
2002
0000
,
0000
0000
0000
0000
,
0000
0000
0000
3003
;

//--------------- dance-single - Alex ----------------
#NOTES:
     dance-single:
     Alex:
     Hard:
     10:
     0,0,0,0,0:
0000
0000
0000
0000
,
0000
0000
0000
0000
,
0000
0000
0000
0000
,
0000
0000
0000
0000
,
0000
0000
0000
0000
,
0000
0000
0000
0000
,
0000
0000
0000
0000
,
0000
0000
0000
0000
0000
0000
0000
0000
0001
0000
1000
0010
1000
0000
0001
0000
,
0100
0000
0010
0000
0100
0001
0100
0001
0100
0000
0001
1000
0001
0000
0010
0000
,
0100
0000
1000
0000
0001
0000
0100
0000
0010
0000
1000
0010
1000
0000
0001
0000
,
0010
0000
0001
0010
0001
0000
0100
0000
0010
0000
0100
0000
0102
0000
0000
0000
,
1000
0000
0013
0000
0001
0100
0010
1000
,
2200
0000
3300
0000
0022
0000
0033
0000
1001
0000
0001
0100
0010
0000
0100
0000
,
0001
0000
0010
0000
0100
0000
1000
0000
0001
0000
1000
0010
1000
0000
0001
0000
,
0100
0000
0010
0100
0010
0000
0100
0000
0001
0000
1000
0000
2100
0000
0000
0000
,
0010
0000
3001
0000
0001
0100
0010
1000
,
0100
1000
0010
0100
2002
0000
0000
0000
,
0000
0000
0000
0000
0000
0000
0000
3003
,
0000
0000
0000
0000
1001
0001
0100
0010
,
1000
0010
1000
0000
0001
0000
0010
0000
0001
0010
0001
0000
0100
0010
0100
0010
,
0100
0000
0001
1000
0200
0000
0300
0000
0010
0000
0001
0000
0100
0000
0010
0000
,
0100
0001
0100
0000
0001
0000
1000
0000
0010
1000
0010
0000
1000
0001
1000
0001
,
1000
0000
0001
0010
0002
0000
0003
0000
0101
0000
0100
0000
0010
0000
1000
0000
,
0100
1000
0100
0000
1000
0000
0010
0000
1000
0010
1000
0000
0001
0100
0001
0100
,
0001
0000
0100
0010
0200
0000
0300
0000
0001
0000
0010
0000
0001
0000
1000
0000
,
0010
1000
0010
0000
1000
0000
0001
0000
1000
0100
1000
0000
0001
0100
0001
0100
,
0001
0000
0100
0010
0200
0000
0300
0000
0001
0010
0100
0000
2000
3000
0020
0030
,
1000
0001
0100
0000
0020
0030
0200
0300
0001
0010
0001
0000
2000
3000
0200
0300
,
1000
0010
1000
0000
0002
0003
0200
0300
0010
0100
0001
0000
2000
3000
0002
0003
,
0010
0001
0100
0000
0020
0030
2000
3000
0100
0010
0001
0000
0200
0300
0020
0030
,
1000
0010
0100
0001
1000
0000
0001
0000
0100
0001
0100
0000
0020
0030
2000
3000
,
0001
0010
0001
0000
0200
0300
0020
0030
1000
0010
0100
0000
0002
0003
2000
3000
,
0001
0010
0001
0000
2000
3000
0020
0030
1000
0100
0010
0000
0002
0003
0200
0300
,
0010
0100
0010
0000
2000
3000
0002
0003
2000
3000
0001
0100
0001
0100
0001
0000
,
1000
0010
1000
0010
1000
0000
0001
0100
0010
0100
0002
0000
0003
0000
1000
0100
,
0000
1000
0100
0000
1000
0010
1000
0000
0010
0000
0100
0000
0000
0000
0001
0100
,
0000
0001
0100
0000
0010
0000
1000
0000
0001
0010
0200
0000
0300
0000
1000
0001
,
0000
1000
0001
0000
0100
0010
1000
0000
0001
0000
0010
0000
0000
0000
0001
0100
,
0000
0001
0100
0000
0010
0000
0100
0000
2002
0000
0000
0000
0000
0000
0000
0000
,
0000
0000
3003
0000
,
0000
0000
0022
0033
,
0220
0330
1100
0011
,
0001
1000
0001
0100
0001
1000
0010
0100
0001
0000
1000
0000
0100
0000
0010
0000
,
0001
0000
0100
0000
0010
0000
0100
0000
0001
0100
0001
0000
1000
0010
1000
0000
,
0001
0010
0001
0000
0100
0010
0100
0000
0001
0000
1000
0010
1000
0010
1000
0000
,
0001
0000
0100
0000
0010
0000
0100
0000
0001
0100
0001
0000
0010
0001
0010
0000
,
0001
1000
0001
0000
1000
0010
1000
0000
2020
0000
0000
0000
3030
0000
0000
0000
,
0001
0000
0100
0010
0100
0010
0100
0000
2002
0000
0000
0000
0000
0000
0000
0000
,
3003
0000
0000
0000
0001
0010
0100
1000
,
0001
0010
0100
1000
0010
0100
0001
1000
,
0010
0000
0100
0000
0001
0000
1000
0000
1010
0000
0010
1000
0010
0000
1000
0000
,
0001
0000
0100
0000
0010
0000
1000
0000
0001
0010
0001
0000
0100
0000
0010
0000
,
1000
0100
0010
0000
0001
0000
0100
0000
0001
0000
1000
0000
1020
0000
0000
0000
,
0100
0000
1030
0000
1000
0001
0100
0010
,
0220
0000
0330
0000
0022
0000
0033
0000
1001
0000
0001
0100
0001
0000
0100
0000
,
0010
0000
1000
0000
0100
0000
0010
0000
0001
0000
1000
0010
1000
0000
0001
0000
,
0010
0000
0001
0100
0010
0000
0100
0000
0001
0000
1000
0000
1020
0000
0000
0000
,
1000
0000
0130
0000
0202
0303
0022
0033
,
2002
0000
3003
0000
2020
0000
3030
0000
0010
0000
1000
0010
1000
0000
0001
0000
,
0100
0000
0010
0100
0001
0000
1000
0000
0100
0000
0010
0001
0100
0000
0010
0000
,
0100
0000
0001
0010
0100
1000
0001
1000
0010
0000
1000
0000
0001
0000
0100
0010
,
0100
0000
0001
0010
0100
1000
0001
1000
1010
0000
0000
0000
0101
0000
0000
0000
,
0011
0000
0000
0000
1001
0000
0000
0000
0001
0000
0100
0010
0100
0000
0001
0000
,
1000
0000
0010
1000
0010
0000
1000
0000
0100
0000
0010
0001
0010
0000
0001
0000
,
0100
0000
0010
0100
0001
0010
0100
1000
0001
0000
1000
0000
0010
0000
0100
0001
,
0100
0000
0001
0010
0100
0010
0001
0100
0010
1000
0010
0000
0100
0001
0100
0000
,
0001
1000
0001
0000
1000
0010
0100
0002
0200
0000
0000
0000
0000
0000
0000
0000
,
0000
0000
0000
0000
,
0000
0000
0000
0303
;

//--------------- dance-single - Alex ----------------
#NOTES:
     dance-single:
     Alex:
     Challenge:
     12:
     0,0,0,0,0:
0000
0000
0000
0000
,
0000
0000
0000
0000
,
0000
0000
0000
0000
,
0000
0000
0000
0000
,
0000
0000
0000
0000
,
0000
0000
0000
0000
,
0000
0000
0000
0000
,
0000
0000
0000
0000
0000
0000
0000
0000
0001
0000
0100
0010
0100
0000
0001
0000
,
1000
0000
0010
0000
1000
0001
0010
0100
1000
0000
0001
0100
0001
0000
0100
0000
,
0010
0000
1000
0010
0100
0001
1000
0100
0010
0000
0001
0100
0001
0000
0100
0010
,
0100
0000
0001
0010
0100
1000
0001
0100
0010
0000
1000
0010
1000
0000
0001
0000
,
0100
0000
0010
0100
0001
0000
1000
0000
0100
0000
0010
0001
0100
0000
0010
0000
,
0220
0000
0330
0000
2002
0000
3003
0000
1001
0000
0010
0100
0001
0000
1000
0000
,
0001
0000
0010
0001
0100
0010
0100
0001
1000
0000
0001
0100
0001
0000
1000
0010
,
1000
0000
0001
0010
0100
1000
0001
0100
0010
0000
0010
1000
0100
0000
0010
0000
,
0001
0000
0100
0010
0100
0001
0010
0100
1000
0100
2000
3000
0010
1000
0020
0030
,
0100
0001
0200
0300
0001
0010
0002
0003
2002
0000
0000
0000
0000
0000
0000
0000
,
0000
0000
0000
0000
0000
0000
0000
3003
,
0000
0000
0000
0000
0000
0000
0000
0000
1001
0000
0001
0100
0010
0000
1000
0000
,
0001
0000
0010
0100
1000
0000
0001
0000
1000
0010
1000
0000
0001
0100
0001
0010
,
0100
0000
1000
0001
0202
0000
0303
0000
0010
0000
1000
0001
1000
0000
0010
0000
,
1000
0000
0001
1000
0100
0000
0010
0000
0001
0100
0010
0000
0100
0001
1000
0100
,
0010
0000
0001
1000
2020
0000
3030
0000
0101
0000
0001
0100
0001
0000
1000
0000
,
0010
0000
1000
0001
0010
0000
0001
0000
1000
0100
0010
0000
0001
1000
0010
0100
,
0001
0000
0010
0001
2002
0000
3003
0000
1001
0000
0010
0100
0001
0000
1000
0000
,
0001
0000
0010
0001
0010
0000
0001
0000
1000
0010
1000
0000
0010
0100
0001
1000
,
0100
0000
1000
0010
2020
0000
3030
0000
0001
0100
0002
0003
0010
0100
2000
3000
,
0001
1000
0020
0030
0100
0001
0020
0030
0001
0100
0002
0003
0010
0100
0020
0030
,
0001
1000
0020
0030
1000
0100
0020
0030
0001
0100
0002
0003
1000
0010
2000
3000
,
0001
0010
0002
0003
0100
0010
0200
0300
0001
1000
0020
0030
0100
0001
1000
0100
,
0010
0000
0001
0000
0100
0000
0010
0000
0100
0001
2000
3000
0001
0010
0002
0003
,
0100
0010
0200
0300
0001
1000
0020
0030
1000
0100
0020
0030
0001
1000
0002
0003
,
0100
0010
0200
0300
0001
0010
0002
0003
1000
0010
2000
3000
0001
0100
0020
0030
,
1000
0100
0020
0030
0001
0100
0020
0030
0100
0001
1000
0100
0010
0001
1000
0000
,
0001
1000
0010
0100
0001
0000
1000
0001
0100
0010
0200
0000
0000
0300
0001
0100
,
0000
0001
0100
0000
0010
1000
0001
0010
0100
1000
0002
0000
0000
0003
1000
0010
,
0000
1000
0010
0000
1010
0000
1001
0000
0001
0100
0020
0000
0000
0030
0100
0001
,
0000
1000
0001
0000
0100
0010
0100
0001
1000
0010
2000
0000
0000
3000
0001
0100
,
0000
0010
0100
0000
0101
0000
0011
0000
2002
0000
0000
0000
0000
0000
0000
0000
,
0000
0000
3003
0000
,
0000
0000
0000
0000
2020
0000
0000
3030
,
0202
0000
0000
0303
0022
0033
2002
3003
,
0001
0100
0010
0100
0001
1000
0010
1000
0100
0010
0100
1000
0001
0100
0010
0100
,
0001
0010
0100
1000
0001
1000
0010
1000
0001
0100
0010
0100
0001
0010
0001
1000
,
0010
0100
0001
1000
0100
0010
0001
1000
0010
0000
0010
0000
1000
0001
0010
0001
,
1000
0010
1000
0001
1000
0100
1000
0001
0100
0010
0100
0001
0010
0100
1000
0001
,
0100
0010
1000
0100
0010
0100
1000
0001
0202
0000
0000
0000
0000
0000
0303
0000
,
0001
1000
0010
0100
0001
1000
0100
0010
0022
0000
0000
0000
0000
0000
0000
0000
,
0000
0000
0000
0000
0033
0000
0000
0000
0100
0001
0100
0001
1000
0010
1000
0010
,
0100
0001
0100
0001
1000
0010
1000
0010
1000
0001
0010
0100
1000
0001
0100
0010
,
1000
0100
0010
0001
1000
0010
0100
0001
1001
0000
0001
0100
0001
0000
1000
0000
,
0010
0000
1000
0100
0010
0100
1000
0001
0100
0000
0010
0100
0010
0000
0100
0001
,
0100
0000
0001
1000
0010
0100
0001
1000
0100
0000
0010
0001
0100
0000
0010
0000
,
1000
0000
0001
1000
0100
0000
0010
0000
0001
0000
0100
0010
0100
0000
0001
0000
,
2002
0000
3003
0000
0220
0000
0330
0000
1001
0000
0001
0100
0010
0000
1000
0000
,
0010
0000
1000
0010
1000
0001
1000
0100
1000
0000
0001
0100
0010
0000
1000
0100
,
0010
0000
0001
1000
0010
0100
0001
0010
0100
0000
1000
0001
0100
0000
0010
0000
,
1000
0000
0001
0010
0001
0000
0100
0000
0010
0100
0020
0030
1000
0001
2000
3000
,
0001
0100
0002
0003
0010
0100
0020
0030
0001
0100
0010
1000
0100
0010
0100
1000
,
0001
0100
0010
0100
0001
0010
0001
1000
0010
1000
0001
1000
0100
0010
0001
0100
,
0001
0010
0100
0010
0001
1000
0010
0100
0001
1000
0001
0100
0001
0010
0100
1000
,
0010
0100
0010
1000
0100
0010
0001
1000
0010
1000
0020
0030
1000
0001
2000
3000
,
0001
0100
0020
0030
1000
0100
2000
3000
0001
0010
0100
0010
0001
0100
0010
1000
,
0100
0010
0001
1000
0010
0100
0001
0010
0001
1000
0010
0100
0001
1000
0100
0010
,
0001
1000
0010
0100
0001
0010
0100
1000
0001
0100
0010
0100
0001
1000
0001
0100
,
0010
1000
0100
0010
0001
0100
0010
0100
0001
1000
0020
0030
0100
0001
2000
3000
,
0100
0010
0002
0003
0100
0010
1000
0001
2002
0000
0000
0000
0000
0000
0000
0000
,
0000
0000
0000
0000
,
0000
0000
0000
3003
;
