#TITLE:Kiss Me;
#SUBTITLE:;
#ARTIST:Debbie Scott;
#TITLETRANSLIT:;
#SUBTITLETRANSLIT:;
#ARTISTTRANSLIT:;
#GENRE:;
#CREDIT:;
#MUSIC:Kiss Me.ogg;
#BANNER:Kiss Me.png;
#BACKGROUND:Kiss Me-BG.png;
#CDTITLE:;
#SAMPLESTART:30.665;
#SAMPLELENGTH:13.681;
#SELECTABLE:YES;
#OFFSET:-0.248;
#BPMS:0.000=126.000;
#STOPS:;
#BGCHANGES:;
#FGCHANGES:;

//--------------- dance-single - Alex ----------------
#NOTES:
     dance-single:
     Alex:
     Beginner:
     1:
     0,0,0,0,0:
0000
0000
0000
0000
,
0000
0000
0000
0000
,
0000
0000
0000
0000
,
0000
0000
0000
0000
,
0001
0000
0000
0000
,
1000
0000
0000
0000
,
0001
0000
0000
0000
,
0100
0000
0000
0000
,
1001
0000
0000
0000
,
1000
0000
0000
0000
,
0010
0000
0000
0000
,
0010
0000
0000
0000
,
1000
0000
0000
0000
,
1000
0000
0000
0000
,
0001
0000
0000
0000
,
0100
0000
0000
0000
,
0010
0000
0010
0000
,
0010
0000
0000
0000
,
1000
0000
1000
0000
,
1000
0000
0000
0000
,
0001
0000
0000
0000
,
1000
0000
0000
0000
,
0001
0000
0000
0000
,
0100
0000
0100
0000
,
0100
0000
0000
0000
,
0110
0000
0000
0000
,
0010
0000
0000
0000
,
0001
0000
0000
0000
,
0100
0000
0000
0000
,
1000
0000
0000
0000
,
0100
0000
0000
0000
,
0001
0000
0001
0000
,
0001
0000
0000
0000
,
1001
0000
0000
0000
,
1000
0000
1000
0000
,
1000
0000
0000
0000
,
0010
0000
0010
0000
,
0010
0000
0000
0000
,
1000
0000
0000
0000
,
0001
0000
0000
0000
,
1000
0000
0000
0000
,
0010
0000
0000
0000
,
1001
0000
0000
0000
,
0001
0000
0000
0000
,
1000
0000
0000
0000
,
0010
0000
0000
0000
,
0100
0000
0000
0000
,
0001
0000
0000
0000
,
1000
0000
0000
0000
,
0100
0000
0000
0000
,
1001
0000
0000
0000
;

//--------------- dance-single - Alex ----------------
#NOTES:
     dance-single:
     Alex:
     Easy:
     3:
     0,0,0,0,0:
0000
0000
0000
0000
,
0000
0000
0000
0000
,
0000
0000
0000
0000
,
0000
0000
0000
0000
,
1000
0000
0001
0000
,
1000
0000
0000
0000
,
0001
0000
1000
0000
,
0001
0000
0100
0100
,
0100
0000
0001
0000
,
1000
0000
0001
0000
,
0010
0000
0010
0000
,
0001
0000
0001
0000
,
1000
0000
1000
0000
,
0100
0000
0100
0000
,
1000
0000
1000
0000
,
0001
0000
1001
0000
,
0010
0010
0010
0000
,
0100
0000
0100
0000
,
0001
0001
0001
0000
,
1000
0000
1000
0000
,
0010
0010
0010
0000
,
1000
0000
0001
0000
,
1000
0000
0010
0000
,
0100
0000
0100
0000
,
1001
0000
0000
0000
,
0001
0001
0001
0000
,
1000
0000
0000
0000
,
0010
0010
0010
0000
,
0100
0000
0000
0000
,
0001
0001
0001
0000
,
1000
0000
0000
0000
,
1000
0000
0010
0000
,
1010
0000
0000
0000
,
0100
0100
0100
0000
,
0010
0000
1000
0000
,
0001
0001
0001
0000
,
1000
0000
0100
0000
,
1000
1000
1000
0000
,
0001
0000
1000
0000
,
0001
0000
0100
0000
,
0010
0000
0010
0000
,
1001
0000
0000
0000
,
0001
0001
0001
0000
,
1000
1000
1000
0000
,
0001
0001
0001
0000
,
0100
0100
0100
0000
,
0010
0010
0010
0000
,
1000
1000
1000
0000
,
0010
0010
0010
0000
,
0100
0100
0100
0000
,
1001
0000
0000
0000
;

//--------------- dance-single - Alex ----------------
#NOTES:
     dance-single:
     Alex:
     Medium:
     5:
     0,0,0,0,0:
0000
0000
0000
0000
,
0000
0000
0000
0000
,
0000
0000
0000
0000
,
0000
0000
0000
0000
,
0001
1000
0001
1000
,
0001
0000
1001
0000
,
1000
0010
1000
0010
,
0100
0000
0100
0000
0010
0100
0010
0100
,
0010
0100
0001
0000
,
1000
0100
0010
0001
,
1000
0000
0010
0100
0010
0000
0000
0000
,
0100
0001
0010
0001
,
1000
0000
0010
1000
0010
0000
0000
0000
,
1000
0001
1000
0000
,
0001
0100
0010
0100
,
0001
1000
1001
0000
,
0010
0010
1000
1000
,
0001
0000
0001
0000
0100
0001
0100
0000
,
0001
0010
0100
1000
,
0001
0000
0100
0000
0010
0100
0010
0000
,
0100
0100
0001
0001
,
1000
0001
0010
0001
,
1000
0010
1000
1000
,
0001
1000
0001
0000
0000
0000
1001
0000
,
1001
0000
0000
0010
,
0010
0100
0001
0000
,
1000
0100
0010
0001
,
1000
0000
0010
0100
0010
0000
0000
0000
,
0100
0001
0010
0001
,
1000
0000
0010
1000
0010
0000
0000
0000
,
1000
0001
1000
0000
,
0001
0100
0010
0100
,
0101
0000
1001
0000
,
0001
0010
0001
0001
,
0100
0100
0010
1000
,
0001
1000
1000
1000
,
0001
0100
0010
0010
,
0100
0001
0010
0100
,
1000
0001
0001
0100
,
0010
0100
0001
0001
,
1000
0001
0000
1001
,
1001
0000
0000
0010
,
0100
0000
0100
0001
0100
0000
0001
0000
,
1000
0000
0010
1000
0010
0000
1000
0000
,
0001
0000
0010
0001
0010
0000
0001
0000
,
0100
0000
0010
0100
0010
0000
0100
0000
,
0001
0000
1000
0100
1000
0000
0001
0000
,
1000
0000
0001
0100
0001
0000
0100
0000
,
0001
0000
0010
0001
0010
0000
0001
0000
,
1000
0000
0010
1000
0010
0000
1001
0000
,
1001
0000
0000
0000
;

//--------------- dance-single - Alex ----------------
#NOTES:
     dance-single:
     Alex:
     Hard:
     8:
     0,0,0,0,0:
0000
0000
0000
0000
,
0000
0000
0000
0000
,
0000
0000
0000
0000
,
0000
0000
0000
0000
,
1001
0000
0110
0000
0010
0100
0010
0000
,
1000
0100
0010
0000
0001
0100
0010
0000
,
0101
0000
1010
0000
0010
1000
0100
0000
,
1000
0010
1000
0010
1000
0001
1000
0001
,
1000
0000
0001
1000
0001
0000
1000
0000
,
0001
0010
0100
1000
0010
0100
0001
1000
,
0010
0000
1000
0010
1000
0000
0001
0000
,
1000
0100
0010
0001
1000
0010
0100
0000
,
0001
0000
0010
0001
0010
0000
0001
0000
,
1000
0000
0000
0000
0010
0000
1000
0000
0010
1000
0000
1000
0010
0000
0000
0000
,
0000
1000
0001
0010
0100
1000
0001
0100
,
0000
0010
1000
0100
0000
2002
0000
3003
,
0000
0000
0001
0000
1000
0000
0010
0100
0002
0000
0000
0000
0013
0000
0000
0000
,
0000
0000
0100
0000
1000
0000
0010
1000
0000
0000
0001
0000
0100
0000
0010
0000
,
0000
0000
0100
0000
0001
0000
1000
0100
2000
0000
0000
0000
3010
0000
0000
0000
,
0000
0000
0010
0000
1000
0000
0001
1000
0000
0000
0001
0000
0100
0000
0010
0000
,
0100
0000
0000
0000
0001
0000
1000
0000
0100
1000
0000
1000
0100
0000
0000
0000
,
0000
0000
1000
0000
0010
0000
1000
0010
0000
0000
1000
0000
0001
0000
0100
0000
,
0010
0000
0100
0000
0001
0010
0100
1000
,
0001
1000
0020
0000
0000
0000
0030
0000
,
0100
0000
0000
0100
0000
0000
0100
0000
0000
0000
0001
0000
1000
0001
0000
0001
,
1000
0000
0001
0100
0020
0000
0030
0000
,
0000
0000
0100
0000
0001
0000
1000
0100
0000
0000
1000
0000
0010
0000
1000
0000
,
0001
0000
1000
0010
0200
0000
0301
0000
,
0000
0000
0001
0000
1000
0000
0001
0010
0000
0000
0001
0000
0100
0000
0010
0000
,
0100
0000
0001
1000
0200
0000
1300
0000
,
0000
0000
0000
0000
1000
0000
0010
0000
1000
0010
0000
0010
0100
0000
0000
0000
,
0000
0001
1000
0100
0010
0001
0100
0010
,
0000
0100
0001
1000
0000
2002
0000
3003
,
0000
0000
0001
0000
1000
0000
0010
1000
0002
0000
0000
0000
0103
0000
0000
0000
,
0000
0000
0100
0000
0001
0000
1000
0100
0000
0000
0010
0000
0001
0000
0100
0000
,
0000
0000
0010
0000
1000
0000
0001
1000
0020
0000
0000
0000
1030
0000
0000
0000
,
0000
0000
1000
0000
0001
0000
0100
0001
0000
0000
0100
0000
0001
0000
0100
0000
,
0010
0000
0000
0000
0010
0000
1000
0000
0100
1000
0000
1000
0100
0000
0000
0000
,
0000
0000
0010
0000
0001
0000
0100
0001
0000
0000
0100
0000
0010
0000
0100
0000
,
0001
0000
1000
0000
0010
1000
0001
1000
,
0010
0100
0002
0000
0000
0000
0003
0000
,
1000
0000
0000
1000
0000
0000
1000
0000
0000
0000
0001
0000
0100
0001
0000
0001
,
0100
0000
0001
0010
0001
0000
1000
0010
,
1000
0000
0001
1000
0100
0000
0010
0001
,
0100
0000
0010
0100
0010
0000
0100
0001
,
0100
0000
0001
1000
0001
0000
1000
0010
,
1000
0000
0001
0010
0100
0000
1000
0100
,
0010
0000
0001
0100
0010
0000
0100
0001
,
0010
0000
0001
1000
0010
0000
1000
0100
,
1000
0000
0000
0000
0001
0000
0100
0000
0010
0000
0100
0000
0001
1000
0000
1000
,
0002
0000
0000
0003
0000
0000
0000
0000
;

//--------------- dance-single - Alex ----------------
#NOTES:
     dance-single:
     Alex:
     Challenge:
     9:
     0,0,0,0,0:
0000
0000
0000
0000
,
0000
0000
0000
0000
,
0000
0000
0000
0000
,
0000
0000
0000
0000
,
0001
0000
0100
0000
0010
0000
0100
0000
0001
0000
0010
0000
0100
0000
1000
0100
,
1000
0000
0001
0000
0100
0000
0010
0100
0010
0000
0100
0000
0001
0000
0000
0000
,
1000
0100
0010
0001
1000
0010
0100
0001
,
0011
0010
0110
0100
1100
1100
1010
1010
,
1001
0000
0000
0000
0101
0000
0000
0001
0100
0000
0010
0000
0100
0000
0000
0000
,
0001
0000
0010
0000
0100
0000
1000
0100
0000
0100
1000
0000
0001
0000
0100
0000
,
0010
0000
0100
0001
0100
0000
0001
0000
1000
0000
0010
1000
0001
0000
0010
0000
,
0100
0000
1000
0000
0001
0000
0100
0010
0000
0000
0100
0000
0001
0000
0010
0000
,
0100
0000
1000
0010
1010
0000
0101
0000
,
0001
0000
0100
0000
0010
0000
0100
0000
0001
0100
0000
0100
0001
0000
0000
0000
,
1000
0010
0100
0001
0010
0100
1000
0020
,
0000
0000
0130
0000
0001
0000
1000
0100
1000
0000
0001
0000
0200
0000
0300
0000
,
0001
0000
0010
0100
1000
0000
0001
0000
0100
0000
0010
0000
0100
0000
0001
0000
,
1000
0000
0010
1000
0001
0000
0010
0000
0100
0000
1000
0000
0001
0000
1000
0000
,
0100
0000
1000
0100
1000
0000
0010
0000
0100
0000
0001
0000
0010
0000
0001
0000
,
0100
0000
0001
0100
0001
0000
0100
0000
0010
0000
0100
0000
0001
0000
1000
0000
,
1001
0000
0000
0000
0110
0000
0000
0000
0010
0100
0000
0202
0000
0303
0000
0000
,
0001
0000
1000
0000
0010
0000
1000
0010
0000
0010
1000
0000
1000
0000
0001
1000
,
0000
1000
0010
0000
0100
0000
0001
0100
0000
0100
0001
0000
1000
0000
0100
0000
,
0010
0001
0100
0010
0100
0001
1000
0010
,
1010
0000
0000
0101
0000
0000
0011
0000
0000
0000
0101
0000
0010
0100
0000
0100
,
0020
0000
0130
0001
0020
0000
0230
0000
,
1300
0000
0010
0000
1000
0000
0001
0200
0000
0000
0310
0000
0010
0000
0100
0000
,
0002
0000
1003
0100
0020
0000
0032
0000
,
0103
0000
0100
0000
0010
0000
1000
0020
0000
0000
2030
0000
0000
0000
3001
0000
,
0101
0000
0010
1000
1100
0000
0011
0000
,
0001
0000
1000
0000
0010
0000
1000
0000
0001
0100
0000
0100
0020
0000
0000
0000
,
0130
0000
0100
0000
0001
0000
1000
0200
0000
0000
1300
0000
1000
0000
0010
0000
,
1010
1000
0001
0200
0000
0301
0010
0100
,
1100
0000
1000
0100
1000
0000
0010
0000
0100
0000
0001
0000
1000
0000
0010
0000
,
1000
0000
0001
0010
0001
0000
0100
0000
0001
0000
0010
0000
0100
0000
1000
0000
,
0001
0000
1000
0010
1000
0000
0001
0000
1000
0000
0100
0000
0010
0000
0001
0000
,
0100
0000
0010
0100
0010
0000
0100
0000
0001
0000
0010
0000
0100
0000
1000
0000
,
1100
0000
0000
0000
1000
0000
0010
0000
1000
0010
0000
0010
1000
0000
0000
0000
,
0001
0000
0100
0000
0010
0000
0100
0010
0000
0010
0100
0000
0001
0000
1000
0100
,
0000
0100
1000
0000
0001
0000
1000
0010
0000
0010
1000
0000
0001
0000
1000
0000
,
0100
0010
0001
0100
0010
0100
0001
1000
,
1010
0000
0000
1001
0000
0000
0011
0000
0000
0000
0001
0000
0100
0010
0000
0010
,
0100
0001
1001
1000
0010
1000
1100
0100
,
0010
0001
0101
0100
0001
1000
1010
0010
,
1000
0001
0011
0001
0100
0010
0110
0100
,
0001
0000
1000
0000
1100
0000
0100
0000
0010
0000
0001
0000
1000
0001
0000
0001
,
0100
0010
0110
0100
0001
0010
0011
0001
,
1000
0010
1010
1000
0001
0100
0101
0001
,
1000
0100
1100
1000
0010
0100
0101
0001
,
1000
0000
0001
0000
1001
0000
0001
0000
0100
0000
0010
0000
0100
0001
0000
0001
,
2000
0000
0000
3000
0000
0000
0000
0000
;
