#TITLE:K.O.A -Alice In Wonderland-;
#SUBTITLE:;
#ARTIST:Banya Production;
#TITLETRANSLIT:;
#SUBTITLETRANSLIT:;
#ARTISTTRANSLIT:;
#GENRE:;
#CREDIT:;
#MUSIC:K.O.A -Alice In Wonderland-.ogg;
#BANNER:K.O.A -Alice In Wonderland-.png;
#BACKGROUND:K.O.A -Alice In Wonderland--BG.png;
#CDTITLE:;
#SAMPLESTART:3.535;
#SAMPLELENGTH:9.583;
#SELECTABLE:YES;
#OFFSET:-0.122;
#BPMS:0.000=156.000;
#STOPS:;
#BGCHANGES:;
#FGCHANGES:;

//--------------- dance-single - Alex ----------------
#NOTES:
     dance-single:
     Alex:
     Beginner:
     1:
     0,0,0,0,0:
0000
0000
0000
0000
,
0000
0000
0000
0000
,
0000
1001
0000
0000
,
0000
0001
0000
0000
,
0000
1000
0000
0000
,
0000
0010
0000
0000
,
0000
1000
0000
0000
,
0000
0100
0000
0000
,
0000
1000
0000
0000
,
0000
0001
0000
0000
,
0000
0100
0000
0000
,
0000
0001
0000
0000
,
0000
0001
0000
0000
,
0000
0010
0000
0000
,
0000
0001
0000
0000
,
0000
1000
0000
0000
,
0000
0100
0000
0000
,
0000
1000
0000
0000
,
0000
1001
0000
0000
,
0000
0010
0000
0000
,
0000
1000
0000
0000
,
0000
0001
0000
0000
,
0000
1000
0000
0000
,
0000
0100
0000
0000
,
0000
0100
0000
0000
,
0000
1000
0000
0000
,
0000
0010
0000
0000
,
0000
0010
0000
0000
,
0000
1000
0000
0000
,
0000
0001
0000
0000
,
0000
1000
0000
0000
,
0000
1000
0000
0000
,
0000
0010
0000
0010
,
0000
0010
0000
0000
,
0000
1001
0000
0000
,
0000
0001
0000
0000
,
0000
0100
0000
0000
,
0000
0001
0000
0000
,
0000
1000
0000
0000
,
0000
0001
0000
0000
,
0000
0010
0000
0000
,
0000
0001
0000
0000
,
0000
0100
0000
0000
,
0000
0110
0000
0000
,
0000
0010
0000
0000
,
0000
0010
0000
0000
,
0000
1000
0000
0000
,
0000
0001
0000
0000
,
0000
1000
0000
0000
,
0000
0001
0000
0001
,
0000
0001
0000
0000
,
0000
1001
0000
0000
,
0000
0001
0000
0000
,
0000
0100
0000
0000
,
0000
0010
0000
0010
,
0000
0010
0000
0000
,
0000
1000
0000
0000
,
0000
1000
0000
0000
,
0000
0001
0000
0000
,
0000
1001
0000
0000
,
0000
1000
0000
0000
,
0000
0010
0000
0010
,
0000
0010
0000
0010
;

//--------------- dance-single - Alex ----------------
#NOTES:
     dance-single:
     Alex:
     Easy:
     3:
     0,0,0,0,0:
0000
0000
0000
0000
,
0000
0000
0000
0000
,
0000
0010
0000
0100
,
0000
0001
0000
1000
,
0000
0001
0001
1000
,
1000
0200
0000
0300
,
0000
0110
0000
0001
,
0000
1000
0000
0010
,
0000
1000
1000
0001
,
0001
1000
0000
2002
,
3003
0010
0000
1000
,
0000
0001
0000
0001
,
0000
0100
0000
0001
,
0000
0001
0000
1000
,
1000
0010
0000
1000
,
0000
1000
0000
0010
,
0000
0100
0000
0001
,
0000
0001
0000
1000
,
0000
1001
0000
0010
,
0010
0010
0000
1000
,
1000
1000
0000
0001
,
0000
0100
0000
0010
,
0000
1001
0000
0001
,
0001
0001
0000
1000
,
1000
1000
0000
0010
,
0000
1000
0000
0001
,
0000
0200
0000
0310
,
0000
0010
0010
0010
,
0000
1000
0000
0001
,
0000
1000
0000
0001
,
0000
0200
0000
0301
,
0000
0010
0010
0010
,
0000
1000
0000
0001
,
0000
1000
1000
0001
,
0001
0200
0000
0300
,
0000
1001
0000
0001
,
0000
1000
0000
0001
,
0000
0100
0000
0010
,
0000
1000
0000
0001
,
1000
0001
0000
1000
,
0000
0010
0000
1000
,
0000
0001
0000
0010
,
0000
0002
0000
0003
,
0000
0101
0000
0100
,
0000
0001
0000
1000
,
0000
0001
0000
1000
,
0000
0010
0010
0010
,
0000
2002
0000
3003
,
0000
0220
0000
0330
,
0000
0100
0100
0001
,
0001
0010
0000
0011
,
0000
0001
0000
0100
,
0000
0001
0000
0001
,
0000
1000
0000
0010
,
0000
1000
0010
1000
,
0000
0001
0000
1000
,
0000
0001
0000
0100
,
0100
0100
0000
0001
,
0000
1000
0000
0010
,
0010
0010
0000
1000
,
0000
0001
0000
0100
,
0000
0001
0010
0001
,
0000
1000
0100
0100
,
2002
3003
0000
0000
;

//--------------- dance-single - Alex ----------------
#NOTES:
     dance-single:
     Alex:
     Medium:
     5:
     0,0,0,0,0:
0000
0000
0000
0000
,
0000
0000
0000
0000
,
0000
0001
0001
0101
,
0101
1000
0010
1010
,
1010
1000
0001
0100
,
0010
0000
1000
0001
1000
0001
2000
0000
,
3000
0000
0001
0000
1000
0001
0000
1000
,
0000
0010
0000
0100
0000
0001
0000
2000
,
0000
3000
0101
0000
0101
0000
1010
0000
,
1010
0000
0010
0100
0010
0100
0020
0000
,
0030
0110
0010
0010
,
1000
0000
0001
0000
0100
0000
0001
0100
,
0001
1000
0010
1000
,
1000
0000
0001
0000
1000
0000
0100
1000
,
0100
1000
0001
1000
,
0010
0000
1000
0000
1000
0000
0001
1000
,
0001
0100
0010
1000
,
0001
0000
0010
0001
0010
0001
0020
0000
,
0030
1001
0001
0100
,
0010
2000
3000
0001
,
0010
0002
0003
0100
,
0010
1000
0001
0011
,
0011
0200
0300
0001
,
1000
0010
0001
0010
,
1000
0001
0001
1000
,
1000
0010
0100
0001
,
1000
1001
1001
0110
,
0110
0010
1000
0001
,
0010
0011
0011
1100
,
1100
1000
1000
0001
,
0001
0101
0101
0110
,
0110
0010
1000
0001
,
1000
1010
1010
0101
,
0101
0001
0001
1000
,
1000
2020
0000
0000
,
3030
1000
0001
1000
,
1000
0000
0001
0000
0100
0000
0010
0100
,
0010
0100
0001
0010
,
0100
0000
0010
0000
0001
0000
1000
0001
,
1000
0001
0001
1000
,
0010
0000
1000
0000
0001
0000
1000
0100
,
1000
0001
0001
0100
,
0100
0220
0000
0330
,
0000
0100
0100
0101
,
0101
1000
1000
1010
,
1010
1001
1001
0101
,
0101
0000
0001
1000
0001
1000
0002
0000
,
0003
1000
0010
2000
,
3000
0001
0100
0002
,
0003
0011
0011
1100
,
1100
0000
1000
0010
1000
0010
2000
0000
,
3000
0001
1000
0001
,
0001
1000
0010
0100
,
0100
0010
1000
0001
,
0010
0001
0100
0220
,
0330
0100
0001
0010
,
0100
0010
0001
1000
,
0010
1000
1000
0001
,
0001
0100
0010
1000
,
1000
0000
0001
0000
0100
0001
0000
0010
,
0000
0100
0000
1000
0000
0001
0000
0200
,
0000
0300
0001
0000
0001
0000
1000
0000
,
1000
0000
0001
1000
0001
1000
0001
0000
,
2002
3003
0000
0000
;

//--------------- dance-single - Alex ----------------
#NOTES:
     dance-single:
     Alex:
     Hard:
     8:
     0,0,0,0,0:
0000
0000
0000
0000
,
0000
0000
0000
0000
,
0000
0000
0000
0000
0002
0000
0003
0100
0010
0000
0100
0000
0001
0000
0000
0000
,
1001
0000
0000
0000
0200
0000
0300
0010
1000
0000
0001
0000
0100
0000
0000
0000
,
0101
0000
2020
3030
2200
3300
0022
0033
,
0202
0303
0010
1000
0001
0100
0020
0030
,
2000
3000
0002
0003
0010
0002
0003
0200
,
0300
0020
0030
2000
3000
0200
0300
0020
,
0000
0030
0001
0100
0010
1000
0001
0010
,
0100
1000
0001
0100
0010
1000
0001
0000
,
1001
0000
0001
0100
0000
0100
0001
0000
,
0001
0000
1000
0010
0000
0010
1000
0010
,
1000
0000
0001
0010
0000
0010
0001
0000
,
0001
0000
0001
0100
0000
0100
0010
0100
,
0020
0030
1000
0001
0000
0001
1000
0000
,
1000
0000
0001
0100
0000
0100
0001
0100
,
0001
0000
1000
0010
0000
0010
1000
0000
,
0001
0000
1000
0100
0000
0100
1000
0100
,
1000
0001
0200
0000
0300
0000
0010
1000
,
0001
0010
0200
0000
0300
0000
1000
0001
,
1000
0001
0200
0000
0300
0000
0001
0010
,
0001
0000
0001
0100
0010
1000
0001
0010
,
0100
1000
0002
0000
0003
0000
1000
0010
,
1000
0000
0000
0000
0010
0000
0000
0000
0100
0000
0001
1000
0000
0000
0001
0000
,
1000
0010
2000
3000
0002
0003
1000
0010
,
0010
1000
0001
0100
0100
0001
0010
0100
,
1000
0001
0100
0001
1000
0001
0100
0000
,
0101
0000
0100
0010
1000
0010
0100
0000
,
0110
0000
0010
1000
0001
0000
1000
0010
,
1000
0000
0001
0010
0001
0100
0010
0100
,
0001
0010
0100
1000
0100
0000
1000
0001
,
1000
0000
0001
0100
0001
0000
0100
0010
,
0100
0000
0001
0010
0001
0000
0100
0010
,
1000
0000
0001
1000
0100
1000
0001
0100
,
0010
0100
2002
0000
0000
0000
0000
0000
,
3003
0000
0001
0100
0001
0100
0010
0100
,
0001
0000
1000
0010
1000
0001
1000
0010
,
1000
0000
0001
1000
0100
1000
0001
1000
,
0001
0000
0100
0010
0100
0001
0010
0100
,
1000
0001
1000
0010
0100
0001
0100
0010
,
0100
0000
0001
0010
0001
0100
0010
1000
,
0010
0000
1000
0001
1000
0010
1000
0001
,
0100
0000
0010
0100
0001
1000
2020
0000
,
3030
0000
0000
0000
0020
0000
0030
0100
0001
0000
1000
0000
0001
0000
0000
0000
,
1001
0000
0000
0000
2000
0000
3000
0001
0100
0000
0001
0000
1000
0000
0000
0000
,
0010
0000
2020
3030
2200
3300
2002
3003
,
0202
0303
0001
0010
0100
1000
0001
0000
,
0100
0000
0000
0000
0020
0000
0030
1000
0001
0000
1000
0000
0010
0000
0000
0000
,
1010
0000
0000
0000
2000
0000
3000
0001
1000
0000
0001
0000
0100
0000
0000
0000
,
0010
0000
0220
0330
0202
0303
0022
0033
,
2002
3003
0001
0100
0010
1000
0001
0000
,
1000
0000
0001
0100
0001
0100
0010
0100
,
0001
0000
1000
0100
0010
0100
1000
0001
,
0100
0000
0010
1000
0001
0000
1000
0010
,
1000
0000
0001
0100
0001
0100
0010
0100
,
0001
0010
0200
0000
0000
1300
0000
1000
,
1000
0001
0100
0000
0010
0000
1000
0001
,
0010
0001
0200
0000
0000
0301
0000
0001
,
1000
0000
0010
1000
0010
1000
0001
0100
,
0010
0100
0002
0003
1000
0002
0003
2000
,
3000
0020
0030
0200
0300
0002
0003
0020
,
0000
0030
0001
1000
0010
0100
0001
1000
,
0100
0010
0001
0100
0010
1000
0001
0000
,
2002
3003
0000
0000
;

//--------------- dance-single - Alex ----------------
#NOTES:
     dance-single:
     Alex:
     Challenge:
     10:
     0,0,0,0,0:
0000
0000
0000
0000
,
0000
0000
0000
0000
,
0000
0000
0000
0000
0000
0000
0000
0000
0000
0000
0000
0000
0001
0000
0000
0000
0000
0000
1000
0000
0000
0010
0000
0000
1000
0000
0000
0000
0000
0000
0001
0000
0000
0000
0000
0000
0100
0020
0000
0000
0000
0000
0000
0000
0030
0000
0000
0000
,
0100
0002
0000
0000
0000
0000
0000
0000
0003
0000
0000
0000
0100
0000
0000
0000
0000
0000
0010
0000
0000
1000
0000
0000
0001
0000
0000
0000
0000
0000
0010
0000
0000
0000
0000
0000
0001
2000
0000
0000
0000
0000
0000
0000
3000
0000
0000
0000
,
0010
0200
0000
0000
0000
0000
0000
0000
0300
0000
0000
0000
0022
0000
0000
0000
0000
0000
0033
0000
0000
0000
0000
0000
0202
0000
0000
0000
0000
0000
0303
0000
0000
0000
0000
0000
2020
0000
0000
0000
0000
0000
3030
0000
0000
0000
0000
0000
,
2200
0000
3300
0000
1000
0001
0100
0010
1000
0001
0010
0100
2000
0000
0000
3000
,
0020
0000
0000
0030
0102
0000
0000
0003
0100
0000
0020
0000
0000
0000
2030
0000
,
0000
3002
0000
0203
0000
0320
0000
2000
,
0000
0000
3030
0000
0010
1000
0010
0100
0010
1000
0001
0010
0001
0100
0001
0100
,
0010
0100
0001
0010
0100
1000
0001
1000
0010
0100
0001
1000
0020
0000
0000
0030
,
0200
0000
0000
0300
1001
0000
0001
0000
0100
0000
1000
0000
0100
0000
0001
0000
,
1001
0000
1000
0010
0100
0001
0010
0100
,
1100
0000
1000
0001
0100
0000
0010
0000
0100
0000
0001
0000
1000
0000
0010
0000
,
1000
0010
1000
0000
0001
0000
0100
0000
1000
0000
0100
0000
0001
0000
1000
0000
,
1001
0000
1001
0000
0001
0000
0100
0000
0010
0000
0100
0000
0001
0010
0001
0000
,
0101
0000
0100
0010
0100
0001
1000
0010
,
1010
0000
0010
1000
0001
0000
0001
0000
0100
0000
0100
0000
0010
0000
1000
0000
,
1001
0000
0000
0000
0001
0000
1000
0000
0100
0000
1000
0000
0001
0100
0010
0100
,
0001
0010
0100
1000
0001
0000
0100
0000
1000
0000
0100
0000
0001
0000
1000
0010
,
2000
3000
0001
0100
0002
0003
0100
0000
0010
0000
0100
0000
0001
0000
0010
0001
,
0020
0030
0001
0100
0002
0003
0100
0000
0010
0000
1000
0000
0001
0010
0100
1000
,
0001
0000
0100
0010
1000
0000
0001
0000
0100
0001
0010
0100
1000
0000
0001
0000
,
0100
0010
2020
3030
0202
0303
0001
0010
,
0100
0000
0010
0000
0022
0000
0033
0000
0101
0000
0001
0200
0000
0300
0010
1000
,
0010
1000
0001
1000
0001
0000
0100
0000
0010
0000
0100
0000
0001
0010
0001
0010
,
0100
0000
1000
0001
0100
0000
0010
0000
1000
0001
1000
0001
0100
0000
0010
0000
,
0100
0000
0001
0000
0101
0000
0010
1000
0002
0003
0100
0010
1000
0010
1000
0001
,
0100
0010
0100
0001
0200
0300
0001
1000
0200
0300
1000
0001
0100
0010
1000
0001
,
0010
0000
0100
0000
1000
0000
0001
0000
0101
0000
0001
0000
0100
0000
0010
1000
,
0010
1000
0001
0100
0001
0000
0100
0000
0100
0000
0010
0000
0010
0000
1000
0000
,
0001
0000
1001
0000
0002
0003
0100
0010
2000
3000
0001
0010
0100
1000
0001
0100
,
0010
0100
0001
0100
0020
0030
0100
0001
2000
3000
0001
0010
0001
0100
0010
1000
,
0002
0003
0200
0300
0010
0000
1010
0000
1000
0000
1001
0000
0001
0100
0010
0100
,
0002
0003
1000
0010
0100
0000
0001
0000
0100
0001
0010
0001
0100
0000
0010
0000
,
0100
0001
2002
0000
0000
0000
0000
3003
,
0000
0000
0001
1000
0010
1000
0001
0100
,
0001
0010
0100
1000
0001
0100
0010
0100
,
0001
1000
0001
1000
0001
0000
0100
0000
1000
0001
0000
0001
1000
0000
1000
0000
,
0010
0000
1000
0000
0001
0000
0100
0000
0001
0000
0100
0000
0010
0100
0001
1000
,
0010
1000
0001
0100
0001
0000
0100
0000
0010
0000
0100
0000
0001
0000
0010
0000
,
0100
1000
0001
1000
0010
1000
0001
1000
,
0010
0000
0100
0000
0100
0001
0000
0001
0100
0000
0010
1000
0000
1000
0001
1000
,
0001
0100
0001
1000
0010
0000
0000
0110
0000
0000
0101
0000
0001
1000
0010
0100
,
0001
0000
0000
1000
0000
0000
0100
0000
0000
0010
0000
0000
0001
0000
0000
0000
0000
0000
1000
0000
0000
0010
0000
0000
0100
0000
0000
0000
0000
0000
0001
0000
0000
0000
0000
0000
0010
0002
0000
0000
0000
0000
0000
0000
0003
0000
0000
0000
,
0100
0020
0000
0000
0000
0000
0000
0000
0030
0000
0000
0000
1000
0000
0000
0000
0000
0000
0001
0000
0000
1000
0000
0000
0001
0000
0000
0000
0000
0000
1000
0000
0000
0000
0000
0000
0100
2000
0000
0000
0000
0000
0000
0000
3000
0000
0000
0000
,
0001
0020
0000
0000
0000
0000
0000
0000
0030
0000
0000
0000
0022
0000
0000
0000
0000
0000
0033
0000
0000
0000
0000
0000
2002
0000
0000
0000
0000
0000
3003
0000
0000
0000
0000
0000
2020
0000
0000
0000
0000
0000
3030
0000
0000
0000
0000
0000
,
0220
0000
0330
0000
0001
1000
0010
1000
0001
1000
0001
0100
0020
0000
0000
0030
,
0200
0000
0000
0000
0000
0000
0000
0000
0000
0300
0000
0000
0001
0000
0000
0000
0000
0000
0010
0000
0000
0001
0000
0000
0010
0000
0000
0000
0000
0000
0001
0000
0000
0000
0000
0000
0100
0020
0000
0000
0000
0000
0000
0000
0030
0000
0000
0000
,
1000
0002
0000
0000
0000
0000
0000
0000
0003
0000
0000
0000
0100
0000
0000
0000
0000
0000
0001
0000
0000
1000
0000
0000
0010
0000
0000
0000
0000
0000
0100
0000
0000
0000
0000
0000
0001
2000
0000
0000
0000
0000
0000
0000
3000
0000
0000
0000
,
0001
0200
0000
0000
0000
0000
0000
0000
0300
0000
0000
0000
0220
0000
0000
0000
0000
0000
0330
0000
0000
0000
0000
0000
0202
0000
0000
0000
0000
0000
0303
0000
0000
0000
0000
0000
0022
0000
0000
0000
0000
0000
0033
0000
0000
0000
0000
0000
,
2002
0000
3003
0000
0010
0100
0001
0100
0010
0100
0001
0010
0002
0000
0000
0003
,
0200
0000
0000
0300
1001
0000
0001
1000
0020
0030
0100
0001
1000
0001
1000
0001
,
0100
0001
1000
0010
0100
0000
0001
0010
0002
0003
0100
0010
0100
0010
0100
0001
,
0010
0000
0001
0000
0101
0000
0100
0000
0001
0000
0010
0000
0100
0000
1000
0001
,
1000
0001
0100
0001
1000
0010
1000
0010
1000
0001
1000
0001
0100
0001
0100
0000
,
0001
1000
0010
0000
1010
0000
1000
0000
0001
0000
0100
0000
0010
0000
0100
0000
,
0001
1000
0010
1000
0001
0010
0001
0100
,
0010
0000
1000
0000
1001
0000
0001
0100
0000
0100
0001
0000
0100
0000
1000
0000
,
0100
0000
0001
0000
0010
0001
0010
0000
0100
0000
1000
0001
0000
0001
1000
0000
,
0010
1000
0010
1000
0020
0000
0030
0000
0100
0000
0002
0000
0000
0000
2003
0000
,
0000
3020
0000
2030
0000
3002
0000
0023
,
0000
0000
0000
0030
0001
0100
0010
0100
0001
0010
0100
1000
0001
1000
0010
1000
,
0001
0100
0001
1000
0010
0100
0001
0010
0100
1000
0001
0100
0020
0000
0000
0030
,
0200
0000
0000
0300
2002
0000
0000
0000
0000
0000
0000
0000
0000
0000
0000
0000
,
3003
0000
0000
0000
;
