#TITLE:Jonathan's Dream;
#SUBTITLE:;
#ARTIST:MAX&Seorryang;
#TITLETRANSLIT:;
#SUBTITLETRANSLIT:;
#ARTISTTRANSLIT:;
#GENRE:;
#CREDIT:;
#MUSIC:Jonathan's Dream.ogg;
#BANNER:Jonathan's Dream.png;
#BACKGROUND:Jonathan's Dream-BG.png;
#CDTITLE:;
#SAMPLESTART:69.626;
#SAMPLELENGTH:16.920;
#SELECTABLE:YES;
#OFFSET:-0.251;
#BPMS:0.000=140.000;
#STOPS:;
#BGCHANGES:;
#FGCHANGES:;

//--------------- dance-single - Alex ----------------
#NOTES:
     dance-single:
     Alex:
     Beginner:
     1:
     0,0,0,0,0:
0000
0000
0000
0000
,
0000
0000
0000
0000
,
0000
0000
0000
0000
,
0000
0000
0000
0000
,
0000
0000
0000
0100
,
0000
0000
0000
0100
,
0000
0000
0000
0010
,
0000
0000
0000
2002
,
0000
0000
0000
3003
,
0000
0000
0000
1001
,
0000
0000
0000
0010
,
0000
0000
0000
1000
,
0000
0000
0000
0001
,
0000
0000
0000
0001
,
0000
0000
0000
0100
,
0000
0000
0000
0010
,
0000
0000
0000
0110
,
0000
0000
0000
0001
,
0000
0000
0000
0001
,
0000
0000
0000
1000
,
0000
0000
0000
0010
,
0000
0000
0000
1000
,
0000
0000
0000
0100
,
0000
0000
0000
0100
,
0000
0100
0000
0100
,
0000
0000
0000
1000
,
0000
0000
0000
0001
,
0000
0000
0000
0001
,
0000
0000
0000
1000
,
0000
0000
0000
0010
,
0000
0000
0000
0100
,
0000
0000
0000
0010
,
0000
0010
0000
0020
,
0000
0030
0000
0200
,
0000
0300
0000
0001
,
0000
0000
0000
1000
,
0000
0000
0000
0200
,
0000
0300
0000
2000
,
0000
3000
0000
0001
,
0000
0000
0000
1000
,
0000
0000
0000
1001
,
0000
0000
0000
0010
,
0000
0000
0000
1000
,
0000
0000
0000
0100
,
0000
0000
0000
0100
,
0000
0000
0000
1000
,
0000
0000
0000
0001
,
0000
0000
0000
0001
,
0000
0000
0000
1001
,
0000
0000
0000
0010
,
0000
0000
0000
0100
,
0000
0000
0000
0100
,
0000
0000
0000
0001
,
0000
0000
0000
0001
,
0000
0000
0000
1000
,
0000
1000
0000
1000
,
0000
0000
0000
1001
,
0000
0000
0000
0010
,
0000
0000
0000
0010
,
0000
0000
0000
1000
,
0000
0000
0000
0001
,
0000
0000
0000
1000
,
0000
0000
0000
0100
,
0000
0000
0000
1001
;

//--------------- dance-single - Alex ----------------
#NOTES:
     dance-single:
     Alex:
     Easy:
     3:
     0,0,0,0,0:
0000
0000
0000
0000
,
0000
0000
0000
0000
,
0000
0000
0000
0000
,
0000
0000
0000
0000
,
0000
0000
0000
2000
,
3000
0020
0030
0200
,
0300
0001
1000
0020
,
0030
0200
0300
1001
,
0000
0000
0000
0001
,
0000
1000
0000
0001
,
0000
0100
0010
0100
,
0000
0001
0000
1000
,
0000
0010
1000
0010
,
0000
1000
0000
0100
,
0000
1000
0100
1000
,
0000
0001
0000
2002
,
0000
3003
0000
0010
,
0000
0010
0000
1000
,
0000
0001
0000
0100
,
0000
0100
0000
0001
,
0000
1000
0000
0001
,
0000
0010
0000
0001
,
0000
1000
0000
0010
,
0000
1000
0000
0001
,
1000
0020
0030
1001
,
0000
0001
0000
0001
,
0000
0100
0000
0100
,
0000
0001
0000
1000
,
0010
1000
0000
0001
,
0000
1000
0000
0100
,
0000
0100
0000
1000
,
0000
0010
0000
0100
,
0000
0001
0100
0002
,
0000
1003
0000
1000
,
1000
0010
0000
0200
,
0000
0310
0000
2002
,
0000
3003
0000
2000
,
0000
3001
0000
0001
,
0001
0100
0000
0010
,
0000
0100
0000
0110
,
0000
0000
0000
1001
,
0000
0001
0000
1000
,
0000
0001
1000
0001
,
0000
1000
0000
0001
,
0000
1000
0100
1000
,
0000
0010
0000
0100
,
0000
0001
0010
0001
,
0000
1000
0000
0010
,
0000
1001
0000
0100
,
0100
0100
0000
0001
,
0001
0001
0000
1000
,
1000
1000
0000
0010
,
0000
1000
0000
0001
,
0001
0001
0000
0100
,
0100
0100
0000
0010
,
0010
0100
0100
2002
,
0000
3003
0000
1001
,
0000
0001
0000
1000
,
0000
1000
0000
0001
,
0000
1000
0000
0010
,
0000
0100
0000
0110
,
0000
0010
0000
1000
,
0000
0001
0000
1000
,
0000
0001
1000
0002
,
0000
0003
0000
0000
;

//--------------- dance-single - Alex ----------------
#NOTES:
     dance-single:
     Alex:
     Medium:
     5:
     0,0,0,0,0:
0000
0000
0000
0020
,
0000
0030
0000
0200
,
0000
0300
0000
0002
,
0000
0000
0000
0003
,
1000
0000
0001
0000
1000
0001
0000
1000
,
0000
0010
0000
1000
0000
0001
0000
0100
,
0000
0010
0000
0000
0010
0000
0100
0000
,
0000
0110
0000
2002
,
0000
0000
3003
0110
,
0010
1000
0001
0010
,
0010
0001
0001
1000
,
0100
0010
0100
1000
,
0001
0000
0100
0001
0100
0000
0001
0000
,
0100
0010
0100
0001
,
0010
0100
0010
0001
,
1000
0000
0010
1000
0010
0000
2002
0000
,
0000
3003
0000
0110
,
0010
1000
0001
0010
,
0001
0100
0010
1000
,
1000
0001
0001
1000
,
0100
0010
0000
0001
,
0001
0100
0010
0100
,
0001
1000
0010
1000
,
0001
0001
0100
0010
,
0000
1001
0000
0002
,
0100
0103
0000
0200
,
0010
0310
0000
2000
,
0001
3001
0000
0002
,
0010
0013
0000
0200
,
0010
0310
0000
2000
,
0100
3100
0000
2000
,
0001
3001
0000
1001
,
0000
0000
0010
0100
0010
0100
0020
0000
,
0030
0200
0000
0000
0300
0000
0001
0000
,
1000
0020
0030
2000
,
3000
0002
0000
0003
0100
0000
0020
0000
,
0030
2000
0000
0000
3000
0000
0002
0000
,
0003
0020
0000
0030
0001
0000
0100
0000
,
0001
1000
0010
0200
,
0300
0020
0030
2002
,
0000
3003
0000
0001
,
0001
0100
0100
0001
,
1000
0010
1000
0001
,
0010
0100
0010
0001
,
0100
0010
1000
0100
,
1000
0010
0010
1000
,
1000
0001
1000
0010
,
0100
0001
0010
0100
,
0000
1001
0000
0001
,
0001
1000
1000
0010
,
0100
0001
0010
0100
,
0010
0001
1000
0010
,
1000
0001
0001
0100
,
0010
0100
0001
1000
,
0100
0010
0001
1000
,
0001
0100
0010
0220
,
0000
0000
0330
1001
,
0001
0000
0100
0000
0010
0000
0100
0001
,
0000
0001
0000
1000
0000
1000
0000
0001
,
0000
0001
0000
0100
0000
0100
0000
0010
,
0000
0010
0000
1000
0000
0001
0010
0000
,
0001
0000
0100
0000
0010
0000
1000
0010
,
0000
1000
0000
0001
0000
0100
0000
0010
,
0000
0100
0000
0001
1000
0001
0200
0000
,
0000
0000
0000
0300
;

//--------------- dance-single - Alex ----------------
#NOTES:
     dance-single:
     Alex:
     Hard:
     8:
     0,0,0,0,0:
0000
0000
0000
2000
,
0000
0000
3000
0020
,
0000
0000
0030
0200
,
0000
0000
0000
0300
,
0001
0000
1000
0000
0010
0200
0300
0002
,
0003
2000
3000
0200
0300
0020
0030
0002
,
0003
0200
0300
0010
1000
0001
0020
0000
,
0030
0001
2000
0000
3000
0000
2002
0000
,
0000
0000
0000
0000
0000
0000
0000
0000
3003
0000
0000
0000
0001
0000
0000
1000
,
0000
0000
0010
0000
0100
0000
0000
0001
0000
0000
0020
0000
0000
0030
0001
0000
,
0000
0100
0000
0000
0001
0000
0000
1000
0000
0000
0010
0000
1000
0000
0000
0001
,
0000
0100
0001
0000
0100
0000
0000
0010
0000
0000
1000
0000
0000
0000
0001
0000
,
1000
0000
0010
1000
0000
1000
0010
0000
0100
0000
0001
0000
0010
0000
0000
0010
,
0000
0000
0001
0000
1000
0000
0000
0010
0000
0000
0200
0000
0000
0300
0001
0000
,
0000
0001
0000
0000
0100
0000
0000
0100
0000
0000
0010
0000
1000
0000
0000
0001
,
0000
0010
0001
0000
0100
0000
0000
0010
0000
0000
0100
0000
2002
0000
0000
0000
,
0000
0000
3003
0000
0000
0000
0002
0003
,
0200
0300
0020
0030
2000
3000
0002
0003
,
0020
0030
0002
0003
2000
3000
0020
0030
,
2000
3000
0200
0300
0020
0030
0002
0003
,
0200
0300
0020
0030
1000
0001
0020
0030
,
0002
0003
0200
0300
2000
3000
0200
0300
,
0002
0003
0020
0030
2000
3000
0020
0030
,
0002
0003
2000
3000
0200
0300
0020
0030
,
0002
0003
0100
0010
0100
0001
2000
0010
,
0000
0010
0000
0010
0000
3010
0200
0001
,
0000
0001
0000
0001
0000
0301
2000
0010
,
0000
0010
0000
0010
0000
3010
2000
0100
,
0000
0100
0000
0100
0000
3100
2000
0001
,
0000
0001
0000
0001
0000
3001
0200
0010
,
0000
0010
0000
0010
0000
0310
0020
0100
,
0000
0100
0000
0100
0000
0130
0002
1000
,
0000
1003
0010
0100
0001
0010
0001
0000
,
1000
0020
0030
0100
0001
0010
0002
0003
,
2000
3000
0010
0200
0300
0001
0020
0030
,
0001
2000
3000
0001
0100
0010
0200
0000
,
0300
0020
0000
0000
0030
0000
2000
0000
,
3000
0000
0002
0000
0000
0003
0100
0000
0010
0000
0100
0000
0002
0000
0003
0000
,
0020
0030
0200
0300
0020
0030
0002
0000
,
0003
0100
0020
0000
0030
0000
2002
0000
,
0000
0000
0000
0000
3003
0000
0001
1000
,
0010
1000
0001
0100
0001
0010
0100
0010
,
0001
0100
0010
0100
0001
1000
0100
0010
,
0100
1000
0001
0100
0010
0100
0001
0010
,
0100
1000
0001
0010
0001
1000
0010
1000
,
0001
1000
0001
0100
0010
0100
0001
0010
,
0100
0010
0001
0100
0010
0100
0001
1000
,
0100
0010
0100
1000
0001
0100
0010
0100
,
0001
1000
0010
0000
1001
0000
0001
0001
,
1000
0000
0010
0000
1000
0000
1000
0000
0001
0010
0001
0000
0001
0000
1000
0000
,
0001
0000
0100
0000
0010
0000
0100
0000
0001
1000
0001
0000
1000
0000
0010
0000
,
0100
0000
0001
0000
0010
0000
0001
0000
1000
0010
1000
0000
0001
0000
0100
0000
,
0010
0000
0100
0000
0001
0000
0010
0000
0001
0010
0001
0000
0100
0000
0010
0000
,
0100
0000
0001
0000
0010
0000
0100
0000
1000
0100
1000
0000
0010
0000
0100
0000
,
0001
0000
1000
0000
0010
0000
1000
0000
0001
0010
0001
0000
0100
0000
0010
0000
,
0100
0001
1000
0100
0010
0001
2002
0000
,
0000
0000
3003
1001
,
0010
0000
0100
0000
0001
0000
1000
0020
,
0030
2000
3000
0002
0003
0200
0300
0020
,
0030
0200
0300
0002
0003
0020
0030
0200
,
0300
0020
0030
0002
0003
0100
0010
0000
,
1000
0000
0001
0000
0010
0000
0001
2000
,
3000
0020
0030
2000
3000
0002
0003
0200
,
0300
0000
0010
0000
1000
0000
0001
1000
0001
0000
0100
0000
0220
0000
0000
0000
,
0000
0000
0000
0330
;

//--------------- dance-single - ----------------
#NOTES:
     dance-single:
     :
     Challenge:
     11:
     0,0,0,0,0:
0000
0000
0000
0000
0001
1000
2200
0000
,
3300
0000
0001
0000
0200
0000
0000
0000
0000
0300
0010
0000
2000
0000
0000
3000
,
0001
0020
0000
0030
0002
0000
0203
0000
,
0000
0300
0020
0000
0000
0000
0000
0000
0000
0000
0000
0000
0030
0000
0000
0000
,
2000
0000
0000
0000
0000
0000
0000
0000
0000
0000
0000
0000
0000
0000
0000
0000
0000
0000
0000
3000
0000
0000
0000
0000
0002
0000
0000
0000
0000
0000
0000
0000
0000
0000
0000
0000
0000
0000
0000
0000
0000
0000
0003
0000
0000
0000
0000
0000
0200
0000
0000
0000
0000
0000
0300
0000
0000
0000
0000
0000
0020
0000
0000
0000
0000
0000
0000
0000
0000
0000
0000
0000
0000
0000
0000
0000
0000
0000
0030
0000
0000
0000
0000
0000
2000
0000
0000
0000
0000
0000
0000
0000
0000
0000
0000
0000
,
0000
3000
0200
0000
0000
0300
0002
0000
0000
0003
0200
0000
0000
0300
2000
0000
,
0000
3000
0020
0000
0000
0030
1000
0000
0001
0000
0010
0000
0002
0000
0000
0000
,
0000
0003
0100
0000
0020
0000
0000
0000
0000
0000
0030
0000
1000
0000
0001
0000
,
0100
0000
0010
0000
1000
0001
0010
0100
1000
0001
0100
0010
1010
0000
0010
1000
,
0000
1000
0010
0000
0100
0000
0001
0100
0000
0100
0001
0000
1001
0000
0001
0010
,
0000
0010
0001
0000
0001
1000
0000
1000
0010
0000
1000
0000
1010
0000
0010
1000
,
0000
1000
0100
0000
1000
0000
0010
1000
0000
1000
0002
0000
0000
0003
0100
0000
,
0010
0000
0100
0001
0010
0100
1000
0000
1001
0000
0110
0000
0010
0100
0000
0100
,
0001
0000
0001
1000
0010
0000
0010
1000
0000
1000
0001
0000
0101
0000
0001
0100
,
0000
0100
0001
0000
1000
0000
0010
1000
0000
1000
0010
0000
1010
0000
0010
0100
,
0000
0100
0001
0010
0100
0000
0100
1000
0000
1000
0010
0000
2002
0000
0000
0000
,
0000
0000
3003
2002
,
0010
0100
3013
0202
,
0010
1000
0313
2200
,
0001
0010
3301
0022
,
0100
1000
0133
2002
,
0100
0100
3103
2020
,
0100
0100
3130
0022
,
0100
0100
0133
2020
,
0100
0000
3030
0000
0001
0000
0100
0000
0010
1000
0100
0010
0002
0003
0200
0300
,
0020
0030
2000
3000
0200
0300
0020
0030
0002
0003
0100
0001
0020
0030
0200
0300
,
0020
0030
0002
0003
0200
0300
2000
3000
0200
0300
0001
0010
0002
0003
2000
3000
,
0020
0030
2000
3000
0200
0300
0020
0030
2000
3000
0010
0100
2000
3000
0002
0003
,
0020
0030
0200
0300
0020
0030
0002
0003
0200
0300
1000
0100
0020
0030
2000
3000
,
0020
0030
0002
0003
0020
0030
2000
3000
0002
0003
0010
0001
0200
0300
2000
3000
,
0200
0300
0020
0030
2000
3000
0200
0300
0002
0003
0100
1000
0020
0030
0002
0003
,
0020
0030
2000
3000
0002
0003
0020
0030
0002
0003
0100
0010
0200
0300
0002
0003
,
0020
0030
0200
0300
1000
0001
0010
0100
1000
0001
0100
0010
0200
0300
0002
0003
,
0020
0030
0200
0300
0020
0030
0002
0003
0100
0010
1000
0001
0022
0000
0000
0033
,
2200
0000
0000
3300
1010
0000
0202
0000
0000
0303
1010
0000
0020
0030
0002
0003
,
0200
0300
2000
3000
0200
0300
0002
0003
0010
0100
1000
0001
0020
0000
0000
0030
,
0001
0000
0202
0000
0000
0000
0303
0000
0110
0000
0000
0000
0020
0030
2000
3000
,
0200
0300
0020
0030
2000
3000
0020
0030
0100
0001
0010
0100
2000
3000
0020
0030
,
2000
3000
0002
0003
0020
0030
0002
0003
0100
0010
0100
0001
0022
0000
0000
0000
,
0033
1100
2020
0000
3030
0000
0010
1000
,
0001
0000
0010
0000
0010
0100
0010
0100
0010
0100
0010
0100
0010
0001
0100
0010
,
0100
0001
0010
0100
1000
0001
1000
0010
1000
0001
0010
0001
0100
0010
0100
0001
,
0010
0100
0010
0001
0100
0010
0100
0001
1000
0010
1000
0001
0010
0001
0100
0001
,
0100
0010
1000
0100
0010
0100
1000
0010
1000
0001
0010
0100
0010
0001
0100
0010
,
0100
0001
1000
0010
1000
0001
0010
0001
0100
0010
1000
0100
0010
0001
0100
0010
,
0100
0001
0010
0100
1000
0001
0010
0001
1000
0010
1000
0001
1000
0100
0010
0001
,
1000
0010
0100
0001
0010
0100
1000
0001
0100
0010
0100
0001
0010
0001
1000
0010
,
1000
0100
0010
0100
1000
0001
0100
0010
0100
0001
0010
0100
1000
0001
0100
0001
,
1000
0010
0100
0001
1000
0000
0000
0000
1111
0000
0000
0000
0001
0010
0001
0010
,
0001
0010
0001
0010
0100
1000
0100
1000
0100
1000
0100
1000
0100
0010
0001
1000
,
0100
0010
0001
1000
0010
1000
0001
0010
0100
1000
0001
0100
0001
0100
0001
0100
,
0010
0100
0010
1000
0010
1000
0010
1000
0010
1000
0001
0010
0100
1000
0010
0100
,
0001
1000
0100
0010
0001
0100
0010
0100
0001
1000
0001
0100
0001
0010
0100
0010
,
0001
1000
0010
1000
0001
1000
0100
0010
0001
1000
0010
0100
0001
0010
0001
0100
,
0001
0100
0010
1000
0100
0010
0100
1000
0001
0100
0010
0100
0001
1000
0010
1000
,
0001
0010
0100
1000
0001
0100
0010
1000
0100
0010
0001
1000
2002
0000
0000
0000
,
0000
0000
0000
0000
3003
0000
0001
1000
,
0010
0100
0001
0010
0001
1000
0010
1010
,
0100
0101
0001
0011
0100
0110
1000
1001
,
0001
0011
1000
1010
0100
0101
0001
1001
,
1000
0000
1100
0000
0010
0000
1100
0000
0010
0000
0001
0100
0001
0000
0001
0000
,
0100
0010
0100
0001
0010
0100
1000
0001
,
1001
1000
1010
0010
0110
0100
1100
0100
,
0011
0000
1000
0000
0110
0000
1000
0001
1000
0000
0110
0000
2002
0000
0000
0000
,
0000
0000
0000
3003
;
