#TITLE:Ignition Starts;
#SUBTITLE:;
#ARTIST:Banya;
#TITLETRANSLIT:;
#SUBTITLETRANSLIT:;
#ARTISTTRANSLIT:;
#GENRE:;
#CREDIT:;
#MUSIC:Ignition Starts.ogg;
#BANNER:Ignition Starts.png;
#BACKGROUND:Ignition Starts-BG.png;
#CDTITLE:;
#SAMPLESTART:24.666;
#SAMPLELENGTH:13.471;
#SELECTABLE:YES;
#OFFSET:-0.068;
#BPMS:0.000=146.050;
#STOPS:;
#BGCHANGES:;
#FGCHANGES:;

//--------------- dance-single - Alex ----------------
#NOTES:
     dance-single:
     Alex:
     Beginner:
     1:
     0,0,0,0,0:
0000
0000
0000
0000
,
0010
0000
0000
0000
,
0000
0000
0000
0000
,
0100
0000
0000
0000
,
0000
0000
0000
0000
,
0001
0000
0000
0000
,
0000
0000
0000
0000
,
1000
0000
0000
0000
,
0001
0000
0000
0000
,
1001
0000
0000
0000
,
1000
0000
0000
0000
,
0010
0000
0000
0000
,
0100
0000
0000
0000
,
0001
0000
0000
0000
,
1000
0000
0000
0000
,
0001
0000
0000
0000
,
0100
0000
0000
0000
,
0001
0000
0000
0000
,
0001
0000
0000
0000
,
1000
0000
0000
0000
,
0010
0000
0000
0000
,
0010
0000
0000
0000
,
1000
0000
0000
0000
,
1000
0000
0000
0000
,
0001
0000
0000
0000
,
1001
0000
0000
0000
,
0000
0000
0000
0000
,
0010
0000
0000
0000
,
0000
0000
0000
0000
,
0110
0000
0000
0000
,
0000
0000
0000
0000
,
1000
0000
0000
0000
,
0001
0000
0000
0000
,
1001
0000
0000
0000
,
1000
0000
0000
0000
,
0001
0000
0000
0000
,
0001
0000
0000
0000
,
1000
0000
0000
0000
,
0010
0000
0000
0000
,
0100
0000
0000
0000
,
0100
0000
0000
0000
,
0001
0000
0000
0000
,
0010
0000
0000
0000
,
0001
0000
0000
0000
,
0001
0000
0000
0000
,
1000
0000
0000
0000
,
1000
0000
0000
0000
,
0010
0000
0000
0000
,
0010
0000
0000
0000
,
0100
0000
0000
0000
,
0000
0000
0000
0000
,
0000
0000
0000
0000
,
1001
0000
0000
0000
;

//--------------- dance-single - Alex ----------------
#NOTES:
     dance-single:
     Alex:
     Easy:
     3:
     0,0,0,0,0:
0000
0000
0000
0000
,
0001
0000
0000
0000
,
1000
0000
0000
0000
,
0001
0000
0000
0000
,
1000
0000
0001
0000
,
1000
0000
0000
0000
,
0001
0000
0000
0000
,
1000
0000
0000
0000
,
0001
0000
1000
0000
,
0001
0000
0001
0000
,
0100
0100
0100
0000
,
0001
0000
1000
0000
,
0010
0010
0010
0000
,
1000
0000
0001
0000
,
1001
0000
0000
0000
,
0001
0000
1000
0000
,
0001
0001
0001
0000
,
1000
0000
0010
0000
,
1000
0000
0001
0000
,
0001
0000
0100
0000
,
0010
0000
1000
0000
,
0100
0000
0100
0000
,
1000
0000
0001
0000
,
1000
0000
0010
0000
,
0100
0000
0001
0000
,
1001
0000
0000
0000
,
0110
0000
0000
0000
,
1000
0000
0001
0000
,
1000
0000
0000
0000
,
1001
0000
0000
0000
,
0110
0000
0000
0000
,
1001
0000
0000
0000
,
0110
0000
0000
0000
,
0010
0000
0100
0000
,
0001
0000
0001
0000
,
1000
0000
0010
0000
,
1000
0000
1000
0000
,
0001
0000
0010
0000
,
0001
0000
0001
0000
,
0100
0000
0010
0000
,
1000
0000
1000
0000
,
0001
0000
0001
0000
,
1000
1000
0100
0000
,
1000
0000
0010
0000
,
0100
0100
0100
0000
,
0001
0000
1000
0000
,
0001
0001
0010
0000
,
0001
0000
1000
0000
,
0010
0010
0010
0000
,
1001
0000
0000
0000
,
0110
0000
0000
0000
,
1001
0000
0000
0000
,
0110
0000
0000
0000
;

//--------------- dance-single - Alex ----------------
#NOTES:
     dance-single:
     Alex:
     Medium:
     5:
     0,0,0,0,0:
0000
0000
0000
0000
,
0100
0000
0000
0000
0000
0000
0000
0010
,
0100
0000
0000
0000
0000
0000
0000
0010
,
0100
0000
0000
0000
0000
0000
0000
0010
,
0100
0000
0000
0000
0000
0000
0000
0001
,
1000
0000
0000
0000
0000
0000
0000
0001
,
1000
0000
0000
0000
0000
0000
0000
0001
,
1000
0000
0000
0000
0000
0000
0000
0001
,
1000
0000
1001
0000
,
0001
1000
0010
1000
,
0001
0100
0001
0000
1001
0000
0000
0000
,
0001
0010
0100
0010
,
0001
0100
0001
0000
1001
0000
0000
0000
,
1001
0000
1001
0000
,
2002
0000
3003
0000
,
0001
0100
0010
1000
,
0100
1000
0100
0000
1100
0000
0000
0000
,
1000
1000
0001
0001
,
0100
0000
0100
0000
0010
0100
0010
0000
,
0100
0001
0010
0001
,
1000
0000
0010
0000
1000
0100
1000
0000
,
0001
0100
0010
0100
,
0001
0000
0010
0000
0001
0100
0001
0000
,
1000
1000
0010
0010
,
1000
0000
0001
0000
0010
0001
0010
0000
,
1001
0000
0000
0000
,
0110
0000
0000
0000
,
1001
0000
0000
0000
,
0110
0000
0000
0000
,
0100
0000
0001
0000
,
1000
0000
0010
0000
,
1000
0000
0001
0000
,
1001
0000
0000
0000
,
0001
0100
0010
0100
,
0001
1000
0100
0100
,
1000
0010
0100
0001
,
0010
0001
1000
1000
,
0001
0100
0010
0100
,
0001
0010
0100
0010
,
0001
1000
0010
1000
,
0001
1000
0100
0100
,
1000
0010
1000
0001
,
0010
0001
0100
0100
,
0010
1000
0001
0010
,
0100
0010
0001
0100
,
0010
0010
1000
0001
,
1000
0100
0100
1000
,
1000
0001
0100
0010
,
0100
0001
0010
0100
,
1001
0000
0000
0000
0000
0000
0000
0001
,
1000
0000
0000
0000
0000
0000
0000
0001
,
1000
0000
0000
0000
,
1001
0000
0000
0000
;

//--------------- dance-single - Alex ----------------
#NOTES:
     dance-single:
     Alex:
     Hard:
     8:
     0,0,0,0,0:
0000
0000
0000
0000
,
0001
0000
0000
1000
0000
0000
0001
0000
0000
1000
0000
0000
0010
0000
0100
0000
,
0001
0000
0000
1000
0000
0000
0100
0000
0000
1000
0000
0000
0001
0000
1000
0000
,
0010
0000
0000
0100
0000
0000
0001
0000
0000
0010
0000
0000
0001
0000
0100
0000
,
0001
0000
0000
1000
0000
0000
0001
0000
1000
0000
0010
0000
0010
0000
1000
0000
,
0001
0000
0000
0010
0000
0000
0001
0000
0000
0100
0000
0000
0010
0000
0100
0000
,
0001
0000
0000
0010
0000
0000
0001
0000
0000
1000
0000
0000
0010
0000
1000
0000
,
0001
0000
0000
1000
0000
0000
0100
0000
0000
0010
0000
0000
0001
0000
0100
0000
,
0001
0000
0000
0100
0000
0000
0010
0000
1000
0000
0001
0000
0010
0000
0100
0000
,
1000
0001
1000
0000
0001
0100
0001
0000
,
0010
0001
0100
0010
0000
0010
1000
0000
,
0001
1000
0001
0000
1000
0001
0010
0000
,
0001
0100
0010
0100
0000
0001
0100
0000
,
0010
1000
0001
0000
1000
0001
0100
0000
,
2002
0000
0000
3003
0000
0000
0000
0000
,
0001
1000
0010
0000
0100
0001
0010
0000
,
0011
0000
0000
0001
0100
0010
0100
0000
,
0001
1000
0100
0000
1000
0001
0010
0000
,
0001
0100
0010
0100
0001
0000
0101
0000
,
0001
0010
0001
0000
1000
0010
1000
0000
,
0001
1000
0100
1000
0001
0000
1001
0000
,
0001
1000
0010
0000
0100
0001
0010
0000
,
0001
0100
0010
0100
0001
0000
0011
0000
,
0001
0010
0001
0000
1000
0010
1000
0000
,
0001
1000
0100
1000
0001
1000
0001
0000
,
1001
0000
0000
0000
,
0110
0000
0000
0000
,
1001
0000
0000
0000
,
0110
0000
0000
0000
,
1001
0000
1001
0000
,
0110
0000
0110
0000
,
1001
0000
0011
0000
,
0202
0000
0303
0000
,
0001
0100
0001
0000
0100
0010
0100
0000
,
0001
1000
0100
1000
0001
1000
0010
0000
,
1000
0001
0100
0000
0001
0010
0001
0000
,
0100
0010
0100
0001
0100
0010
0100
0000
,
0001
0010
0001
0000
1000
0010
1000
0000
,
0001
1000
0100
1000
0001
1000
0010
0000
,
1000
0001
0010
0000
0001
0100
0010
0000
,
0100
0001
0010
0100
1000
0001
1000
0000
,
0001
0100
0001
0000
0100
0010
0100
0000
,
0001
0010
0001
0100
0001
0010
0010
0000
,
0001
1000
0010
0000
1000
0001
0010
0000
,
0001
1000
0100
0100
1000
0001
0100
0000
,
0010
1000
0001
0000
0010
0001
1000
0000
,
0010
1000
0100
1000
0010
1000
0001
0000
,
0001
0100
0010
0000
0100
0001
0010
0000
,
0001
0100
0010
0010
0100
0001
1000
0000
,
0001
0000
0000
1000
0000
0000
0001
0000
0000
1000
0000
0000
0010
0000
0100
0000
,
0001
0000
0000
0010
0000
0000
0001
0000
0000
0100
0000
0000
0010
0000
1000
0000
,
0100
0000
0000
1000
0000
0000
0001
0000
0000
0100
0000
0000
0010
0000
1000
0000
,
2002
0000
0000
0000
,
3003
0000
0000
0000
;

//--------------- dance-single - Alex ----------------
#NOTES:
     dance-single:
     Alex:
     Challenge:
     9:
     0,0,0,0,0:
0000
0000
0000
0000
,
0001
0000
0000
1000
0000
0000
0010
0000
0000
1000
0000
0000
0001
0000
0100
0000
,
0001
0000
0000
0010
0000
0000
0001
0000
0000
0100
0000
0000
0010
0000
1000
0000
,
0100
0000
0000
0010
0000
0000
0001
0000
0000
1000
0000
0000
0010
0000
1000
0000
,
0001
0000
0000
0100
0000
0000
0010
0000
1000
0001
1000
0000
0001
0000
0100
0010
,
0100
0000
0000
0001
0000
0000
0010
0000
0000
0001
0000
0000
0100
0000
0010
0000
,
0100
0000
0000
0001
0000
0000
1000
0000
0000
0100
0000
0000
1000
0000
0010
0000
,
1000
0000
0000
0001
0000
0000
0010
0000
0000
0001
0000
0000
0100
0000
0001
0000
,
0100
0000
0000
0010
0000
0000
0100
0000
0001
1000
0010
0000
1000
0000
0001
0100
,
0001
0100
0001
0000
1000
0000
0010
1000
0000
1000
0001
0100
0010
0000
0100
0000
,
0001
0010
0001
0000
1000
0000
0010
1000
0000
1000
0010
0000
1010
0000
0000
0000
,
0010
1000
0100
0000
1000
0000
0001
1000
0000
1000
0001
0100
0001
0000
0100
0000
,
0001
0010
0001
0010
0001
0000
0100
0001
0000
0001
0100
0000
0110
0000
0000
0000
,
0010
1000
0100
0000
1000
0000
0010
1000
0000
1000
0001
0000
1000
0001
1000
0001
,
1000
0000
0000
0000
1001
0000
0000
1001
0000
0000
0000
1001
0000
1001
0000
0000
,
0001
1000
0001
0000
0001
0000
1000
0010
0000
0010
1000
0001
1000
0000
0001
0000
,
0100
0001
0100
0001
0100
0000
0100
0001
0000
0001
0100
0000
0110
0000
0000
0000
,
0010
1000
0001
0000
1000
0000
0001
0100
0010
0100
0001
0000
1000
0000
0000
0000
,
0001
0010
0001
0000
1000
0000
0010
1000
0010
0100
0010
0000
1000
0000
0000
0000
,
0001
1000
0010
0000
1000
0000
0001
1000
0001
1000
0001
0000
0100
0000
0000
0000
,
0001
0010
0100
0000
1000
0000
0001
1000
0010
1000
0001
0000
0100
0000
0000
0000
,
0001
0010
0001
0000
1000
0000
0100
1000
0100
1000
0100
0000
1000
0000
0000
0000
,
0010
1000
0010
0000
1000
0000
0001
1000
0001
1000
0001
0000
0100
0000
0000
0000
,
0001
0010
0001
0000
0100
0000
0010
0100
0001
0100
0010
0000
0100
0000
0000
0000
,
0001
0010
0100
0000
1000
0000
0001
1000
0010
1000
0001
0000
0100
0000
0001
0000
,
1001
0000
0000
0000
,
0110
0000
0000
0000
,
1000
0010
1000
0000
0001
0000
1000
0100
0000
0100
1000
0000
0001
0010
0100
0010
,
0100
0000
0000
0000
,
1001
0000
0110
0000
,
0011
0000
1100
0000
,
1000
0010
1000
0000
0001
0000
0100
0001
0000
0001
0100
0000
0001
0010
0001
0020
,
0002
0000
0000
0000
0000
0033
0000
0000
,
0001
1000
0010
0000
0100
0000
0001
1000
0100
0010
0001
0000
0100
0000
0010
0100
,
0010
0000
1000
0000
0001
0000
1000
0100
1000
0001
1000
0000
0010
0000
0100
0001
,
0100
0000
0001
0000
0010
0000
0001
0100
0010
0100
0001
0000
1000
0000
0001
1000
,
0010
0000
1000
0000
0001
0000
1000
0100
1000
0001
1000
0000
0010
0000
0100
0001
,
0100
0000
0001
0000
0010
0000
0001
0100
0010
0100
0001
0000
1000
0000
0001
1000
,
0010
0000
0100
0000
0001
0000
0010
0001
0100
0001
0100
0000
0010
0000
0100
0001
,
1000
0000
0100
0000
0010
0000
0001
1000
0010
1000
0001
0000
1000
0000
0001
0100
,
0001
0000
1000
0000
0100
0000
0010
0001
0100
0010
0100
0000
0001
0000
1000
0010
,
1000
0000
0001
0000
0100
0000
0010
0100
0001
0100
0001
0000
1000
0000
0001
1000
,
0010
0000
0100
0000
0001
0000
1000
0100
0010
0001
0100
0000
0010
0000
0100
0001
,
0100
0000
0001
0000
0010
0000
0001
0100
0010
0100
0001
0000
1000
0000
0001
1000
,
0001
0000
1000
0000
0001
0000
1000
0010
1000
0001
1000
0000
0001
0000
0100
0001
,
0100
0000
0001
0000
0010
0000
0001
0100
0010
0100
0001
0000
1000
0000
0001
0010
,
0100
0000
1000
0000
0001
0000
1000
0010
1000
0001
1000
0000
0100
0000
0010
0001
,
0100
0000
0010
0000
0100
0000
0001
0010
0001
0100
0001
0000
1000
0000
0010
1000
,
0010
0000
1000
0000
0001
0000
1000
0100
0010
0001
0100
0000
0010
0000
0100
0001
,
0100
0000
0000
0101
0000
0000
0110
0000
0000
1010
0000
0000
0010
0000
1000
0001
,
0101
0000
0000
0101
0000
0000
0011
0000
0000
1001
0000
0000
1000
0000
0010
1000
,
1100
0000
0000
0110
0000
0000
0011
0000
0000
0101
0000
0000
0100
0000
0010
1000
,
2002
0000
0000
0000
,
3003
0000
0000
0000
;
