#TITLE:I'll Give You All My Love;
#SUBTITLE:;
#ARTIST:Wax;
#TITLETRANSLIT:;
#SUBTITLETRANSLIT:;
#ARTISTTRANSLIT:;
#GENRE:;
#CREDIT:;
#MUSIC:I'll Give You All My Love.ogg;
#BANNER:I'll Give You All My Love.png;
#BACKGROUND:I'll Give You All My Love-BG.png;
#CDTITLE:;
#SAMPLESTART:46.439;
#SAMPLELENGTH:15.869;
#SELECTABLE:YES;
#OFFSET:-0.067;
#BPMS:0.000=164.000;
#STOPS:;
#BGCHANGES:;
#FGCHANGES:;

//--------------- dance-single - Alex ----------------
#NOTES:
     dance-single:
     Alex:
     Beginner:
     1:
     0,0,0,0,0:
0000
0000
0000
0000
,
0000
0000
0000
0000
,
0000
0000
0000
0000
,
0000
0000
0000
0000
,
0000
0000
0000
0000
,
0000
0000
0000
0000
,
0000
0000
0000
0000
,
0000
0000
0000
0000
,
1001
0000
0000
0000
,
0010
0000
0000
0000
,
1000
0000
0000
0000
,
0100
0000
0000
0000
,
1000
0000
0000
0000
,
1000
0000
0000
0000
,
0001
0000
0000
0000
,
0001
0000
0001
0000
,
0001
0000
0000
0000
,
0100
0000
0000
0000
,
0001
0000
0000
0000
,
1000
0000
0000
0000
,
1000
0000
0000
0000
,
0010
0000
0000
0000
,
0010
0000
0000
0000
,
1000
0000
1000
0000
,
1000
0000
0000
0000
,
0001
0000
0000
0000
,
1000
0000
0000
0000
,
0010
0000
0000
0000
,
0001
0000
0000
0000
,
0100
0000
0000
0000
,
2002
0000
0000
0000
,
3003
0000
0000
0000
,
0001
0000
0000
0000
,
1000
0000
0000
0000
,
0010
0000
0000
0000
,
0100
0000
0000
0000
,
0001
0000
0000
0000
,
0001
0000
0000
0000
,
1000
0000
0000
0000
,
0010
0000
0000
0000
,
1000
0000
0000
0000
,
0100
0000
0000
0000
,
0010
0000
0000
0000
,
1000
0000
0000
0000
,
0002
0000
0003
0000
,
0200
0000
0300
0000
,
1001
0000
0000
0000
,
0001
0000
0000
0000
,
1000
0000
0000
0000
,
0010
0000
0000
0000
,
1000
0000
0000
0000
,
0100
0000
0000
0000
,
0010
0000
0000
0000
,
0010
0000
0000
0000
,
1001
0000
0000
0000
,
0001
0000
0000
0000
,
1000
0000
0000
0000
,
1000
0000
0000
0000
,
0100
0000
0000
0000
,
0100
0000
0000
0000
,
1000
0000
0000
0000
,
0001
0000
0000
0000
,
1001
0000
0000
0000
,
0000
0000
0000
0000
0000
0000
0000
1001
0000
0000
0000
0000
0000
0000
0000
0000
0000
0000
0000
0000
0000
0000
0000
0000
0000
0000
0000
0000
0000
0000
0000
0000
;

//--------------- dance-single - Alex ----------------
#NOTES:
     dance-single:
     Alex:
     Easy:
     4:
     0,0,0,0,0:
0000
0000
0000
0000
,
0000
0000
0000
0000
,
0000
0000
0000
0000
,
0000
0000
0000
0000
,
0000
0000
0000
0000
,
0000
0000
0000
0000
,
0000
0000
0000
0000
,
0000
0000
0000
0000
,
0001
0000
0001
0000
,
1000
0000
1000
0000
,
0010
0000
0010
0000
,
0100
0000
0100
0000
,
0001
0001
0002
0003
,
1000
1000
2000
3000
,
0010
0000
1000
0000
,
0001
0000
0100
0100
,
1001
0000
0001
0000
,
1000
0000
0010
0000
,
1000
1000
2000
3000
,
0100
0100
0200
0300
,
1000
0000
0001
0000
,
1000
0000
0010
0000
,
0100
0100
0200
0300
,
0001
0001
0002
0003
,
1000
0000
0001
0000
,
0100
0000
0010
0000
,
1000
1000
2000
3000
,
0010
0010
0020
0030
,
0220
0000
0330
0000
,
2002
0000
3003
0000
,
0220
0000
0330
0000
,
1001
0000
0110
0000
,
0010
0010
0100
0100
,
0001
0000
0001
0000
,
1000
1000
0001
0001
,
1000
0000
0010
0000
,
1000
0100
1000
0000
,
0001
0100
0001
0000
,
1000
0000
0001
0000
,
0202
0000
0303
0000
,
0001
0001
0001
1000
,
0100
0000
0100
0000
,
1000
0010
1000
1000
,
0001
0000
0100
0000
,
2002
0000
3003
0000
,
0220
0000
0330
0000
,
0010
0000
0010
0000
,
1000
1000
1000
0000
,
0001
0000
0100
0000
,
0010
0010
0010
0000
,
1000
0000
0100
0000
,
1000
1000
1000
0000
,
0001
0000
0100
0000
,
0001
0001
0001
0000
,
1000
1000
0010
0010
,
1000
1000
2000
3000
,
0001
0001
0100
0100
,
0010
0010
0020
0030
,
0100
0100
0001
0001
,
1000
1000
0200
0300
,
1000
1000
0001
0001
,
0010
0010
0020
0030
,
1001
0000
0000
0000
0000
0000
0000
0000
0000
0000
0000
0000
0000
0000
0000
0000
0000
1001
0000
0000
0000
0000
0000
0000
0000
0000
0000
0000
0000
0000
0000
0000
,
0000
0000
0000
0000
0000
0000
0000
0110
0000
0000
0000
0000
0000
0000
0000
0000
0000
0000
0000
0000
0000
0000
0000
0000
0000
0000
0000
0000
0000
0000
0000
0000
;

//--------------- dance-single - Alex ----------------
#NOTES:
     dance-single:
     Alex:
     Medium:
     6:
     0,0,0,0,0:
0000
0000
0000
0000
,
0000
0000
0000
0000
,
0000
0000
0000
0000
,
0000
0000
0000
0000
,
0000
0000
0000
0000
,
0000
0000
0000
0000
,
0000
0000
0000
0000
,
0000
0000
0000
0000
,
0001
1000
0010
1000
,
0001
0100
0010
0100
,
0100
0001
1000
0100
,
1000
0001
0100
0010
,
0110
0100
0001
1000
,
1010
1000
1001
0001
,
0101
0100
0001
1000
,
0100
0000
1000
0000
0010
0000
0100
0001
,
2000
0000
0010
3010
,
0200
0000
0001
0301
,
0001
0000
1000
0010
0000
0010
1000
0000
,
0001
0100
0010
0100
,
0101
0001
0001
1000
,
0010
0000
1000
0000
0001
0000
0010
0001
,
0200
0000
0010
0310
,
2000
0000
0100
3100
,
1001
0001
0001
1000
,
0010
1000
0001
0010
,
0100
0000
1000
0010
1000
0000
0001
0000
,
0200
0010
0010
0310
,
2002
0000
3003
0000
,
0220
0000
0330
0000
,
0022
0000
0033
0000
,
2200
3300
1001
1001
,
0001
0100
0010
0100
,
0001
0000
1000
0100
0000
0100
1000
0000
,
0001
1000
1000
0001
,
0100
0000
0010
0100
0000
0100
0010
0000
,
1000
0001
0010
0001
,
1000
0010
1000
0001
,
0100
0000
0100
0000
0001
0000
1000
0100
,
1000
0001
2002
3003
,
0001
1000
0010
0100
,
0001
0000
0010
0001
0000
0001
0010
0000
,
0001
0100
0010
1000
,
0001
0000
1000
0100
0000
0100
1000
0000
,
0002
0000
1003
0000
,
2000
0000
3010
0010
,
0110
0100
0001
0001
,
1000
0000
0010
0000
1000
0100
1000
0000
,
0001
0100
0010
0100
,
0001
0000
0001
0000
1000
0001
1000
0000
,
0001
0010
0001
0100
,
0100
0000
0010
0000
1000
0100
0010
0000
,
0001
0100
0010
0100
,
0001
0000
1000
0000
0001
0010
0001
0000
,
0101
0100
0100
0010
,
0100
0000
0001
0000
0001
1000
0100
0000
,
1000
1000
0010
0100
,
0001
0000
1000
0000
0010
0100
0010
0000
,
0100
0100
0001
0010
,
0100
0000
0010
0000
0001
0100
0001
0000
,
0100
0100
0001
1000
,
0010
0000
1000
0000
0001
0100
0010
0000
,
1001
0000
0000
0000
0000
0000
0000
0000
0000
0000
0000
0000
0000
0000
0000
0000
0000
0100
0000
0000
0000
0000
0000
0000
0100
0000
0000
0000
0000
0000
0000
0010
,
0000
0000
0000
0000
0000
0000
0000
2002
0000
0000
0000
0000
0000
0000
0000
0000
0000
0000
0000
0000
0000
0000
0000
0000
0000
0000
0000
0000
0000
0000
0000
0000
,
0000
0000
0000
0000
,
0000
0000
0000
0000
0000
0000
0000
0000
0000
0000
0000
0000
0000
0000
0000
3003
;

//--------------- dance-single - Alex ----------------
#NOTES:
     dance-single:
     Alex:
     Hard:
     9:
     0,0,0,0,0:
0000
0000
0000
0000
,
0000
0000
0000
0000
,
0000
0000
0000
0000
,
0000
0000
0000
0000
,
0000
0000
0000
0000
,
0000
0000
0000
0000
,
0000
0000
0000
0000
,
0000
0000
0000
0000
,
0001
0000
0010
0000
0001
0010
0001
0000
,
0100
0000
0010
0000
1000
0100
0010
0000
,
0001
0000
1000
0010
1000
0001
0000
0001
,
0100
0010
0110
1001
,
0001
0010
0100
1000
0020
0000
0130
0000
,
0100
0001
1000
0010
2000
0000
3001
0000
,
0001
1000
0010
0000
1000
0001
0100
0000
,
0001
0000
0010
0000
0100
0000
1000
0000
0010
0000
0100
0000
0001
1000
0001
1000
,
0001
1000
0010
0000
1000
0001
0010
0000
,
0001
0000
0100
0000
1000
0000
0100
0001
,
0010
0100
1000
0010
1000
0000
1010
0000
,
1000
0001
0100
0010
1000
0000
1001
0000
,
0001
0010
0001
0000
0100
0010
1000
0000
,
0100
0010
0001
0100
,
0010
1000
0001
1000
0010
0000
1010
0000
,
0010
1000
0001
1000
0100
0000
1100
0000
,
1000
0100
1000
0000
0001
0100
0001
1000
,
0010
0000
0100
0000
0001
0000
1000
0100
,
0010
0000
0001
0100
0000
0100
0001
0000
,
1000
0000
0010
0000
1000
0001
0010
0100
,
2200
0000
3300
0000
,
0022
0000
0033
0000
,
0202
0000
0303
0000
,
2020
0000
3030
0000
1000
0001
0100
0001
,
1000
0010
1000
0000
0001
0010
0001
0000
,
1000
0010
1000
0001
1000
0100
1100
0000
,
1000
0010
1000
0000
0001
0010
0001
0000
,
0100
0010
0100
0001
0100
0010
0110
0000
,
0010
1000
0100
0010
0001
0100
0010
0100
,
0001
0010
0100
1000
1000
0001
1000
0010
,
0100
0000
0001
0000
1000
0000
0100
0010
,
0001
0100
0010
1000
,
0001
0010
0001
0000
1000
0010
1000
0000
,
0001
1000
0010
0100
0001
1000
1001
0000
,
0001
0010
0100
0000
1000
0010
1000
0000
,
0001
0100
0010
0100
0001
0010
0100
1000
,
0001
1000
0000
2002
0000
0000
3003
0000
,
0010
0100
0110
1001
,
0001
0010
0001
0100
0001
0010
0001
0100
,
0010
0100
0001
0010
0100
1000
0001
0000
,
1000
0010
1000
0001
1000
0100
1000
0010
,
1000
0001
0100
0010
0100
0001
1000
0000
,
0010
0100
0001
0100
0010
1000
0010
0100
,
0010
1000
0001
0010
0100
1000
0001
0000
,
1000
0010
1000
0001
1000
0100
0010
0001
,
0100
0010
0100
0001
1000
0010
1000
0000
,
0001
0001
1000
1000
0010
0010
0100
0100
,
0001
0010
0100
1000
0001
0100
0101
0000
,
0001
0001
1000
0010
0010
1000
0100
0100
,
1000
0001
0100
0010
0010
0100
0101
0000
,
0001
0010
0100
1000
1000
0001
1000
0010
,
0010
1000
0001
0100
0100
0001
1001
0000
,
0001
0010
0001
0001
0100
0010
1000
0100
,
0100
1000
0010
1000
0001
0100
0010
0100
,
0101
0000
0000
0000
0000
0000
0000
0000
0000
0000
0000
0000
0000
0000
0000
0000
0000
0011
0000
0000
0000
0000
0000
0000
1100
0000
0000
0000
0000
0000
0000
1010
,
0000
0000
0000
0000
0000
0202
0000
0000
0000
0000
0000
0000
0000
0000
0000
0000
0000
0000
0000
0000
0000
0000
0000
0000
0000
0000
0000
0000
0000
0000
0000
0000
,
0000
0000
0000
0000
,
0000
0000
0000
0000
0000
0000
0000
0000
0000
0000
0000
0000
0000
0000
0000
0000
0000
0000
0000
0000
0303
0000
0000
0000
0000
0000
0000
1000
0000
0001
0000
0100
;
