#TITLE:I Love You Baby;
#SUBTITLE:;
#ARTIST:Pandera;
#TITLETRANSLIT:;
#SUBTITLETRANSLIT:;
#ARTISTTRANSLIT:;
#GENRE:;
#CREDIT:;
#MUSIC:I Love You Baby.ogg;
#BANNER:I Love You Baby.png;
#BACKGROUND:I Love You Baby-BG.png;
#CDTITLE:;
#SAMPLESTART:31.712;
#SAMPLELENGTH:14.725;
#SELECTABLE:YES;
#OFFSET:0.013;
#BPMS:0.000=100.000;
#STOPS:;
#BGCHANGES:;
#FGCHANGES:;

//--------------- dance-single - Alex ----------------
#NOTES:
     dance-single:
     Alex:
     Beginner:
     1:
     0,0,0,0,0:
0000
0000
0000
0000
,
0000
0000
0000
0000
,
0000
0000
0000
0000
,
0000
0100
0000
0000
,
0000
0001
0000
0000
,
0000
1000
0000
0000
,
0000
1000
0000
0000
,
0000
0010
0000
0000
,
0000
0100
0000
0000
,
0000
0001
0000
0000
,
0000
1000
0000
0000
,
0000
0001
0000
0000
,
0000
0100
0000
0000
,
0000
1001
0000
0000
,
0000
0010
0000
0000
,
0000
0001
0000
0000
,
0000
1000
0000
0000
,
0000
0001
0000
0000
,
0000
0100
0000
0000
,
0000
0010
0000
0000
,
0000
0010
0000
0000
,
0000
0110
0000
0000
,
0000
1000
0000
0000
,
0000
0001
0000
0000
,
0000
1000
0000
0000
,
0000
0010
0000
0000
,
0000
0001
0000
0000
,
0000
0010
0000
0000
,
0000
1000
0000
0000
,
0000
1001
0000
0000
,
0000
0100
0000
0000
,
0000
0001
0000
0000
,
0000
0100
0000
0000
,
0000
0001
0000
0000
,
0000
0010
0000
0000
,
0000
1000
0000
0000
,
0000
0001
0000
0000
,
0000
1001
0000
0000
,
0000
1000
0000
0000
,
0000
0001
0000
0000
,
0000
1000
0000
0000
,
0000
0010
0000
0000
;

//--------------- dance-single - Alex ----------------
#NOTES:
     dance-single:
     Alex:
     Easy:
     2:
     0,0,0,0,0:
0000
0000
0000
0000
,
0000
0000
0000
0000
,
0000
0000
0000
0000
,
0000
1000
0000
0001
,
0000
1001
0000
1001
,
0000
0010
0000
1000
,
0000
0001
0000
0100
,
0000
0010
0000
0010
,
0000
1000
0000
0100
,
0000
1000
0000
0001
,
0000
1000
0000
1000
,
0000
0001
0000
0010
,
0000
0001
0000
1000
,
0000
1001
0000
1001
,
0000
0100
0100
0100
,
0000
0110
0000
0110
,
0000
0001
1000
0001
,
0000
1001
0000
1001
,
0000
1000
1000
1000
,
0000
1010
0000
1010
,
0000
0100
0100
0100
,
0000
0001
0000
0100
,
0000
0001
0000
1000
,
0000
0010
0000
1000
,
0000
0001
0000
0100
,
0000
0010
0000
0010
,
0000
1000
0000
1000
,
0000
0001
0000
1000
,
0000
0010
0000
0010
,
0010
1001
0000
1001
,
0000
0001
0100
0001
,
0000
0110
0000
0110
,
0000
0010
0010
0010
,
0000
1000
0000
0100
,
0000
1100
0000
0000
,
0000
0001
0000
0010
,
0000
0011
0000
0000
,
0000
0001
0000
1000
,
0000
0010
0000
0100
,
0000
0001
0000
0001
,
0000
1000
0000
0010
,
0000
1001
0000
0000
;

//--------------- dance-single - Alex ----------------
#NOTES:
     dance-single:
     Alex:
     Medium:
     5:
     0,0,0,0,0:
0000
0000
0000
0000
,
0000
0000
0000
0000
,
0000
0000
0000
0000
,
0000
0001
0001
1000
,
1000
0010
0100
1001
,
0000
0001
0010
0001
,
0001
0100
0010
0100
,
0100
0001
1000
0100
,
0100
1000
0001
1000
,
0000
0001
1000
0010
,
1000
0001
0010
0001
,
0001
0100
0010
0100
,
0001
1000
0100
1000
,
0000
1001
0000
1001
,
0000
0010
0100
0010
,
0000
0110
0000
0110
,
0000
0001
0010
0100
,
1000
1010
0000
1010
,
0000
0100
0001
0100
,
0000
1001
0000
1001
,
0000
0001
1000
0001
,
0100
0110
0010
1000
,
1000
0001
0100
0001
,
0010
0100
0010
0001
,
0100
0010
0010
1001
,
0000
1000
0001
1000
,
0001
1000
0010
0100
,
0001
1000
0001
0100
,
0001
0010
0100
0010
,
0001
0101
0000
0110
,
0000
0010
1000
0001
,
1000
1100
0000
1100
,
0000
1000
0001
0100
,
0010
0200
0302
2003
,
3020
0130
0001
1001
,
0000
2000
3002
0023
,
0032
0103
0001
0101
,
0000
0001
0001
0100
,
0100
0010
1000
0001
,
1000
0100
0100
1000
,
1000
0001
0100
0010
,
0100
1001
0000
0000
;

//--------------- dance-single - Alex ----------------
#NOTES:
     dance-single:
     Alex:
     Hard:
     8:
     0,0,0,0,0:
0000
0000
0000
0000
,
0000
0000
0000
0000
,
0000
0000
0000
0000
,
0000
0000
0001
1000
0010
0100
0001
0000
,
1000
0000
0100
1000
0010
1000
0100
0000
,
1001
0000
0001
1000
0010
1000
0001
0100
,
0010
0100
0000
0001
0010
0100
1000
0001
,
1000
0010
0000
1000
0001
1000
0010
1000
,
0001
0100
0000
0001
0010
0100
0010
0001
,
0100
0110
0000
0010
1000
0001
1000
1000
,
0001
0001
0000
0100
0001
1000
0010
1000
,
0001
0010
0000
0001
0100
0010
1000
0100
,
0010
0001
0000
0100
0010
0100
0001
0000
,
1001
0000
0001
0100
0010
0100
0002
0000
,
1003
0000
1000
1000
0001
0001
0100
0010
,
2000
0000
3010
0100
0001
0100
0020
0000
,
1030
0000
0000
0000
0001
0000
0000
1000
0000
0000
0010
0000
0100
0000
0001
0000
,
1001
0000
0001
0100
0010
0100
0020
0000
,
1030
0000
1000
0100
0001
0100
1000
0001
,
0020
0000
0031
0100
0010
0100
0002
0000
,
1003
0000
0000
0000
0001
0000
0000
0100
0000
0000
0010
0000
0000
1000
0000
0000
,
0002
0003
1000
0100
1000
0000
0001
0100
,
0001
0100
0010
0010
1000
1000
0001
0100
,
0010
0000
0100
0001
0010
0001
0100
0010
,
1000
0000
0001
1000
0010
0100
0001
1000
,
1100
0000
1000
1000
0001
0001
0100
0100
,
0010
0010
0100
0001
0010
0100
1000
0001
,
0100
0000
0010
1000
0010
1000
0001
0001
,
1000
1000
0001
0100
0001
0100
0010
1000
,
1001
0000
0001
0100
0010
0100
0001
0000
,
0101
0000
0001
1000
0010
1000
0001
0000
,
1001
0000
1000
0100
0010
0100
1000
0000
,
1001
0000
0001
0100
0010
0100
0001
0000
,
1001
0000
0000
0000
1000
0000
0000
1000
0000
0000
0001
0000
0000
0001
0000
0000
,
0100
0010
0100
0001
1000
0010
1000
0001
,
0011
0000
0000
0000
0001
0000
0000
0001
0000
0000
1000
0000
0000
1000
0000
0000
,
0010
0100
0001
0001
0100
0010
1000
0001
,
1001
0000
1000
0001
0100
0100
0001
1000
,
0010
1000
0000
0001
0010
0010
0001
0100
,
0010
0100
0000
0001
1000
0010
0100
0001
,
0010
0001
0000
1000
0010
0100
0001
0001
,
1000
1000
2002
0000
0000
3003
0000
0000
;

//--------------- dance-single - Alex ----------------
#NOTES:
     dance-single:
     Alex:
     Challenge:
     10:
     0,0,0,0,0:
0000
0000
0000
0000
,
0000
0000
0000
0000
,
0000
0000
0000
0000
,
0000
0000
0000
0000
0001
0000
0010
0000
0100
0000
0010
0001
0000
0001
0100
0000
,
0010
0000
1000
0000
0001
0000
1000
0000
0100
0000
1000
0010
0000
0010
1000
0000
,
0001
0000
1000
0000
0010
0100
0001
0100
0010
0100
0000
0100
0001
0010
0100
1000
,
0001
0000
1001
0000
0010
1000
0001
1000
0010
1000
0000
1000
0001
0100
0001
0100
,
0001
0000
0100
0000
0010
0100
0010
0000
0100
0000
0001
0000
0100
0000
0001
0000
0100
0000
0010
0000
0000
0000
0010
0000
1000
0000
0001
0000
1000
0000
0010
0000
,
1000
0000
1001
0000
0100
0001
0100
0010
1000
0100
0000
0100
1000
0010
0100
0001
,
1000
0001
1001
0000
0001
0100
0010
1000
0100
0010
0000
0010
0001
0100
0010
0100
,
0001
0000
1001
0000
0001
1000
0010
0100
0010
1000
0000
1000
0001
1000
0010
1000
,
0001
0000
1000
0000
0010
1000
0010
0000
1000
0000
0001
0000
0100
0000
0010
0000
0100
0000
0001
0000
0000
0000
1000
0000
0100
0000
1000
0000
0001
0000
1000
0000
,
0010
0000
1010
0000
0010
1000
0001
0100
0010
0100
0000
0100
0001
0010
0100
1000
,
0001
1000
1010
0000
0010
0000
1000
0000
0001
0000
0100
0000
0220
0000
0330
0000
,
0202
0303
0001
1000
0100
1000
0010
1000
,
2002
3003
0001
0100
0010
1000
2200
3300
,
0022
0000
0033
0000
0101
0000
0000
0110
0000
0000
1010
0000
1100
0000
0011
0000
,
0202
0303
0001
1000
0010
0100
0202
0303
,
2020
3030
1000
1000
0001
0001
0100
0010
,
2020
3030
1000
0001
0010
0001
0202
0303
,
0220
0000
0330
0000
0101
0000
0000
1010
0000
0000
1001
0000
0000
0011
0000
0000
,
2002
0000
3003
0000
0001
1000
0010
1000
0001
0000
1000
0010
0100
0001
1000
0100
,
0010
0001
0100
0000
0010
0100
0001
0100
0010
1000
0001
1000
0010
0000
1000
0001
,
0100
0000
0000
0000
0001
0000
0000
0000
1000
0000
0010
0100
0010
0000
1000
0000
0001
0000
0100
0000
0001
0000
1000
0000
0010
0000
0100
0000
0001
0100
0001
0000
,
1000
0000
1000
0010
1000
0001
0000
0001
1000
0010
0100
0001
1000
0100
0010
0001
,
0100
0010
0100
0001
0010
0100
1000
0001
0100
0000
0101
0000
0100
0010
0100
0001
,
1000
0010
1000
0001
1000
0010
1000
0001
0100
0000
0101
0000
0001
0010
0100
1000
,
0001
0000
1000
0001
1000
0010
1000
0001
0100
0001
1000
0010
0100
0001
0010
0100
,
1000
0000
0001
0000
0100
0000
0000
0000
0100
0000
0001
0000
0010
0000
0001
0000
0100
0000
0010
0100
0010
0000
0100
0000
0001
0000
1000
0000
1010
0000
0000
0000
,
1001
0000
0011
0000
1001
0000
0010
0000
0100
0000
0001
1000
0000
1000
0010
0000
,
0100
0000
0001
0000
0010
0000
0100
0000
0010
0000
0001
0100
0000
0100
0010
0000
,
1001
0000
0110
0000
0010
0000
1000
0000
0001
0000
1000
0010
0000
0010
1000
0000
,
0001
0000
0100
0000
0010
0000
0100
0000
0001
0000
0010
0100
0000
0100
1000
0000
,
1001
0000
1010
0000
0010
0000
1000
0010
0000
0010
1000
0000
1000
0001
0000
0001
,
0100
0000
0001
0000
0100
0010
0100
0001
0100
0000
0010
1000
0001
0010
0100
0000
,
1001
0000
0110
0000
0010
0000
1000
0010
0000
0010
1000
0000
1000
0001
0000
0001
,
0100
0000
0001
0000
0100
0000
0010
0100
0001
0010
0100
0000
1000
0000
0100
0000
,
0010
0000
1001
0000
0001
0100
0010
0100
0001
1000
0000
1000
0010
1000
0001
1000
,
0010
0000
1010
0000
0010
1000
0001
0100
0010
0100
0000
0100
0001
0010
0100
1000
,
0001
0000
1000
0000
0001
1000
0001
0000
0100
0000
0001
0000
0010
0000
0001
0000
0100
0000
0010
0000
0000
0000
0010
0000
0100
0000
0001
0000
0010
0000
0100
0000
,
1000
0000
1001
0000
0001
1000
0001
0100
0001
1000
0000
1000
0010
1000
0001
1000
,
0010
0100
0001
0000
2002
0000
0000
0000
0000
0000
3003
0000
0000
0000
0000
0000
;
