#TITLE:Hypnosis;
#SUBTITLE:;
#ARTIST:Banya;
#TITLETRANSLIT:;
#SUBTITLETRANSLIT:;
#ARTISTTRANSLIT:;
#GENRE:;
#CREDIT:;
#MUSIC:Hypnosis.ogg;
#BANNER:Hypnosis.png;
#BACKGROUND:Hypnosis-BG.png;
#CDTITLE:;
#SAMPLESTART:27.994;
#SAMPLELENGTH:13.083;
#SELECTABLE:YES;
#OFFSET:-0.067;
#BPMS:0.000=180.200;
#STOPS:;
#BGCHANGES:;
#FGCHANGES:;

//--------------- dance-single - Alex ----------------
#NOTES:
     dance-single:
     Alex:
     Beginner:
     2:
     0,0,0,0,0:
0000
0000
0000
0000
,
0000
0000
0000
0000
,
0000
0000
0000
0000
,
0000
0000
0000
0000
,
0000
0000
0000
0000
,
0000
0000
0000
0000
,
0000
0000
0000
0000
,
0000
0000
0000
0000
,
0100
0000
0000
0000
,
0001
0000
0000
0000
,
1000
0000
0000
0000
,
0001
0000
0001
0000
,
0001
0000
0000
0000
,
1000
0000
0000
0000
,
0010
0000
0000
0000
,
0100
0000
0000
0000
,
0100
0000
0000
0000
,
0001
0000
0000
0000
,
0010
0000
0000
0000
,
0100
0000
0000
0000
,
1001
0000
0000
0000
,
0010
0000
0010
0000
,
0010
0000
0000
0000
,
1000
0000
1000
0000
,
1000
0000
0000
0000
,
0001
0000
0001
0000
,
0001
0000
0000
0000
,
0100
0000
0100
0000
,
0100
0000
0000
0000
,
0010
0000
0000
0000
,
0010
0000
0000
0000
,
1000
0000
0000
0000
,
0100
0000
0000
0000
,
1000
0000
0000
0000
,
1000
0000
0000
0000
,
0001
0000
0000
0000
,
0001
0000
0000
0000
,
1001
0000
0000
0000
,
0010
0000
0000
0000
,
0010
0000
0000
0000
,
1000
0000
0000
0000
,
0001
0000
0000
0000
,
0001
0000
0000
0000
,
0100
0000
0000
0000
,
0010
0000
0000
0000
,
1000
0000
1000
0000
,
1000
0000
0000
0000
,
0001
0000
0001
0000
,
0001
0000
0000
0000
,
0100
0000
0100
0000
,
0100
0000
0000
0000
,
0010
0000
0010
0000
,
0010
0000
0000
0000
,
1001
0000
0000
0000
,
0000
0000
0000
0000
,
1001
0000
0000
0000
,
0000
0000
0000
0000
,
0100
0000
0000
0000
,
0010
0000
0000
0000
,
0010
0000
0000
0000
,
1000
0000
0000
0000
,
0001
0000
0000
0000
,
0010
0000
0000
0000
,
0001
0000
0000
0000
,
0001
0000
0000
0000
,
0100
0000
0100
0000
,
0100
0000
0000
0000
,
0010
0000
0010
0000
,
0010
0000
0010
0000
,
1001
0000
0000
0000
;

//--------------- dance-single - Alex ----------------
#NOTES:
     dance-single:
     Alex:
     Easy:
     4:
     0,0,0,0,0:
0000
0000
0000
0000
,
0000
0000
0000
0000
,
0000
0000
0000
0000
,
0000
0000
0000
0000
,
0000
0000
0000
0000
,
0000
0000
0000
0000
,
0000
0000
0000
0000
,
0000
0000
0000
0000
,
0001
1000
0001
0000
,
1000
0010
1000
0001
,
1000
0001
0100
0000
,
0010
0100
0010
0000
,
1001
0000
1001
0000
,
0220
0000
0330
0000
,
0110
0000
0110
0000
,
2002
0000
3003
0000
,
0011
0000
0011
0000
,
2200
0000
3300
0000
,
1010
0000
1010
0000
,
0202
0000
0000
0000
,
0303
0000
0000
0000
,
0001
1000
0001
0000
,
1000
0001
1000
1000
,
0001
0100
0001
0000
,
1000
0100
0010
0000
,
0001
0100
0010
0000
,
0100
0001
0010
0010
,
0001
1000
0010
0000
,
1000
0001
1001
0000
,
1001
0000
1001
0000
,
0220
0000
0330
0000
,
1001
0000
0110
0000
,
2002
0000
3003
0000
,
0011
0000
0101
0000
,
0220
0000
0330
0000
,
1010
0000
1100
0000
,
0220
0000
0330
0000
,
0010
0001
0100
0000
,
0001
0000
1000
0000
,
0010
1000
0100
0000
,
1000
0000
0001
0000
,
0010
0001
0100
0000
,
0010
0000
0100
0000
,
0001
1000
0001
0000
,
1000
0000
0010
0000
,
1000
0001
1000
0000
,
0001
0100
0001
0000
,
1000
0100
1000
0000
,
0001
0010
0001
0000
,
0100
0010
0100
0000
,
0001
1000
0001
0000
,
1000
0001
1000
0000
,
0010
0100
0010
0000
,
1001
0000
0000
0000
,
0110
0000
0000
0000
,
1001
0000
0000
0000
,
0220
0000
0330
0000
,
0011
0000
0101
0000
,
2020
0000
3030
0000
,
1100
0000
1010
0000
,
2002
0000
3003
0000
,
0101
0000
1001
0000
,
0220
0000
0330
0000
,
0011
0000
1100
0000
,
2020
0000
3030
0000
,
0010
1000
0010
0000
,
1000
0001
1000
0000
,
0001
0100
0001
0000
,
1000
0000
0001
0000
1000
0000
0001
2000
,
0000
3000
0000
0000
0000
0000
0000
0000
;

//--------------- dance-single - Alex ----------------
#NOTES:
     dance-single:
     Alex:
     Medium:
     7:
     0,0,0,0,0:
0000
0000
0000
0000
,
0000
0000
0000
0000
,
0000
0000
0000
0000
,
0000
0000
0000
0000
,
0000
0000
0000
0000
,
0000
0000
0000
0000
,
0000
0000
0000
0000
,
0000
0000
0000
0000
,
0001
1000
0010
1000
,
0001
0001
0100
0100
,
0010
1000
0100
0010
,
0001
1000
0010
1000
0001
0000
1001
0000
,
0001
0000
0100
0001
0000
0001
0100
0000
,
0010
1000
0000
1000
0200
0000
0300
0000
,
1000
0000
0001
1000
0000
1000
0001
0000
,
0001
0010
0000
0010
0002
0000
0003
0000
,
0100
0000
0010
0100
0000
0100
0001
0000
,
0001
1000
0000
1000
0020
0000
0030
0000
,
1000
0000
0001
1000
0000
1000
0010
0000
,
0010
0100
0000
0100
0001
0020
0000
0000
,
0030
0000
0000
0000
,
0001
0000
1000
0000
0010
1000
0010
0000
,
1000
0001
0010
0100
,
1000
0000
0001
0000
0001
0100
0001
0000
,
0100
0010
0100
1001
,
0001
0000
1000
0000
0010
0100
0010
0000
,
1000
0001
0010
0010
,
0001
0000
1000
0000
0100
1000
0100
0000
,
1000
0001
0100
0110
,
0010
0000
1000
0010
0000
0010
1000
0000
,
1000
0001
0000
0001
0020
0000
0030
0000
,
0001
0000
0100
0001
0000
0001
0100
0000
,
0100
0010
0000
0010
2000
0000
3000
0000
,
0001
0000
1000
0001
0000
0001
1000
0000
,
1000
0010
0000
0010
0200
0000
0300
0000
,
0001
0000
0010
0001
0000
0001
0010
0000
,
0001
1000
0000
1000
0002
0000
0003
0000
,
1000
0001
0100
0110
,
0010
1000
0001
0011
,
0001
0001
0100
0110
,
0100
0001
1000
1100
,
1000
0010
1000
1001
,
0001
0001
0100
0110
,
0100
0001
0010
0011
,
0001
0000
1000
0000
0001
1000
0001
1000
,
0001
0000
1000
0000
0010
1000
0010
0000
,
1000
0000
0001
0000
0010
0001
0010
0000
,
0001
0000
0100
0000
0010
0100
0010
0000
,
1000
0000
0001
0000
1000
0100
1000
0000
,
0001
0000
0100
0000
0010
0100
0010
0000
,
0100
0000
0001
0000
0010
0001
0010
0000
,
0001
0000
1000
0000
0010
1000
0010
0000
,
1000
0000
0001
0000
0100
0010
0100
0000
,
1001
0000
0000
0000
1001
0000
0000
0010
,
0000
0100
0000
0001
0000
1000
0000
0100
,
1001
0000
1001
0000
,
0110
0110
0220
0330
,
0100
0001
0100
0010
,
0100
0000
0001
0000
0010
0001
0010
0000
,
0001
1000
0010
0010
,
1000
0000
1000
0000
0001
1000
0001
0000
,
1000
0100
1000
1000
,
0001
0000
0100
0000
0010
0100
0010
0000
,
0100
0001
0010
0100
,
1000
0000
0001
0000
0100
0010
0100
0000
,
0001
1000
0001
1001
,
1000
0010
0100
0101
,
0001
1000
0100
1100
,
1000
0000
0001
0000
0100
0000
0010
0110
;

//--------------- dance-single - Alex ----------------
#NOTES:
     dance-single:
     Alex:
     Hard:
     9:
     0,0,0,0,0:
0000
0000
0000
0000
,
0000
0000
0000
0000
,
0000
0000
0000
0000
,
0000
0000
0000
0000
,
0000
0000
0000
0000
,
0000
0000
0000
0000
,
0000
0000
0000
0000
,
0000
0000
0000
0000
,
0001
0010
0100
1000
0001
0100
0000
0110
,
0000
0101
0000
0011
0000
1001
0000
0001
,
1000
0010
1000
0001
0100
0001
0000
1001
,
0000
0000
0110
0000
0000
0000
0010
0000
0100
0001
0100
0001
0100
0000
0010
0100
,
0010
1000
0001
0100
0001
0010
0100
1000
,
0001
0100
0010
1000
0100
0100
0000
0000
,
1000
0010
1000
0001
1000
0010
0100
0001
,
0010
0001
1000
0010
0100
0100
0000
0000
,
0001
0010
0001
0100
0001
0010
0100
0010
,
0001
0100
0010
1000
0001
0001
0000
0000
,
1000
0010
1000
0001
1000
0100
0010
0001
,
0100
0000
0010
0000
1000
0000
0001
0000
0010
0000
0100
0000
1000
0100
1000
0100
,
0000
0000
0000
MMMM
0000
0000
0000
0000
,
0001
0100
0010
0100
0001
0100
0000
0110
,
0000
0101
0000
0011
0000
1001
0000
0001
,
1000
0010
1000
0001
0100
0001
0000
1100
,
0000
0101
0000
0001
1000
0000
1001
0000
,
0001
1000
0010
1000
0001
0100
0000
0101
,
0000
0011
0000
0101
0000
0110
0000
0010
,
0010
1000
0100
0010
0001
0100
0000
0110
,
0000
0101
0000
0001
1000
0000
1001
0000
,
0001
0100
0010
0100
0001
0010
0001
1000
,
0010
1000
0001
1000
0100
0100
0000
0000
,
0010
0001
0100
0010
0100
0001
0010
0100
,
0010
0001
0100
0010
1000
1000
0000
0000
,
0001
0010
0001
0100
0001
1000
0100
0010
,
0100
1000
0001
0100
0010
0010
0000
0000
,
1000
0001
0010
0001
1000
0010
1000
0001
,
0100
0001
1000
0100
1000
1000
0000
0000
,
0001
0100
0010
0100
0001
0100
0010
0100
,
0001
0010
0100
0010
0001
0010
0100
0010
,
0001
1000
0010
1000
0001
0100
0001
1000
,
0100
1000
0001
0100
0001
0010
0001
0100
,
0010
0100
0001
0010
0100
1000
0001
0100
,
0010
1000
0100
0010
0001
0100
0010
0100
,
0001
0001
1000
1000
0010
0100
0001
1000
,
0100
0000
0010
0000
0001
0000
0100
0000
0010
0000
0100
0001
0100
0001
0100
0001
,
0100
0001
0010
0001
1000
0010
1000
0001
,
0100
0001
1000
0100
0010
0001
0100
0010
,
0100
0001
0010
0100
0010
0001
0100
0010
,
0100
0001
1000
0010
0100
0001
1000
0100
,
0010
0001
1000
0010
1000
0001
0010
0001
,
0100
0001
0010
0001
0100
0100
0010
1000
,
0100
0010
0001
0100
0010
0100
0001
0010
,
0100
1000
0001
0100
0010
1000
0001
0010
,
0001
0000
1000
0000
0010
0100
0000
0001
,
0000
0011
0000
0001
0000
0101
0000
0001
,
0100
0000
0010
0000
1000
0100
0000
1000
,
0000
1010
0000
1000
0001
0000
0011
0000
,
0001
0100
0010
0100
0001
0100
0010
0100
,
0001
0010
0100
1000
0001
0001
0000
0000
,
1000
0010
1000
0001
1000
0100
0010
0001
,
0100
0010
0100
0001
0010
0010
0000
0000
,
0001
1000
0010
1000
0001
0010
0001
1000
,
0100
1000
0010
0100
0001
0001
0000
0000
,
0010
0001
0100
0010
0100
0001
0010
0100
,
1000
0001
0100
0010
0100
0100
0000
0000
,
0001
1000
0100
1000
0001
1000
0001
1000
,
0001
0010
0001
0100
0010
0010
0000
0000
,
1000
0100
0010
0001
0100
0010
1000
0001
,
0010
0000
0001
0000
1000
0000
1001
1001
,
0000
MMMM
0000
0000
;
