#TITLE:Hungarian Dance V;
#SUBTITLE:;
#ARTIST:Banya Production;
#TITLETRANSLIT:;
#SUBTITLETRANSLIT:;
#ARTISTTRANSLIT:;
#GENRE:;
#CREDIT:;
#MUSIC:Hungarian Dance V.ogg;
#BANNER:Hungarian Dance V.png;
#BACKGROUND:Hungarian Dance V-BG.png;
#CDTITLE:;
#SAMPLESTART:7.138;
#SAMPLELENGTH:13.034;
#SELECTABLE:YES;
#OFFSET:-0.155;
#BPMS:0.000=145.000;
#STOPS:;
#BGCHANGES:;
#FGCHANGES:;

//--------------- dance-single - Alex ----------------
#NOTES:
     dance-single:
     Alex:
     Beginner:
     1:
     0,0,0,0,0:
0000
0000
0000
0000
,
0000
0000
0000
0000
,
0000
0000
0000
0000
,
0000
0000
0000
0000
,
0000
0010
0000
0000
,
0000
0001
0000
0000
,
0000
1000
0000
0000
,
0000
0100
0000
0000
,
0000
1000
0000
0000
,
0000
0001
0000
0000
,
0000
0100
0000
0100
,
0000
0200
0000
0300
,
0000
0010
0000
0000
,
0000
0010
0000
0000
,
0000
0001
0000
0000
,
0000
0001
0000
0000
,
0000
0100
0000
0000
,
0000
0100
0000
0000
,
0000
0010
0000
0010
,
0000
0020
0000
0030
,
0000
1000
0000
0000
,
0000
0001
0000
0000
,
0000
0001
0000
0000
,
0000
1000
0000
0000
,
0000
0100
0000
0000
,
0000
0100
0000
0000
,
0000
1000
0000
0000
,
0000
1000
0000
0000
,
0000
1001
0000
0000
,
0000
0010
0000
0000
,
0000
1000
0000
0000
,
0000
0001
0000
0001
,
0000
0200
0000
0000
,
0000
0300
0000
0000
,
0000
0110
0000
0000
,
0000
0001
0000
0000
,
0000
1000
0000
0000
,
0000
0100
0000
0000
,
0000
1000
0000
0000
,
0000
0010
0000
0000
,
0000
0010
0000
0010
,
0000
0010
0000
0000
,
0000
1000
0000
0000
,
0000
0001
0000
0000
,
0000
1000
0000
0000
,
0000
0100
0000
0000
,
0000
1000
0000
0000
,
0000
0010
0000
0000
,
0000
1000
0000
1000
,
0000
1000
0000
0000
,
0000
0001
0000
0000
,
0000
0100
0000
0000
,
0000
0001
0000
0000
,
0000
0010
0000
0000
,
0000
0100
0000
0000
,
0000
0100
0000
0000
,
0000
1000
0000
1000
,
0000
2000
0000
3000
,
0000
0001
0000
0001
,
0000
0002
0000
0003
,
0000
1001
0000
0000
,
0000
1001
0000
0000
;

//--------------- dance-single - Alex ----------------
#NOTES:
     dance-single:
     Alex:
     Easy:
     3:
     0,0,0,0,0:
0000
0000
0000
0000
,
0000
0000
0000
0000
,
0000
0000
0000
0000
,
0000
0000
0000
0000
,
0000
0010
0000
1000
,
0000
0001
0000
0200
,
0300
0001
0000
1000
,
0000
0001
0010
0001
,
0000
1000
0000
0001
,
0000
1000
0000
0020
,
0030
0100
0100
0010
,
0010
2002
0000
3003
,
0000
1001
0000
0110
,
0000
2002
0000
3003
,
0000
0011
0000
1100
,
0000
0220
0000
0330
,
0000
0001
0100
0001
,
0000
1000
0000
0010
,
0000
1000
1000
0001
,
0001
0202
0000
0303
,
0000
0000
0010
0000
0000
0100
0000
0000
,
0010
0000
0010
0000
0000
1000
0000
0000
,
1000
0000
0001
0000
0000
0001
0000
0000
,
0100
0000
0001
0000
0000
1000
0000
0000
,
0010
0100
0001
0010
,
0000
0100
1000
0010
,
0000
1000
0001
1000
,
0001
0020
0000
0030
,
0000
0001
0001
0001
,
1000
0200
0000
0300
,
0000
1000
1000
0010
,
0010
0100
0100
0100
,
0000
1001
0000
0000
,
0000
0220
0000
0330
,
0000
1000
1000
0010
,
0000
0100
0100
0001
,
1000
0020
0000
0030
,
0000
0200
0000
0000
0000
0000
0300
0000
,
0000
0010
1000
0010
,
0000
1000
0100
1000
,
0000
0001
0001
0100
,
0100
0001
0000
1000
,
0000
1001
0000
0110
,
0000
2002
0000
3003
,
0000
0011
0000
0101
,
0000
0220
0000
0330
,
0000
0010
0010
0010
,
0000
1000
1000
1000
,
0000
0001
0001
1000
,
1000
0200
0000
0300
,
0000
1001
0000
0110
,
0000
2002
0000
3003
,
0000
0011
0000
1100
,
0000
2020
0000
3030
,
0000
0010
0100
0001
,
0100
0010
0000
1001
,
0000
0001
0001
1000
,
1000
2200
0000
3300
,
0000
1000
1000
0001
,
0001
0022
0000
0033
,
0000
0010
0000
0100
,
0000
0110
0000
0000
;

//--------------- dance-single - Alex ----------------
#NOTES:
     dance-single:
     Alex:
     Medium:
     5:
     0,0,0,0,0:
0000
0000
0000
0000
,
0000
0000
0000
0000
,
0000
0000
0000
0000
,
0000
0000
0000
0000
,
0000
0010
1000
0001
,
0100
0010
0100
0002
,
0003
1000
0100
0010
,
0001
0000
1000
0010
1000
0010
2000
0000
,
3000
0001
1000
0010
,
0100
0001
1000
0200
,
0300
1100
1100
0011
,
0011
0000
0001
0100
0000
0100
0020
0000
,
0030
0000
2000
0000
3000
0001
0200
0000
,
0300
0010
0200
0000
0300
0001
0020
0000
,
0030
0000
0002
0000
0003
1000
0020
0000
,
0030
1000
0002
0000
0003
0100
0020
0000
,
0030
1000
0001
0100
,
0010
0100
0001
2000
,
3000
0011
0011
1100
,
1100
0000
0001
1000
0000
1000
0020
0000
,
0030
0000
1001
0000
0000
0110
0000
0000
,
0101
0000
1010
0000
0000
1100
0000
0000
,
0011
0000
0101
0000
0000
1010
0000
0000
,
1001
0000
0110
0000
0000
1001
0000
0000
,
0110
0010
0100
0001
,
1000
0100
1000
0010
,
0100
0001
0010
0100
,
0010
0002
0000
0003
,
0000
0101
0100
0010
,
1000
0002
0010
0013
,
0000
0001
1000
0100
,
1000
0010
1010
1001
,
0000
0100
0010
0010
,
0100
2002
0000
3003
,
0000
0001
0100
0001
,
1000
0000
0010
0000
1000
0000
0001
0100
,
0010
0100
0002
0000
0000
0000
0003
0000
,
0000
2000
0000
0000
0000
0000
0010
0000
,
3010
1000
0100
1000
,
0010
0000
1000
0000
0001
0000
0100
0010
,
0100
0001
0010
0000
0100
0000
1000
0000
,
0001
0101
1010
2200
,
3300
1000
0001
0200
,
0300
0010
0000
0010
0000
1000
0001
1000
,
0001
0010
0001
2000
,
3000
0001
0000
0100
0000
0010
1000
0010
,
1000
0000
0002
0000
0003
0200
0000
0300
,
0020
0030
2000
0000
3000
0002
0000
0003
,
0020
0030
0002
0000
0003
0200
0000
0300
,
0020
0030
2002
0000
0000
0000
3003
0000
,
0000
0000
0002
0000
0003
1000
0200
0000
,
0300
1000
0002
0000
0003
0100
0020
0000
,
0030
0000
2000
0000
3000
0001
0020
0000
,
0030
0001
0200
0000
0300
0010
0200
0000
,
0300
0001
0010
0100
,
1000
0001
0100
0020
,
0030
1010
1010
0101
,
0101
0000
0001
1000
0000
1000
0200
0000
,
0300
1100
1100
0011
,
0011
0000
0001
0100
0000
0100
0001
0000
,
1000
1001
0000
0110
,
0000
0000
0000
1001
0000
0000
0000
0000
0000
0000
0000
0000
0000
0000
0000
0000
;

//--------------- dance-single - Alex ----------------
#NOTES:
     dance-single:
     Alex:
     Hard:
     7:
     0,0,0,0,0:
0000
0000
0000
0000
,
0000
0000
0000
0000
,
0000
0000
0000
0000
,
0000
0000
0000
0000
,
0000
0000
0002
0000
0003
1000
0200
0000
,
0300
0000
1000
0000
0020
0000
0000
0000
0030
0000
1000
0001
2000
0000
0000
0000
,
3000
0000
0000
0000
0002
0000
0000
0000
0003
0000
0100
0001
0200
0000
0000
0000
,
0300
0000
0010
1000
0001
0100
0010
0000
,
1000
0000
0000
0000
0002
0000
0000
0000
0003
0000
1000
0100
2000
0000
0000
0000
,
3000
0000
0001
0000
0200
0000
0000
0000
0300
0000
0010
0100
0020
0000
0000
0000
,
0030
0000
0100
0001
0010
0100
1000
0001
,
0100
0010
1000
0001
0000
0001
1000
0000
,
1001
0000
0001
0100
0000
0100
0001
1000
,
0000
0000
1000
0000
0001
0000
1000
0000
0000
0000
1000
0010
2000
0000
0000
0000
,
3000
0000
0010
1000
0000
1000
0001
1000
,
0000
0001
0100
0001
0000
0100
0020
0000
,
0030
0000
0100
0001
0010
0100
2000
0000
,
3000
0000
0001
0000
0200
0000
0000
0000
0300
0000
0010
0100
0020
0000
0000
0000
,
0030
0000
0010
1000
0100
0010
0100
1000
,
0001
0100
0010
0100
0000
0100
0001
0000
,
1001
0000
0002
0000
0000
1003
0000
1000
,
0010
0100
0002
0000
0000
0103
0000
0100
,
0001
0010
0200
0000
0000
1300
0000
1000
,
0010
1000
0002
0000
0000
0013
0000
0010
,
0001
0100
0010
0100
0001
0000
1000
0100
,
0010
0000
0001
0100
0010
0000
0100
0001
,
1000
0000
0001
0010
0100
1000
0001
0100
,
0010
0100
0002
0000
0000
0000
0003
0000
,
0000
0000
1000
0001
1000
0100
1000
0010
,
1000
0001
0200
0000
0000
0000
0300
0000
,
0000
0000
0010
0100
0001
0010
0100
1000
,
0001
0100
0010
0000
1001
0000
0110
0000
,
0000
0000
0010
0100
0001
0100
0010
0100
,
0001
2002
0000
3003
,
0000
0000
0001
1000
0010
0100
0001
0010
,
0100
0010
0001
0100
0010
0100
0001
1000
,
0100
0010
0002
0000
0000
0000
0000
0003
,
0000
0200
0000
0000
0000
0300
0010
0010
,
0010
0000
0010
1000
0001
0100
0010
0100
,
0001
0010
0100
1000
0001
0100
0010
0100
,
0001
0000
1000
0100
0010
0001
0100
0010
,
0100
0001
0010
0100
1000
0001
0200
0000
,
0300
0000
0010
1000
0001
0100
0020
0000
,
0030
0100
0000
0001
0000
1000
0100
1000
,
0100
0000
1000
0010
1000
0001
0020
0000
,
0030
0001
0000
1000
0000
0001
0100
0001
,
0100
0000
0001
0000
1000
0001
0000
0001
,
1000
0000
0001
0000
0100
0010
0000
0010
,
0100
0000
0001
0000
1000
0100
0000
0100
,
1000
2002
0000
3003
,
0000
0000
0001
0100
0000
0100
0001
1000
,
0000
0000
1000
0000
0010
0000
0100
0000
0000
0000
0100
0001
0200
0000
0000
0000
,
0300
0000
0001
0100
0000
0100
0001
1000
,
0000
1000
0010
1000
0000
0001
0020
0000
,
0030
0000
0001
0100
0010
0100
0002
0000
,
0003
0000
1000
0000
0200
0000
0000
0000
0300
0000
1000
0010
2000
0000
0000
0000
,
3000
0000
0010
0100
0001
0100
0010
1000
,
0001
0010
0001
1000
0000
1000
0001
0000
,
1001
0000
0001
0100
0010
1000
0100
0010
,
0001
0100
0010
0100
0000
0100
0001
0000
,
1001
0000
0001
0100
0000
0100
0010
0000
,
0100
0000
0000
0110
0000
0000
0000
0000
0000
0000
0000
0000
0000
0000
0000
0000
;

//--------------- dance-single - Alex ----------------
#NOTES:
     dance-single:
     Alex:
     Challenge:
     10:
     0,0,0,0,0:
0000
0000
0000
0000
,
0000
0000
0000
0000
,
0000
0000
0000
0000
,
0000
0000
0000
0000
,
0000
0000
1001
M00M
0001
1000
1010
M0M0
,
0010
0000
0100
0000
0101
0000
0M0M
0000
0001
0000
1000
0100
0010
0000
0000
0000
,
0011
0000
00MM
0000
1100
0000
MM00
0000
1000
0000
0001
0100
0001
0000
0000
0000
,
0101
0000
0M0M
0000
0001
0100
0010
0100
0001
0000
1000
0000
0010
0000
0000
0000
,
1010
0000
M0M0
0000
1001
0000
M00M
0000
0001
0000
0100
0010
0100
0000
0000
0000
,
0001
0000
1000
0000
1100
0000
MM00
0000
1000
0000
0001
0100
0001
0000
0000
0000
,
0101
0000
0M0M
0000
0001
0100
0010
1000
0100
0010
0001
0100
0010
0100
0001
0010
,
0100
1000
0001
0100
0010
1000
0010
0000
0100
0000
0001
0000
1001
0000
M00M
0000
,
0110
0MM0
0001
0101
0M0M
1000
0010
1010
,
M0M0
0000
0010
0000
0100
0000
0110
0000
0MM0
0000
0100
0001
2000
0000
0000
0000
,
3000
0000
0001
1001
M00M
1000
0001
0011
,
00MM
0000
0001
0000
0100
0000
0110
0000
0MM0
0000
0010
0100
0020
0000
0000
0000
,
0030
0000
0000
0000
1000
0010
0100
0001
0010
0100
1000
0001
0100
0000
0001
0000
,
1000
0000
0001
0000
0101
0000
0100
0000
0001
0000
1000
0010
0100
0000
0000
0000
,
1001
0000
M00M
0000
0001
0010
0100
1000
0001
0010
0100
1000
0001
0010
0001
1000
,
0010
1000
0001
1000
0100
1000
0010
0000
0100
0000
0001
0000
0101
0000
0M0M
0000
,
1010
M0M0
0010
1000
0001
0101
0100
0010
,
1010
1000
1001
0001
1000
1010
0010
0100
,
0101
0001
1001
0001
0010
0011
0001
0100
,
0110
0100
0101
0001
1000
1010
0010
0100
,
0101
0000
0001
0000
2000
3000
0002
0003
0020
0030
0200
0300
2000
3000
0020
0030
,
0002
0003
0020
0030
2000
3000
0200
0300
0002
0003
0200
0300
2000
3000
0002
0003
,
0020
0030
2000
3000
0020
0030
0002
0003
0200
0300
0020
0030
2000
3000
0002
0003
,
0020
0030
0002
0003
2002
0000
0000
0000
0000
0000
0000
0000
0000
0000
3003
0000
,
0000
0000
0001
0101
0100
0110
0010
1010
,
1000
1100
2002
0000
0010
00M0
0100
0M00
,
0010
30M3
0101
0001
1001
1000
1010
0010
,
0110
0100
0101
0M0M
1010
M0M0
2MM2
0000
,
3003
0000
0000
0000
0001
0000
1000
0000
0001
0000
0100
0001
0100
0001
1000
0000
,
0010
0000
0100
0000
0001
0000
1000
0000
0010
0000
0100
0001
0010
0100
1000
0000
,
0001
0000
1001
0000
1000
0010
1000
0001
1000
0100
0010
0001
1000
0010
0100
0001
,
0010
0100
1000
0001
0100
0001
1000
0010
0100
0001
0010
0001
1000
0010
0100
0001
,
1000
0100
0010
0001
0200
0000
0000
0000
0000
0000
0000
0000
0000
0000
0300
0000
,
0000
0020
0000
0000
0000
0030
1001
0110
,
1001
0000
M00M
0000
0001
0100
0010
0100
0001
0010
0100
1000
0001
1000
0010
1000
,
0001
0010
0001
0100
0001
0100
0001
1000
0010
0100
0001
1000
0100
0010
0001
0100
,
0010
0100
0001
1000
0010
1000
0001
1000
0010
0100
0001
0010
0001
1000
0100
0010
,
0001
1000
0010
0100
0001
0010
0001
1000
0001
0100
0001
1000
0010
0100
0001
0010
,
0100
1000
0001
0100
0001
0000
0100
0000
0010
0000
0100
0000
0101
0000
0001
0000
,
1000
0000
1001
0000
0010
0000
1001
0000
0001
0000
1000
0001
0010
0100
1000
0010
,
0200
0000
0000
0300
0001
0000
1000
0000
1010
0000
0010
0000
0100
0000
0001
0000
,
1001
0000
0010
0000
1001
0000
0100
0000
1001
0000
0001
1000
0010
0100
0001
1000
,
0200
0000
0000
0300
1000
0001
1000
0000
0001
0000
0100
0001
0100
0000
0010
0000
,
1000
0010
1000
0000
0001
0010
0001
0000
0100
0000
0001
0100
0010
0000
0100
0000
,
0001
0100
0001
0000
1000
0100
1000
0000
0010
0000
1000
0010
0100
0000
0001
0000
,
1000
0001
1000
0000
0001
0100
0010
0100
0001
0010
0100
1000
0020
0000
0000
0000
,
0030
0000
1000
1010
M0M0
0010
0100
0101
,
0M0M
0000
0001
0000
0010
0000
0011
0000
00MM
0000
0001
1000
0020
0000
0000
0000
,
0030
0000
1000
1100
MM00
0100
1000
1001
,
M00M
0000
0001
0000
0100
0000
0101
0000
0M0M
0000
0100
0010
0200
0000
0000
0000
,
0300
0000
0000
0000
0001
0010
0100
1000
0001
0100
0010
0100
0001
0000
1000
0000
,
0010
0000
0100
0000
0101
0000
0001
0000
1000
0000
0100
0010
0001
0000
0000
0000
,
0101
0000
0M0M
0000
0001
1000
0010
1000
0001
1000
0100
0010
0001
0100
0010
0100
,
0001
0010
0100
1000
0001
0100
0010
0000
1000
0000
0001
0000
0101
0000
0M0M
0000
,
1010
0000
M0M0
0000
0010
1000
0010
1000
0010
0100
0001
0010
0100
0010
0001
0100
,
0010
0100
0001
1000
0100
0010
0001
0000
1000
0000
0010
0000
0110
0000
0MM0
0000
,
1001
M00M
0101
1010
M0M0
1100
0011
00MM
,
1001
0000
0000
0000
M00M
0000
0000
0000
0000
1111
0000
0000
0000
0000
0000
0000
0000
0000
0000
0000
0000
0000
0000
0000
0000
0000
0000
0000
0000
0000
0000
0000
0000
0000
0000
0000
0000
0000
0000
0000
0000
0000
0000
0000
0000
0000
0000
0000
;
