#TITLE:Hot;
#SUBTITLE:;
#ARTIST:1TYM;
#TITLETRANSLIT:;
#SUBTITLETRANSLIT:;
#ARTISTTRANSLIT:;
#GENRE:;
#CREDIT:;
#MUSIC:Hot.ogg;
#BANNER:Hot.png;
#BACKGROUND:Hot-BG.png;
#CDTITLE:;
#SAMPLESTART:39.841;
#SAMPLELENGTH:11.964;
#SELECTABLE:YES;
#OFFSET:-0.122;
#BPMS:0.000=98.000;
#STOPS:;
#BGCHANGES:;
#FGCHANGES:;

//--------------- dance-single - Alex ----------------
#NOTES:
     dance-single:
     Alex:
     Beginner:
     1:
     0,0,0,0,0:
0000
0000
0000
0000
,
0000
0000
0000
0000
,
0000
0000
0000
0000
,
0000
0000
0000
0000
,
0000
0001
0000
0000
,
0000
1000
0000
0000
,
0000
0010
0000
0000
,
0000
0100
0000
0000
,
0000
0001
0000
0000
,
0000
1000
0000
0000
,
0000
0010
0000
0000
,
0000
1000
0000
0000
,
0000
0001
0000
0000
,
0000
1000
0000
0000
,
0000
1000
0000
0000
,
0000
0010
0000
0010
,
0000
0010
0000
0000
,
0000
1000
0000
0000
,
0000
0001
0000
0000
,
0000
1000
0000
1000
,
0000
1000
0000
0000
,
0000
0001
0000
0000
,
0000
0100
0000
0000
,
0000
0010
0000
0010
,
0000
0010
0000
0000
,
0000
0001
0000
0000
,
0000
1000
0000
0000
,
0000
0010
0000
0000
,
0000
1000
0000
0000
,
0000
0001
0000
0000
,
0000
1000
0000
0000
,
0000
0001
0000
0001
,
0000
0001
0000
0000
,
0000
0100
0000
0000
,
0000
0010
0000
0000
,
0000
0010
0000
0010
,
0000
0010
0000
0000
,
0000
1000
0000
0000
,
0000
0001
0000
0000
,
0000
0100
0000
0100
,
0000
0100
0000
0000
;

//--------------- dance-single - Alex ----------------
#NOTES:
     dance-single:
     Alex:
     Easy:
     2:
     0,0,0,0,0:
0000
0000
0000
0000
,
0000
0000
0000
0000
,
0000
0000
0000
0000
,
0000
0100
0000
0100
,
0000
1001
0000
0001
,
0000
1000
1000
1000
,
0000
0010
0000
1000
,
0000
0001
0001
0001
,
0000
1000
0000
0001
,
0000
0100
0000
0010
,
0000
1000
0000
0100
,
0000
1000
0000
0010
,
0010
0010
0000
1000
,
0000
0001
0000
0100
,
0000
0001
0000
0001
,
0000
0010
0010
0010
,
0000
1001
0000
1001
,
0000
0001
1000
0001
,
0000
1001
0000
1001
,
0000
1000
1000
1000
,
0000
0110
0000
0110
,
0000
0010
0010
0010
,
0000
0110
0000
0110
,
0000
0001
0001
1000
,
1000
0001
0000
0000
,
0000
0110
0000
0000
,
0000
1001
0000
0000
,
0000
0110
0000
0110
,
0000
0010
0000
1000
,
0000
0001
0000
0001
,
0000
1000
0000
0100
,
0000
1000
0000
0001
,
0000
1001
0000
1001
,
0000
0100
0100
0100
,
0000
0011
0000
1100
,
0000
0010
0010
0010
,
0000
0101
0000
1010
,
0000
0010
0010
0010
,
0000
1010
0000
1010
,
0000
1000
1000
0001
,
0001
1001
0000
0000
;

//--------------- dance-single - Alex ----------------
#NOTES:
     dance-single:
     Alex:
     Medium:
     4:
     0,0,0,0,0:
0000
0000
0000
0000
,
0000
0000
0000
0000
,
0000
0000
0000
0000
,
0000
0001
0001
1000
,
1000
0001
0100
0010
,
0010
1000
0100
0010
,
0001
1000
0001
0100
,
0010
0100
0001
1000
,
0000
0001
0010
0001
,
0001
1000
0010
1000
,
0000
0001
1000
0010
,
1000
0001
0001
0100
,
0000
0010
1000
0100
,
0010
0100
1000
1000
,
0000
0001
1000
0001
,
0001
1001
1001
1001
,
0000
0010
0010
0100
,
0100
0000
0001
0010
0001
0000
1000
0100
,
1000
0010
0010
1000
,
1000
0000
0001
1000
0001
0000
1000
0001
,
1000
0001
0001
0100
,
0100
0000
0001
0010
0001
0000
1000
0010
,
1000
0010
0010
1000
,
1000
0000
0100
1000
0100
0000
0001
0010
,
0001
1001
0000
0000
,
0000
0110
0000
0000
,
0100
1001
0000
0000
,
0000
0110
0000
0110
,
0000
0010
0010
1000
,
0001
0100
0001
1000
,
0000
0001
0010
0100
,
0010
0001
0001
1001
,
0000
1000
0001
1000
,
1000
0000
0001
0100
0001
0000
1000
0100
,
1000
0010
0010
1000
,
1000
0000
0001
0010
0001
0000
0100
0010
,
0100
0010
0010
1000
,
1000
0000
0001
1000
0100
0000
1000
0001
,
0100
0010
0010
1000
,
1000
0000
0001
0010
0001
0000
1000
0010
,
1000
1001
0000
0000
;

//--------------- dance-single - Alex ----------------
#NOTES:
     dance-single:
     Alex:
     Hard:
     7:
     0,0,0,0,0:
0000
0000
0000
0000
,
0000
0000
0000
0000
,
0000
0000
0000
0000
,
0000
0000
0001
1000
0001
1000
0001
1000
,
0001
1000
0010
0000
1000
0010
1000
0001
,
1000
0100
0010
0000
0001
0100
0010
0100
,
0001
0000
1001
0000
1000
0001
0100
0001
,
1000
0010
1000
0000
0001
0010
0100
1000
,
0010
0000
1000
0010
1000
0001
0000
0001
,
1000
0100
1000
1000
0001
0100
0010
0100
,
0001
0000
0001
0100
0010
0000
0010
1000
,
0001
0000
1000
0100
0010
0001
0100
0010
,
0100
0000
1001
0000
0110
0000
0100
0001
,
1001
0000
0001
0010
0100
1000
0010
1000
,
0001
0000
1000
0010
1000
0000
0001
0010
,
0001
0000
0100
0100
0010
0010
1000
0001
,
0010
0000
0001
0100
0010
0000
1000
0001
,
0100
0110
0101
0011
,
1001
0000
1000
0010
1000
0000
0001
1000
,
0100
0000
0010
0001
0100
0010
0100
0100
,
0100
0000
0001
0010
0001
0000
1000
0010
,
1000
1001
0011
1100
,
0110
0000
0001
0100
0001
0000
0010
0100
,
1000
0000
0010
1000
0100
0010
0001
0100
,
0010
0010
1001
0000
0000
0000
0110
0000
,
0000
0000
1000
0100
1000
0000
0001
0010
,
0001
0101
0000
1010
,
0000
0000
0010
0100
0001
0000
1000
0001
,
0100
0000
1001
0000
0001
0000
1000
0010
,
1000
0000
0001
0010
0100
1000
0010
0100
,
0001
0000
0001
1000
0100
0000
1000
0010
,
0100
0000
0001
1000
0001
1000
0001
1000
,
0001
0000
1000
0010
0100
0000
0001
0010
,
0100
1010
1100
0011
,
0101
0000
0100
0001
0010
0000
0001
1000
,
0010
0000
1000
0010
1000
0001
1000
0001
,
0100
0000
0010
0100
0010
0000
1000
0100
,
1000
0011
1100
1010
,
0101
0000
0001
0100
0010
0000
1000
0001
,
0100
0000
0001
1000
0010
0100
0001
0010
,
0100
1001
0000
0000
;

//--------------- dance-single - Alex ----------------
#NOTES:
     dance-single:
     Alex:
     Challenge:
     9:
     0,0,0,0,0:
0000
0000
0000
0000
,
0000
0000
0000
0000
,
0000
0000
0000
0000
,
0000
0000
0001
0001
1000
1000
0010
0010
,
0100
0000
0100
0000
0001
0000
1000
0010
1000
0000
0001
0000
0100
0000
0010
0000
,
0100
0000
0001
0010
0100
0000
1000
0100
0010
0000
0001
0000
0100
0000
1000
0000
,
0100
0000
0001
1000
0001
0000
1000
0010
1000
0000
0001
0000
0010
0000
1000
0000
,
0010
0000
0001
0100
0001
0000
1000
0100
1000
0000
0010
0000
1010
0000
0101
0000
,
0011
0000
0001
1000
0010
0100
0001
1000
0100
0000
1000
0000
0001
0100
0001
0100
,
0001
0000
0101
0000
0001
0000
1000
0000
0010
1000
0010
1000
0001
1000
0001
0100
,
0010
0000
0100
0000
0001
0000
1000
0100
0010
0000
0001
0100
0010
0000
1000
0001
,
0100
0000
1001
0000
0001
0000
0100
0000
0010
1000
0100
1000
0010
0000
0100
0001
,
1000
0000
1001
0000
0001
0000
0010
0000
0010
0000
0001
0000
0100
0010
0100
0000
,
0001
0000
1000
0000
0010
0000
1000
0000
0001
0000
0001
1000
0100
0000
1000
0010
,
0100
0000
0101
0000
0001
0000
1000
0000
1000
0000
0001
0000
0100
0001
0010
0100
,
1000
0000
1001
0000
0001
0000
1000
0010
1000
0001
0100
0000
0001
0010
0100
1000
,
0100
0000
0011
0000
1100
0000
0100
1000
0100
1000
0100
0000
1000
0010
1000
0010
,
1000
0000
MMMM
0000
0001
0000
1000
0010
0100
0000
0001
0000
0011
0000
0101
0000
,
0110
0000
1010
0000
0010
0000
1000
0100
0010
0001
1000
0000
0010
0100
0001
0010
,
0100
0000
MMMM
0000
1000
0000
0001
0000
1000
0010
1000
0001
1000
0000
0001
0000
,
0100
0000
0010
0000
0110
0000
0010
0100
0001
0010
0100
0000
1000
0001
0100
0010
,
1000
0000
MMMM
0000
0001
0000
0100
0001
0100
0000
0001
0000
1001
0000
0011
0000
,
1001
0000
1010
0000
0010
0000
1000
0100
0010
0001
1000
0000
0010
1000
0001
0100
,
0010
0000
MMMM
0000
0100
0000
0001
0100
0001
0100
0001
0000
1000
0010
1000
0010
,
1010
0000
MMMM
0000
1001
0000
0110
0000
1000
0000
0001
0100
0000
0100
0001
0000
,
1000
0000
0000
0000
0010
0100
0010
0100
0010
0000
1000
0000
0000
0000
0011
0000
,
1100
0000
0000
0000
1000
0000
0010
0000
1000
0010
0000
0010
1000
0001
1000
0001
,
1000
0000
0101
0101
0011
1001
1010
1001
,
0101
0000
0110
0000
0010
0000
0100
0000
0100
0000
0001
1000
0100
0000
0100
1000
,
0000
0000
1000
0010
1000
0000
0001
0000
0100
0000
0010
0100
0010
0000
0100
0001
,
0000
0000
0001
1000
0010
0000
0100
0000
0001
0000
0010
0100
1000
0000
0001
1000
,
0000
0000
0001
0000
0101
0000
0110
0000
0101
0000
0011
0000
0001
0000
1000
0010
,
0000
0000
1010
0000
1001
0000
0001
0100
0010
0100
0001
0000
1000
0100
0010
0001
,
1000
0000
MMMM
0000
0001
0000
1000
0001
0100
0000
0001
0000
0011
0000
0101
0000
,
0110
0000
1010
0000
0010
0000
1000
0100
1000
0100
1000
0000
0001
0010
0001
0010
,
0001
0000
MMMM
0000
0001
0000
1000
0010
0100
0000
0001
0000
0101
0000
0011
0000
,
1001
0000
1010
0000
0010
0000
0100
0001
0100
0001
0100
0000
0001
1000
0010
0100
,
0001
0000
MMMM
0000
0001
0000
1000
0100
1000
0000
0001
0000
0101
0000
0011
0000
,
1001
0000
1010
0000
0010
0000
1000
0010
1000
0010
1000
0000
0001
0100
0001
0100
,
0001
0000
MMMM
0000
0001
0000
1000
0010
0100
0001
0010
0000
0100
1000
0001
0100
,
0010
0110
1001
0000
0000
0000
0000
0000
;
