#TITLE:Hi-Bi;
#SUBTITLE:;
#ARTIST:Banya;
#TITLETRANSLIT:;
#SUBTITLETRANSLIT:;
#ARTISTTRANSLIT:;
#GENRE:;
#CREDIT:;
#MUSIC:Hi-Bi.ogg;
#BANNER:Hi-Bi.png;
#BACKGROUND:Hi-Bi-BG.png;
#CDTITLE:;
#SAMPLESTART:9.970;
#SAMPLELENGTH:12.957;
#SELECTABLE:YES;
#OFFSET:-0.091;
#BPMS:0.000=145.000
,108.000=72.500
,115.000=145.000
;
#STOPS:;
#BGCHANGES:;
#FGCHANGES:;

//--------------- dance-single - Alex ----------------
#NOTES:
     dance-single:
     Alex:
     Beginner:
     1:
     0,0,0,0,0:
0000
0000
0000
0000
,
0000
0000
0000
0000
,
1001
0000
0000
0000
,
0000
0000
0000
0000
,
0110
0000
0000
0000
,
0000
0000
0000
0000
,
1000
0000
0000
0000
,
0010
0000
0000
0000
,
1000
0000
0000
0000
,
0001
0000
0000
0000
,
0100
0000
0000
0000
,
0010
0000
0000
0000
,
1000
0000
0000
0000
,
0001
0000
0000
0000
,
1001
0000
0000
0000
,
0100
0000
0100
0000
,
0100
0000
0000
0000
,
0010
0000
0010
0000
,
0010
0000
0000
0000
,
1000
0000
0000
0000
,
0001
0000
0000
0000
,
0100
0000
0000
0000
,
0001
0000
0001
0000
,
0002
0000
0003
0000
,
1000
0000
1000
0000
,
2000
0000
3000
0000
,
0020
0000
0030
0000
,
1001
0000
0000
0000
,
0110
0000
0000
0000
,
0100
0000
0000
0000
,
0001
0000
0000
0000
,
1000
0000
0000
0000
,
0001
0000
0000
0000
,
1000
0000
0000
0000
,
0010
0000
0000
0000
,
1000
0000
0000
0000
,
0001
0000
0000
0000
,
1001
0000
0000
0000
,
0100
0000
0100
0000
,
0100
0000
0000
0000
,
0010
0000
0010
0000
,
0010
0000
0000
0000
,
1001
0000
0000
0000
,
0100
0000
0000
0000
,
0010
0000
0000
0000
,
1000
0000
1000
0000
,
2000
0000
3000
0000
,
0100
0000
0100
0000
,
0200
0000
0300
0000
,
0002
0000
0003
0000
,
0110
0000
0000
0000
,
0001
0000
0000
0000
,
1000
0000
0000
0000
,
0100
0000
0000
0000
,
1001
0000
0000
0000
;

//--------------- dance-single - Alex ----------------
#NOTES:
     dance-single:
     Alex:
     Easy:
     3:
     0,0,0,0,0:
0000
0000
0000
0000
,
0000
0000
0000
0000
,
0220
0000
0000
0000
,
0330
0000
0000
0000
,
2002
0000
3003
0000
,
1000
0000
0000
2000
0000
0000
3000
0000
,
0001
0000
1000
0000
,
0001
0000
1000
0000
,
0010
0000
0100
0000
,
0010
0000
1001
1001
,
0100
0000
0001
0000
,
0010
0000
0001
0000
,
1000
0000
1000
0000
,
0001
0000
1001
1001
,
1000
1000
1000
0000
,
0010
0000
0010
0000
,
0100
0100
0100
0000
,
0001
0000
0001
0000
,
2002
0000
0000
0000
,
3003
0000
0000
0000
,
0220
0000
0000
0000
,
0330
0000
0100
0100
,
0010
0000
0010
0000
,
1000
1000
2000
3000
,
0001
0000
0001
0000
,
0100
0100
0200
0300
,
0010
0010
0020
0030
,
1001
0000
0010
0000
,
1001
0000
0100
0000
,
1001
0000
0001
0000
,
1000
0000
0010
0000
,
1000
0000
0001
0000
,
0100
0000
0010
0010
,
0010
0000
0100
0000
,
0001
0000
1000
0000
,
0100
0000
1000
0000
,
0001
0000
1000
1000
,
1001
0000
1001
0000
,
0010
0000
0100
0100
,
0100
0000
0001
0000
,
2000
0000
3000
0000
,
0220
0000
0000
0000
,
0330
0000
0000
0000
,
2002
0000
0000
0000
,
3003
0000
0010
0010
,
1000
0000
0001
0000
,
0100
0100
0100
0000
,
0001
0000
0010
0000
,
0001
0001
0001
0000
,
0100
0100
0100
0000
,
0110
0000
0010
0000
,
1000
0000
0001
0000
,
1000
0000
1000
0000
,
0001
0000
0100
0100
,
0200
0300
0000
0000
;

//--------------- dance-single - Alex ----------------
#NOTES:
     dance-single:
     Alex:
     Medium:
     5:
     0,0,0,0,0:
0000
0000
0000
0000
,
0000
0000
0000
0000
,
2002
0000
0000
0000
,
3003
0000
0000
0000
,
2002
0000
3003
0000
,
0020
0000
0030
0200
0000
0300
1001
0000
,
0001
0100
1000
0100
,
0001
0100
1000
0100
,
0001
0010
1000
0010
,
0001
0010
1001
1001
,
0001
1000
0010
0100
,
0001
1000
0100
0001
,
0100
1000
1000
0001
,
0100
0010
0220
0330
,
0010
0010
1000
1000
,
0011
0011
1100
1100
,
1000
0001
0100
0100
,
0110
0110
0101
0101
,
2002
0000
0000
0000
0000
0000
0000
0000
0000
0000
3003
0000
0000
0000
0000
1001
,
0000
0000
0000
0000
,
0220
0000
0000
0000
0000
0000
0000
0000
0000
0000
0330
0000
0000
0000
0000
0110
,
0000
0000
0100
0100
,
0001
0100
0001
0000
1000
0100
1000
0000
,
0001
1000
0020
0030
,
1000
0001
0010
0000
0001
1000
0100
0000
,
1000
0001
0200
0300
,
0001
0010
0100
1000
,
2002
3003
0001
0100
0020
0000
0000
0030
,
2000
3000
0001
1000
0100
0000
1001
0000
,
0001
0100
1000
0100
,
0001
0010
1000
0010
,
0001
0001
1000
1000
,
0010
0100
0101
0101
,
0001
1000
0100
0010
,
0100
1000
1000
0001
,
0100
0010
0100
0001
,
1000
0010
2020
3030
,
1000
1000
0001
0001
,
0101
0000
1010
0000
,
1000
0010
1000
0010
1000
0000
0001
0000
,
0101
0000
0110
0110
,
2002
0000
0000
0000
0000
0000
0000
0000
0000
0000
3003
0000
0000
0000
0000
1001
,
0000
0000
0000
0000
,
0220
0000
0000
0000
0000
0000
0000
0000
0000
0000
0330
0000
0000
0000
0000
0110
,
0000
0000
0100
0100
,
0010
1000
0010
0000
1000
0100
1000
0000
,
0001
0100
0020
0030
,
1000
0001
1000
0000
0001
0100
0001
0000
,
1000
0100
0020
0030
,
1001
1001
0220
0330
,
0010
0010
1000
0001
,
0010
0001
1000
1000
,
0001
0100
1000
0100
,
0001
1000
0010
0100
,
1001
1001
0000
0000
;

//--------------- dance-single - Alex ----------------
#NOTES:
     dance-single:
     Alex:
     Hard:
     8:
     0,0,0,0,0:
0000
0000
0000
0000
,
0000
0000
0000
0000
,
2002
0000
0000
3003
,
1001
0000
0000
0000
0000
0000
0000
1000
,
2002
0000
3003
0000
,
0002
0000
0000
0003
0000
0000
2000
0000
0000
3000
0000
0000
1001
0000
0000
0000
,
0001
0100
0010
0000
1000
0100
0010
0100
,
1000
0001
0100
0010
0100
0001
1000
0010
,
1000
0001
0010
0000
0001
0100
0001
0000
,
1000
0010
0100
0001
0101
0000
1010
0000
,
0010
1000
0100
0000
1000
0010
0100
0001
,
0010
0001
1000
0010
0100
0001
1000
0100
,
0010
0001
0100
0000
0010
0100
0001
0010
,
0001
0000
1000
0000
0010
0000
0100
0000
0001
0100
0001
0100
0002
0000
0003
0000
,
1000
0010
0100
0000
0001
0010
0100
0000
,
1010
0101
1010
0101
,
0001
0010
0001
0000
1000
0100
1000
0000
,
1010
0101
1010
0101
,
2002
0000
0000
0000
0000
0000
0000
0000
0000
0000
0000
0000
3003
0000
0000
0001
,
1000
0000
0000
0000
,
2002
0000
0000
0000
0000
0000
0000
0000
0000
0000
0000
0000
3003
0000
0000
1000
,
0001
0000
0010
0010
,
1000
0001
0200
0300
0001
0010
0200
0300
,
1000
0010
1000
0001
1000
0100
0010
0000
,
0001
0100
0002
0003
0010
0001
2000
3000
,
0010
1000
0001
0100
0010
1000
0200
0300
,
0010
0001
0100
0010
0100
0001
1000
0000
,
1001
0000
0000
0001
1000
0001
1000
0010
0200
0000
0000
0300
0000
0010
0000
0000
,
2000
0000
3000
0001
1000
0001
0100
0000
0001
0000
0000
0000
1001
0000
0000
0000
,
0001
1000
0010
0000
1000
0001
0010
0001
,
1000
0010
1000
0001
1000
0100
0010
0001
,
0100
0010
0100
0000
0001
0010
0001
0000
,
1000
0010
1000
0001
1001
0000
0110
0000
,
0010
0100
0001
0000
0010
0001
0100
0010
,
0100
0001
0010
0100
0010
0001
1000
0010
,
1000
0001
0100
0000
0010
1000
0100
0000
,
1000
0000
0001
0000
0100
0000
0010
0000
0100
0001
0100
0001
0200
0000
0300
0000
,
0001
0000
1000
0000
0010
0000
1000
0010
0000
0000
0000
0000
1010
0000
0000
0000
,
0010
0000
0000
1000
0000
0000
0001
0000
0100
0000
0000
0001
0100
0000
0000
0000
,
0001
0000
1000
0000
0010
0100
0010
0100
0000
0002
0000
0000
0003
0000
0000
0000
,
2000
3000
0002
0003
,
2002
0000
0000
0000
0000
0000
0000
0000
0000
0000
0000
0000
3003
0000
0000
0001
,
1000
0000
0000
0000
,
2002
0000
0000
0000
0000
0000
0000
0000
0000
0000
0000
0000
3003
0000
0000
1000
,
0001
0000
0100
0100
,
0001
1000
0002
0003
1000
0100
2000
3000
,
0010
1000
0001
0010
0100
1000
0020
0030
,
1000
0001
0200
0300
0001
0010
0002
0003
,
1000
0010
1000
0001
1000
0100
2000
3000
,
0001
0100
0010
0100
0001
0010
0110
0000
,
0010
0001
0100
0000
0010
1000
0100
0010
,
0100
1000
0001
0100
0010
0100
0001
1000
,
0010
1000
0001
0000
1000
0001
0010
0000
,
0001
0000
1000
0000
0010
0000
0100
0000
0001
0000
1000
0000
0100
0000
0000
1000
,
0100
1001
0000
0000
;

//--------------- dance-single - Alex ----------------
#NOTES:
     dance-single:
     Alex:
     Challenge:
     11:
     0,0,0,0,0:
0000
0000
0000
0000
,
0000
0000
0000
0000
,
0220
0000
0000
0330
,
1MM1
0000
0000
0000
0000
0000
0000
0011
,
2200
0000
0000
3300
,
MM22
0000
0033
0000
00MM
0000
22MM
0000
3300
0000
MM00
0000
0001
1000
0001
1000
,
0001
0100
0010
0100
0001
0000
1000
0010
0000
1010
0000
0101
0000
0011
0000
1100
,
0000
0100
1000
0010
0100
0001
1000
0010
0000
1000
0000
0001
0000
0100
0000
0001
,
0010
0100
1000
0001
0100
0000
0001
1000
0000
0011
0000
0101
0000
0110
0000
1010
,
0000
0000
0000
0010
0000
0000
1000
0000
0000
0100
0000
0000
1000
0000
0000
0010
0000
0000
0100
0000
0000
0001
0000
0000
1000
0000
0100
0000
1000
0000
0200
0000
0000
0000
0300
0000
0010
0000
0001
0000
0010
0000
0002
0000
0000
0000
0003
0000
,
0100
0010
0100
0001
1000
0000
0001
0100
0000
0101
0000
0011
0000
1001
0000
1010
,
0000
0010
1000
0001
1000
0010
0100
0001
0000
0100
0000
1000
0000
0100
0000
0001
,
0010
0001
0100
0010
1000
0000
0001
1000
0000
1001
0000
0101
0000
1010
0000
1100
,
0000
0100
0010
0001
0100
0010
0100
0001
1000
0010
1000
0010
1000
0001
0200
0300
,
0001
0010
0100
1000
0001
0000
0001
1000
0000
1000
0010
1000
0001
0000
0100
0000
,
M11M
0000
0000
M1M1
0000
0000
MM11
0000
1MM1
0000
0000
1M1M
0000
0000
1MM1
0000
,
0001
1000
0001
0000
1000
0100
1000
0010
0100
0000
0001
0010
0100
0000
1000
0000
,
1MM1
0000
0000
1M1M
0000
0000
M1M1
0000
MM11
0000
0000
1MM1
0000
0000
M11M
0000
,
0010
1000
0001
0100
0020
0000
0030
1000
0000
0100
0000
0001
0000
0100
0000
2000
,
0000
0000
3000
0001
0100
0001
0000
1000
0000
0010
0000
1010
0000
0101
0000
0001
,
1000
0100
0010
0001
0200
0000
0300
0001
0000
0010
0000
1000
0000
0010
0000
0002
,
0000
0000
0000
0000
0000
0000
0003
0000
0000
0100
0000
0000
0010
0000
0000
0100
0000
0000
0000
0000
0000
0001
0000
0000
1000
0000
0001
0000
1000
0000
0002
0000
0000
0000
0003
0000
1000
0000
0010
0000
1000
0000
0020
0000
0000
0000
0030
0000
,
0100
0001
1000
0010
0100
0000
0001
0010
0000
0010
0001
1000
0020
0030
2000
3000
,
0001
1000
0010
0100
0001
1000
0100
0010
0001
0100
0010
0100
0002
0000
0003
0000
,
1000
0100
1000
0010
1000
0000
1000
0001
0000
0001
0010
0001
2000
3000
0020
0030
,
0100
0001
1000
0100
0010
0001
1000
0010
1000
0001
0010
0001
2000
0000
3000
0000
,
0001
0100
0010
1000
0100
0010
0100
1000
0001
0100
0010
0100
0002
0000
0003
0000
,
2002
0000
3003
0010
0100
0001
1000
0200
2000
0000
0000
0000
0000
0010
3300
0000
,
0022
0000
0033
0100
1000
0100
0001
2000
0020
0000
0000
0000
3131
0000
MMMM
0000
,
1000
0100
0010
0001
1000
0000
0010
0100
0000
0101
0000
1010
0000
1100
0000
0011
,
0000
0001
1000
0010
0100
0001
0010
0100
0000
1000
0000
0100
0000
0001
0000
0100
,
1000
0010
1000
0001
0010
0000
0010
0001
0000
0101
0000
0011
0000
1001
0000
1010
,
0000
0000
0000
0010
0000
0000
1000
0000
0000
0001
0000
0000
0100
0000
0000
0010
0000
0000
1000
0000
0000
0001
0000
0000
0010
0000
0001
0000
0010
0000
0002
0000
0000
0000
0003
0000
1000
0000
0010
0000
1000
0000
0020
0000
0000
0000
0030
0000
,
0100
0001
1000
0001
0100
0000
0001
0100
0000
0110
0000
0101
0000
0011
0000
1001
,
0000
0001
1000
0010
1000
0001
1000
0100
0000
0001
0000
0100
0000
1000
0000
0010
,
1000
0001
0100
0010
1000
0000
1000
0001
0000
0011
0000
1001
0000
1010
0000
1100
,
0000
0100
1000
0010
0100
0001
1000
0010
0100
0001
0010
0100
1000
0001
0200
0300
,
0010
1000
0010
0000
1000
0001
1000
0002
0000
0003
1010
0000
1001
0000
MMMM
0000
,
0001
0000
0001
1000
0000
1000
0010
0000
1000
0000
0001
0100
0020
0000
0030
0000
,
1000
0100
0020
0030
0001
1000
0010
0200
0300
0002
0000
0000
0003
0000
0000
0000
,
1000
0100
0010
0001
1000
0100
0010
0001
1000
0100
0010
0001
2000
0000
3000
0000
,
0001
1000
0010
0100
0002
0000
0003
1000
0000
0100
0000
0001
0000
0100
0000
2000
,
0000
0000
3000
0001
0100
0001
0000
1000
0000
0001
0000
0101
0000
0011
0000
0001
,
0100
0010
1000
0100
0020
0000
0030
0001
0000
0100
0000
1000
0000
0100
0000
0002
,
0000
0000
0000
0000
0000
0000
0003
0000
0000
1000
0000
0000
0010
0000
0000
1000
0000
0000
0000
0000
0000
0001
0000
0000
1000
0000
0001
0000
1000
0000
0002
0000
0000
0000
0003
0000
0100
0000
0010
0000
0100
0000
0020
0000
0000
0000
0030
0000
,
1000
0001
0010
0100
1000
0000
1000
0001
0000
0001
0100
0010
0200
0300
0002
0003
,
1000
0100
0010
0001
1000
0010
0100
0001
0010
0100
1000
0001
2000
0000
3000
0000
,
0001
1000
0010
0100
0001
0000
0001
0010
0000
0010
0001
1000
0020
0030
2000
3000
,
0001
1000
0010
0100
0001
0010
0001
1000
0010
0100
0001
1000
0200
0000
0300
0000
,
1000
0010
1000
0001
0010
0001
1000
0010
0100
0001
1000
0000
1001
0000
MMMM
0000
,
0001
1000
0010
0100
0001
0000
0001
0010
0000
0011
0000
0101
0000
1010
0000
1100
,
0000
0100
1000
0010
1000
0100
0010
0001
0000
0100
0000
1000
0000
0100
0000
0001
,
0010
0001
0100
0010
1000
0000
1000
0001
0000
0011
0000
1001
0000
1100
0000
0110
,
0000
0001
0100
0010
0100
0001
1000
0010
0100
0001
0010
0100
1000
0001
0100
0010
,
0100
0000
1MM1
0000
0000
MMMM
0000
0000
;
