#TITLE:Hello;
#SUBTITLE:;
#ARTIST:Banya;
#TITLETRANSLIT:;
#SUBTITLETRANSLIT:;
#ARTISTTRANSLIT:;
#GENRE:;
#CREDIT:;
#MUSIC:Hello.ogg;
#BANNER:Hello.png;
#BACKGROUND:Hello-BG.png;
#CDTITLE:;
#SAMPLESTART:30.974;
#SAMPLELENGTH:11.393;
#SELECTABLE:YES;
#OFFSET:-0.170;
#BPMS:0.000=140.000;
#STOPS:;
#BGCHANGES:;
#FGCHANGES:;

//--------------- dance-single - Alex ----------------
#NOTES:
     dance-single:
     Alex:
     Beginner:
     1:
     0,0,0,0,0:
0000
0000
0000
0000
,
0000
0000
0000
0000
,
0000
0000
0000
0000
,
0000
0000
0000
0000
,
0100
0000
0000
0000
,
0001
0000
0000
0000
,
0001
0000
0000
0000
,
1000
0000
0000
0000
,
0010
0000
0010
0000
,
0010
0000
0000
0000
,
1001
0000
0000
0000
,
0001
0000
0000
0000
,
1000
0000
0000
0000
,
0100
0000
0000
0000
,
1000
0000
0000
0000
,
1000
0000
0000
0000
,
0001
0000
0000
0000
,
0001
0000
0000
0000
,
0110
0000
0000
0000
,
0010
0000
0000
0000
,
1000
0000
1000
0000
,
1000
0000
0000
0000
,
0010
0000
0000
0000
,
0100
0000
0000
0000
,
0001
0000
0000
0000
,
0001
0000
0000
0000
,
1001
0000
0000
0000
,
1000
0000
0000
0000
,
0010
0000
0000
0000
,
1000
0000
0000
0000
,
0001
0000
0000
0000
,
0001
0000
0000
0000
,
1000
0000
0000
0000
,
0010
0000
0000
0000
,
0110
0000
0000
0000
,
0010
0000
0000
0000
,
1000
0000
1000
0000
,
1000
0000
0000
0000
,
0010
0000
0000
0000
,
1000
0000
0000
0000
,
0100
0000
0100
0000
,
0100
0000
0000
0000
,
1001
0000
0000
0000
,
0001
0000
0000
0000
,
1000
0000
0000
0000
,
0010
0000
0000
0000
,
0000
0000
0000
0000
,
1000
0000
0000
0000
,
1000
0000
0000
0000
,
0001
0000
0000
0000
,
0001
0000
0000
0000
,
0100
0000
0000
0000
,
0100
0000
0000
0000
;

//--------------- dance-single - Alex ----------------
#NOTES:
     dance-single:
     Alex:
     Easy:
     3:
     0,0,0,0,0:
0000
0000
0000
0000
,
0000
0000
0000
0000
,
1000
0000
1000
0000
,
0001
0000
0001
0000
,
0100
0100
0100
0000
,
0010
0010
0010
0000
,
1000
0000
0001
0000
,
0100
0000
0001
0000
,
1001
0000
0000
0000
,
1001
0000
0000
0000
,
0010
0000
0010
0000
,
0100
0000
0100
0000
,
0001
0000
1000
0000
,
0001
0000
0001
0000
,
1000
1000
1000
0000
,
0001
0001
0001
0000
,
1000
0000
0010
0000
,
0100
0000
0001
0000
,
1000
1000
1000
0000
,
0100
0100
0100
0000
,
1000
0000
0001
0000
,
0010
0000
0001
0000
,
0110
0000
0110
0000
,
0110
0000
0000
0000
,
1001
0000
1001
0000
,
1001
0000
0000
0000
,
0001
0000
0001
0000
,
1000
0000
1000
0000
,
0001
0000
0010
0000
,
0001
0000
1000
0000
,
0100
0100
0100
0000
,
1000
1000
1000
0000
,
0001
0000
1000
0000
,
1001
0000
0000
0000
,
0010
0010
0010
0000
,
1000
1000
1000
0000
,
0001
0000
1000
0000
,
0010
0000
0100
0000
,
0001
0001
0001
0000
,
0100
0100
0100
0000
,
0001
0000
1000
0000
,
0100
0000
1000
0000
,
1001
0000
0000
0000
,
0110
0000
0000
0000
,
0100
0100
0010
0010
,
0100
0000
0000
0000
,
0000
0000
0000
0000
,
1001
0000
0001
0000
,
1000
0000
0001
0000
,
1000
1000
1000
0000
,
0001
0001
0001
0000
,
0100
0010
0100
0010
,
0100
0000
0000
0000
;

//--------------- dance-single - Alex ----------------
#NOTES:
     dance-single:
     Alex:
     Medium:
     5:
     0,0,0,0,0:
0000
0000
0000
0000
,
0000
0000
0000
0000
,
0010
0010
1000
1000
,
0001
0001
1001
0000
,
0001
0100
0010
0010
,
0100
0001
0010
0010
,
0001
1000
0010
1000
,
0001
0100
0010
0000
,
0100
0001
0010
0100
,
1000
0001
1001
0000
,
1000
0010
1000
0000
,
0001
0100
0001
0000
,
0010
0100
1000
0000
,
0001
0100
0010
0000
,
0100
0100
0001
0001
,
1000
1000
0010
0010
,
1000
0001
0010
0100
,
1000
0001
1001
0000
,
0001
0100
0001
0001
,
1000
0010
1000
1000
,
0001
0010
0100
0010
,
0001
0100
0110
0000
,
0010
0010
0010
0000
,
1000
0001
1000
1000
,
0001
0100
0001
0000
,
1000
0010
0100
0001
,
1001
0000
0001
0100
,
0110
0000
0010
1000
,
1100
0000
1000
0001
,
0011
0000
0001
0001
,
0100
0010
0100
0100
,
0001
1000
0100
0100
,
1000
0001
0010
0100
,
1000
0001
0101
0000
,
0100
0010
0010
1000
,
0001
0001
1000
1000
,
0001
0100
0010
0100
,
0001
1000
1100
0000
,
1000
1000
0010
0010
,
1000
0001
0100
0100
,
0001
0010
0100
1000
,
0001
0100
0110
0000
,
0010
0100
0010
0000
,
1000
0001
1000
0000
,
0001
0100
0010
0100
,
1001
0000
0110
0000
,
1001
0000
0000
0000
,
0001
0001
0100
0100
,
0010
1000
0100
0100
,
1000
0001
0010
0100
,
1000
0001
0100
0010
,
0110
0000
1001
0000
,
0110
0000
0000
0000
;

//--------------- dance-single - Alex ----------------
#NOTES:
     dance-single:
     Alex:
     Hard:
     8:
     0,0,0,0,0:
0000
0000
0000
0000
,
0000
0000
0000
0000
,
0001
0000
1000
0000
0010
0000
0000
1000
0000
0001
0000
0000
1000
0000
0000
0000
,
0001
0000
0100
0000
0001
0000
0000
0010
0000
0100
0000
0000
1001
0000
0000
0000
,
0001
0000
1000
0000
0010
0000
0000
1000
0000
0001
0000
1000
0001
0000
0000
0000
,
0100
0000
0001
0000
0010
0000
0000
0001
0000
1000
0000
0010
1000
0000
0000
0000
,
0001
0000
0000
0100
0000
0000
0001
0000
1000
0000
0000
0010
0000
0000
0100
0000
,
0001
0000
0000
1000
0000
0000
0100
0000
0010
0100
0000
0100
0010
0000
0000
0000
,
0001
0000
0000
0001
0000
1000
0010
0000
1000
0000
0000
1000
0000
0001
0100
0000
,
0001
0000
0000
0010
0000
0001
0100
0000
0010
0000
0000
0010
0000
0100
0001
0000
,
1000
0000
0000
0001
0000
0000
0100
0000
0001
0000
0000
1000
0000
0000
0010
0000
,
1000
0000
0000
0001
0000
0000
0010
0000
0001
0000
0000
0200
0000
0000
0300
0000
,
0010
0000
0000
0010
0000
0000
1000
0000
0001
0000
0000
0100
0000
0000
0001
0000
,
1000
0000
0000
0010
0000
0000
1000
0000
0001
0000
0000
0020
0000
0000
0030
0000
,
0001
0000
0000
0001
0000
0000
0100
0000
0001
0000
0000
1000
0000
0000
0010
0000
,
1000
0000
0000
1000
0000
0000
0001
0000
0100
0000
0000
0100
0000
0000
0010
0000
,
0000
1000
0000
0001
1000
0000
0001
0000
0100
0000
0001
0000
1000
0000
0010
0000
,
1000
0000
0000
1000
0000
0000
0001
0000
0100
0000
0000
0020
0000
0000
0030
0000
,
1000
0000
0001
0000
1000
0000
0000
0001
0000
0100
0000
0001
0100
0000
0000
0000
,
0010
0000
1000
0000
0100
0000
0000
1000
0000
0010
0000
1000
0010
0000
0000
0000
,
1000
0000
0000
0001
0000
0000
1000
0000
0001
0000
0000
0100
0000
0000
0010
0000
,
0100
0000
0000
0100
0000
0000
0010
0000
1000
0100
0000
0100
1000
0000
0000
0000
,
0001
0000
0010
0000
0001
0000
0000
1000
0000
0001
0000
0000
1001
0000
0000
0000
,
0001
0000
1000
0000
0010
0000
0000
0100
0000
0010
0000
0000
0110
0000
0000
0000
,
0010
0000
1000
0000
0100
0000
0000
1000
0000
0001
0000
0000
0011
0000
0000
0000
,
0001
0000
0100
0000
0010
0000
0000
0100
0000
0001
0000
0000
1000
0000
0010
0000
,
1000
0000
0000
0001
0000
0000
1000
0000
0010
0000
0000
0100
0000
0000
0100
0000
,
0001
0000
0000
0010
0000
0000
0001
0000
1000
0000
0000
2000
0000
0000
3000
0000
,
0010
0000
0000
0010
0000
0000
1000
0000
0001
0000
0000
0001
0000
0000
0100
0000
,
0010
0000
0000
0100
0000
0000
0001
0000
0010
0000
0100
0000
1000
0000
0001
0000
,
0100
0000
0000
0100
0000
0000
0001
0000
1000
0000
0000
1000
0000
0000
0001
0000
,
0010
0000
0000
0010
0000
0000
0001
0000
1000
0000
0000
0010
0000
0000
0010
0000
,
0000
0100
0000
0001
0100
0000
0001
0000
0010
0000
0001
0000
0100
0000
0010
0000
,
0010
0000
0000
0100
0000
0000
0001
0000
1000
0000
0000
0200
0000
0000
0300
0000
,
1000
0000
0001
0000
1000
0000
0000
0001
0000
1000
0000
0001
0100
0000
0000
0000
,
0010
0000
0100
0000
0010
0000
0000
1000
0000
0100
0000
1000
0100
0000
0000
0000
,
1000
0000
0000
0001
0000
0000
0010
0000
0001
0000
0000
0100
0000
0000
0010
0000
,
0100
0000
0000
0100
0000
0000
0001
0000
1000
0001
0000
0001
1000
0000
0000
0000
,
0001
0000
0010
0000
0001
0000
0000
1000
0000
0010
0000
1000
0010
0000
0000
0000
,
1000
0000
0001
0000
0100
0000
0000
0001
0000
0010
0000
0100
1000
0000
0000
0000
,
0001
0000
0000
0100
0000
0000
0001
0000
1000
0000
0000
1000
0000
0000
0010
0000
,
0100
0000
0000
0001
0000
0000
1000
0000
0100
1000
0000
1000
0100
0000
0000
0000
,
1000
0000
0010
0000
1000
0000
0000
0001
0000
0001
0000
0100
0001
0000
0000
0000
,
1000
0000
0010
0000
0100
0000
0000
0001
0000
1000
0000
0010
0100
0000
0000
0000
,
0001
0000
0000
0100
0000
0000
0010
0000
1000
0000
0000
0001
0000
0000
0010
0000
,
0110
0000
1100
0000
,
0011
0000
0000
0000
,
0001
0100
0001
1000
0010
1000
0001
0000
,
0010
0100
1000
0001
0100
0010
0100
0000
,
0001
0000
1000
0000
0010
0000
0000
1000
0000
0001
0000
0100
0010
0000
0000
0000
,
0100
0000
0001
0000
1000
0000
0000
0100
0000
1000
0000
0100
1000
0000
0000
0000
,
0001
0000
0000
0100
0000
0000
0010
0000
0100
0000
0000
0100
0000
0000
0001
0000
,
1001
0000
0000
0000
0000
0000
0000
0000
0000
0000
0001
1000
0000
0010
0000
0000
;

//--------------- dance-single - Alex ----------------
#NOTES:
     dance-single:
     Alex:
     Challenge:
     9:
     0,0,0,0,0:
0000
0000
0000
0000
,
0000
0000
0000
0000
,
0001
0000
1000
0000
0010
0000
1000
0010
0000
1000
0000
0001
0100
0000
0100
0000
,
0001
0000
0010
0000
0100
0000
0010
0001
0000
0100
0000
0010
0100
0000
0000
0000
,
0001
1000
0001
1000
0001
1000
0001
1000
0000
0001
0000
0100
0001
0000
0000
0000
,
0100
0010
0100
0010
0100
0010
0100
0010
0000
0100
0000
0001
1000
0000
0000
0000
,
1001
0000
0000
1010
0000
0000
1001
0000
0011
0000
0000
0101
0000
0000
0110
0000
,
0101
0000
0000
0011
0000
0000
1001
0000
0010
0100
0000
0100
0010
0000
0000
0000
,
1010
0000
0010
1000
0100
1000
0010
0000
0100
0000
0001
0010
0100
1000
0001
0000
,
1000
0000
0001
0100
0001
0100
0001
0000
1000
0000
0010
1000
0010
0100
0010
0000
,
1010
0000
0000
1000
0000
0000
0001
0000
0100
0000
1000
0000
0100
0000
0001
0010
,
0001
0000
0000
0100
0000
0000
0010
0000
0001
0000
0010
0000
1000
0000
0100
1000
,
0100
0000
0000
1000
0000
0000
0010
0000
0010
0000
1000
0000
0001
0000
0100
0001
,
0100
0000
0000
0001
0000
0000
0010
0000
0100
0000
1000
0000
0001
0000
0100
0000
,
0110
0000
0000
0101
0000
0000
0001
1000
0010
0000
0000
1010
0000
0000
0010
1000
,
0001
0000
0000
1001
0000
0000
0001
0100
0001
0000
0000
0101
0000
0000
0110
0000
,
0000
0010
0000
1000
0100
0000
1000
0000
0001
0100
0001
0100
0001
1000
0000
0001
,
1000
0000
0000
1001
0000
0000
0110
0000
0011
0000
0000
1100
0000
0000
0000
0000
,
1000
0010
1000
0010
1000
0010
1000
0010
0000
1000
0000
0001
0100
0000
0000
0000
,
0001
1000
0001
1000
0001
1000
0001
1000
0000
0001
0000
0100
0001
0000
0000
0000
,
0101
0000
0000
0011
0000
0000
0101
0000
0110
0000
0000
1010
0000
0000
1001
0000
,
0011
0000
0000
1001
0000
0000
1100
0000
0010
0100
0000
0100
0010
0000
0000
0000
,
1000
0000
0010
0000
1010
0000
0010
1000
0000
0001
0000
0100
0001
0000
0100
0000
,
0010
0000
0100
0000
0101
0000
0001
1000
0000
0010
0000
1000
0001
0000
0010
0000
,
0001
0000
0100
0000
0101
0000
0001
1000
0000
0010
0000
1000
0100
0000
0010
0000
,
0001
0100
0000
0100
0001
0000
1000
0000
0010
1000
0000
1000
0010
0000
1010
0000
,
1001
0000
0000
0101
0000
0000
0110
0000
1010
0000
0000
1100
0000
0000
0010
0001
,
0100
0000
0000
0101
0000
0000
0110
0000
0101
0000
0000
0011
0000
0000
0001
1000
,
0010
0000
0000
1010
0000
0000
1001
0000
0101
0000
0000
0110
0000
0000
0010
0100
,
0010
0000
0000
0110
0000
0000
0100
0001
0100
0000
0001
0000
0010
0000
0100
0000
,
1100
0000
0000
1010
0000
0000
0100
0001
0100
0000
0000
0011
0000
0000
0100
1000
,
0100
0000
0000
1010
0000
0000
0001
0100
0001
0000
0000
1010
0000
0000
1001
0000
,
0001
0100
0000
0100
0001
0000
0010
0000
0100
1000
0010
0100
0001
1000
0000
1000
,
0010
0000
0000
0110
0000
0000
0101
0000
1001
0000
0000
0110
0000
0000
0000
0000
,
0010
1000
0100
0010
0100
1000
0010
0100
0000
0100
0000
0001
1000
0000
0000
0000
,
0001
0010
0001
0100
0001
0010
0001
0100
0000
0100
0000
0010
1000
0000
0000
0000
,
1001
0000
0000
0110
0000
0000
0101
0000
0011
0000
0000
1001
0000
0000
1010
0000
,
1001
0000
0000
1100
0000
0000
0110
0000
0001
1000
0000
1000
0001
0000
0000
0000
,
0001
1000
0010
1000
0001
1000
0100
0010
0000
0001
0000
0100
0010
0000
0000
0000
,
0100
0001
0010
0001
0100
0001
1000
0010
0000
0010
0000
1000
0001
0000
0000
0000
,
1001
0000
0000
1001
0000
0000
0110
0000
0101
0000
0000
0011
0000
0000
1100
0000
,
0110
0000
0000
0110
0000
0000
1001
0000
0010
0100
0000
0100
0010
0000
0000
0000
,
1000
0010
1000
0010
1000
0010
1000
0001
0000
0100
0000
0001
0100
0000
0000
0000
,
0010
0100
0010
0100
0010
0100
0010
0100
0000
0001
0000
0010
0001
0000
0000
0000
,
0101
0000
0000
0110
0000
0000
0101
0000
0011
0000
0000
1001
0000
0000
1010
0000
,
1001
0000
0110
0000
,
1001
0000
0000
0000
,
0001
1000
0010
1000
0001
0000
1000
0000
0001
0100
0010
0100
0001
0000
1000
0000
,
0100
0010
0001
1000
0010
0000
0010
0000
0100
0001
0100
0001
0100
0000
0001
0000
,
1000
0000
1000
0000
0001
1000
0000
0001
0000
0100
0000
0001
0010
0000
0001
0000
,
0100
0000
0100
0000
0010
1000
0000
0100
0000
1000
0000
0010
0100
0000
0001
0000
,
1001
0000
0000
0101
0000
0010
0100
0000
0101
0000
0001
1000
0001
1000
0001
0000
,
1000
0010
1000
0010
0100
0001
0100
0010
0100
0000
0001
1000
0000
1001
0000
0000
;
