#TITLE:Haley;
#SUBTITLE:;
#ARTIST:Sam-I-Am;
#TITLETRANSLIT:;
#SUBTITLETRANSLIT:;
#ARTISTTRANSLIT:;
#GENRE:;
#CREDIT:;
#MUSIC:Haley.ogg;
#BANNER:Haley.png;
#BACKGROUND:Haley-BG.png;
#CDTITLE:;
#SAMPLESTART:45.702;
#SAMPLELENGTH:11.629;
#SELECTABLE:YES;
#OFFSET:-0.233;
#BPMS:0.000=112.000;
#STOPS:;
#BGCHANGES:;
#FGCHANGES:;

//--------------- dance-single - Alex ----------------
#NOTES:
     dance-single:
     Alex:
     Beginner:
     1:
     0,0,0,0,0:
0000
0000
0000
0000
,
0000
0010
0000
0000
,
0000
0001
0000
0000
,
0000
0100
0000
0000
,
0000
1000
0000
0000
,
0000
0001
0000
0000
,
0000
1000
0000
0000
,
0000
0010
0000
0000
,
0000
0001
0000
0000
,
0000
0100
0000
0000
,
0000
0001
0000
0000
,
0000
0001
0000
0000
,
0000
1000
0000
0000
,
0000
0010
0000
0000
,
0000
1000
0000
0000
,
0000
0001
0000
0000
,
0000
1000
0000
0000
,
0000
0100
0000
0000
,
0000
1000
0000
0000
,
0000
0001
0000
0000
,
0000
0010
0000
0000
,
0000
0001
0000
0000
,
0000
1000
0000
0000
,
0000
0010
0000
0000
,
0000
0100
0000
0000
,
0000
0001
0000
0000
,
0000
0010
0000
0000
,
0000
0010
0000
0000
,
0000
0001
0000
0000
,
0000
1000
0000
0000
,
0000
0100
0000
0000
,
0000
1000
0000
0000
,
0000
0100
0000
0000
,
0000
0100
0000
0000
,
0000
1000
0000
0000
,
0000
0001
0000
0000
,
0000
0100
0000
0000
,
0000
0010
0000
0000
,
0000
1000
0000
0000
,
0000
0001
0000
0000
,
0000
0100
0000
0000
,
0000
0010
0000
0000
,
0000
1000
0000
0000
,
0000
0001
0000
0000
,
0000
1000
0000
0000
,
0000
0010
0000
0000
;

//--------------- dance-single - Alex ----------------
#NOTES:
     dance-single:
     Alex:
     Easy:
     2:
     0,0,0,0,0:
0000
0000
0000
0000
,
0000
1000
0000
0001
,
0000
1000
0000
1000
,
0000
0001
0000
1000
,
0000
0010
0000
0100
,
0000
0001
0000
0001
,
0000
1000
0000
0001
,
0000
1000
0000
0010
,
0000
0100
0000
0001
,
0000
2000
0000
3000
,
0000
0002
0000
0003
,
0000
0200
0000
0300
,
0000
0010
0010
0010
,
0000
1001
0000
1000
,
0000
0001
0000
1000
,
0000
0010
0000
0100
,
0000
0001
0001
0001
,
0000
0010
0000
0001
,
0000
1000
0000
0010
,
0000
1000
0000
1000
,
0000
0002
0000
0003
,
0000
1001
0000
0001
,
0000
1000
0000
0010
,
0000
1000
0000
0001
,
0000
1000
0000
0100
,
0000
0100
0000
1000
,
0000
0010
0000
1000
,
0000
0001
0000
0001
,
0000
1000
0000
0010
,
0000
0200
0000
0300
,
0000
0002
0000
0003
,
0000
0020
0000
0030
,
0000
0001
0000
1000
,
1000
2000
0000
3000
,
0000
0020
0000
0030
,
0000
2000
0000
3000
,
0000
0001
0000
1000
,
1000
1000
0000
0001
,
0000
1000
0000
0010
,
0000
0100
0000
0100
,
0000
0001
0001
0001
,
0000
1001
0000
0001
,
0000
1000
0000
0001
,
0000
0100
0000
0100
,
0000
0010
0000
0100
,
0100
0100
0000
0000
;

//--------------- dance-single - Alex ----------------
#NOTES:
     dance-single:
     Alex:
     Medium:
     4:
     0,0,0,0,0:
0000
0000
0000
0000
,
0000
0001
0000
1000
,
0000
0001
1000
0001
,
0000
1000
0000
0010
,
0000
1000
0010
1000
,
0000
0001
0000
0100
,
0000
0001
1000
0001
,
0000
1000
0000
1000
,
0000
0001
1000
0001
,
0100
0020
0000
0030
,
0100
0200
0000
0300
,
0001
0002
0000
0003
,
0000
1000
0001
1001
,
0000
0001
0100
0001
,
0000
1000
0010
1000
,
0000
0001
1000
0010
,
0000
0100
0001
1000
,
1001
0001
0001
0001
,
0000
1000
1000
0010
,
0000
0100
0001
1000
,
0001
0100
0000
0110
,
0000
0010
0000
0010
,
0000
1000
0001
1000
,
0000
0001
0000
0100
,
0000
0010
1000
0100
,
0000
1000
0000
0001
,
0000
1000
0001
1000
,
0000
0001
0000
0100
,
0000
0001
0010
0001
,
0100
0020
0000
0030
,
1000
2000
0000
3000
,
0001
0002
0000
0003
,
0000
1000
0000
0001
,
1000
0020
0000
0030
,
0100
0200
0000
0300
,
0001
0002
0000
0003
,
0000
1000
0001
1000
,
1000
1001
0000
0110
,
0000
0010
0100
0010
,
0000
0100
0001
0100
,
0001
1000
0001
1001
,
0000
0001
0001
0001
,
0000
1000
1000
1000
,
0000
0010
0010
0100
,
0000
1001
0000
0110
,
0000
2002
0000
3003
;

//--------------- dance-single - Alex ----------------
#NOTES:
     dance-single:
     Alex:
     Hard:
     6:
     0,0,0,0,0:
0000
0000
0000
0000
,
0000
0010
1000
0001
,
0001
0000
1000
0000
0010
0000
1000
0010
,
1000
0001
0100
0010
,
1000
0000
0001
0000
0010
0000
0001
0100
,
0001
0100
0001
1000
,
1000
0000
0001
0000
0001
0000
1000
0010
,
1000
0001
0100
0010
,
1000
0001
0010
0001
,
0100
0120
0000
0130
,
0000
2000
0000
3010
,
0000
0020
0000
0130
,
0000
2002
0000
3003
,
0000
1001
0001
0100
,
0010
0000
1000
0001
0100
0000
0001
0010
,
0100
1000
1000
0001
,
0001
0000
0100
0010
0100
0000
0001
0010
,
0001
1000
1000
0010
,
0100
0000
0001
0100
0010
0000
0101
0000
,
1010
0000
0010
1000
0010
0000
1000
0001
,
1000
0001
1000
1000
,
0010
0100
0100
0001
,
0001
0000
1000
0000
0010
0000
1000
0010
,
1000
0001
1000
0010
,
1000
0000
0001
0000
0100
0000
0001
1000
,
0001
1000
1000
0001
,
0100
0000
0010
0000
1000
0000
0001
0010
,
0001
0100
0100
0001
,
1000
0010
1000
0100
,
1000
1002
0000
1003
,
0000
2000
0000
3001
,
0000
0002
0000
0103
,
0000
0200
0000
0010
,
0310
1001
0001
1000
,
1000
0001
0100
0010
,
0010
1000
0001
0010
,
0001
0200
0000
0310
,
0000
1001
0001
1000
,
1000
0000
0001
0100
0001
0000
1000
0100
,
1000
0001
1000
0010
,
1000
0000
0001
0100
0001
0100
0001
0000
,
1001
1000
1000
0001
,
0001
0000
1000
0000
0010
0000
0100
0001
,
1000
0001
0010
0100
,
1000
0001
0100
0110
,
1001
0220
0000
0330
;

//--------------- dance-single - Alex ----------------
#NOTES:
     dance-single:
     Alex:
     Challenge:
     8:
     0,0,0,0,0:
0000
0000
0000
0000
,
0000
0000
0000
0000
0001
0000
1000
0000
0010
0000
1000
0000
0001
0000
0100
0001
,
0000
0000
0010
0000
0001
0000
0100
0000
0010
0000
0100
0000
0001
0000
1000
0020
,
0000
0000
0030
0000
1000
0000
1000
0000
0001
0000
0100
0000
0010
0000
0100
0010
,
0000
0100
0001
0010
0001
0100
0010
1000
,
0002
0000
0000
0003
1000
0000
1000
0000
0001
0000
0100
0000
0010
0100
0000
0001
,
0000
0000
1000
0000
0100
0000
0010
0000
0001
0000
0100
0000
0010
0000
1000
0020
,
0000
0030
1000
0001
0100
0010
0100
0001
,
0100
0010
1000
0001
0010
0001
0100
0100
,
0001
0001
1002
0000
0100
0000
1000
0000
,
0103
2000
0010
0100
,
3010
0002
0100
0010
,
0103
0000
0000
0000
1000
0000
0001
0100
0001
0000
1000
0000
2002
0000
0000
0000
,
3003
0000
0000
0000
0001
0000
1000
0000
0010
0000
1000
0000
0001
0000
0100
0001
,
0100
0000
0000
0000
0001
0000
0100
0000
0010
0000
0100
0000
0001
0000
1000
0010
,
1000
0000
0000
0000
0001
0000
1000
0001
0100
0000
0100
0000
0010
0000
1000
0001
,
0010
0000
0001
0100
0010
0100
0001
1000
,
2020
0000
3030
0000
1000
0000
0001
1000
0001
0000
0010
0000
0100
0000
1000
0001
,
0000
0000
0100
0000
0100
0000
0001
1000
0010
0000
0100
0000
0001
0000
1000
0000
,
0001
0000
0000
0000
0010
0000
0001
0100
0010
0000
0100
0001
0100
0000
0010
1000
,
0000
1000
0010
1000
0010
0000
0100
0000
0001
0000
1000
0000
0001
0000
0100
0000
,
0110
0000
0000
0000
0010
0000
1000
0000
0100
0000
0010
0000
0001
0000
1000
0010
,
0000
0000
0100
0000
0001
0000
0010
0000
0001
0000
1000
0000
0001
0000
0100
0020
,
0000
0000
0030
0000
1000
0000
1000
0000
0001
0000
1000
0000
0001
0000
0100
0001
,
0000
0000
1000
0000
0010
0000
1000
0000
0001
0000
0010
0000
0001
0000
1000
0020
,
0000
0000
0030
0000
1000
0000
0001
0000
1000
0000
0001
0000
0100
0001
0000
1000
,
0000
0001
0010
0100
1000
0001
0100
0010
,
2000
0000
0000
3000
0001
0000
1000
0000
0001
0000
0100
0000
0001
0000
1000
0000
,
0010
0010
0100
0001
1000
0100
1100
0000
,
1010
0000
0000
0000
0010
0000
1000
0000
0001
0000
0100
0000
0010
0000
0100
0001
,
0000
0000
1000
0000
0001
0000
0010
0000
0100
1000
0001
0000
0100
0000
0010
0000
,
0100
0000
0001
0000
1001
0000
0001
0000
0100
0010
0100
0010
0100
0000
0001
2000
,
0000
3010
0100
0001
1000
0001
0100
0010
,
0220
0330
0100
0001
0100
0001
0010
0001
,
1001
0000
0000
0000
0001
0000
0100
0000
0010
0000
1000
0000
0001
0000
1000
0200
,
0000
0000
0300
0000
1000
0000
0010
0000
1000
0000
0001
0000
1000
0000
0001
1000
,
0000
0000
0001
0000
0100
0000
0010
0000
1000
0000
0001
0000
0010
0000
0001
0200
,
0000
0000
0300
0000
0010
0000
1000
0000
0001
0000
0010
0000
0100
1000
0100
1000
,
0100
1000
0001
1000
0010
0000
0100
0000
0001
0000
1000
0000
0001
0010
0001
0000
,
0202
0000
0303
0000
0001
0000
0100
0000
0010
0000
0100
0000
0001
1000
0001
1000
,
0001
0100
0010
0000
0100
0000
0001
0000
1000
0001
0100
0010
0100
0000
0001
0000
,
2002
0000
3003
0000
1000
0000
0010
0000
1000
0000
0001
0000
1000
0010
0000
0100
,
0000
0001
0010
0100
1000
0001
0100
0010
,
2000
0000
0000
3000
0001
0000
0100
0000
0001
0000
1000
0000
0010
0000
1000
0000
,
0001
0001
0100
0010
1000
0001
0011
0000
,
1100
2002
0000
3003
;
