#TITLE:Greenhorn;
#SUBTITLE:;
#ARTIST:Lexy;
#TITLETRANSLIT:;
#SUBTITLETRANSLIT:;
#ARTISTTRANSLIT:;
#GENRE:;
#CREDIT:;
#MUSIC:Greenhorn.ogg;
#BANNER:Greenhorn.png;
#BACKGROUND:Greenhorn-BG.png;
#CDTITLE:;
#SAMPLESTART:31.354;
#SAMPLELENGTH:11.869;
#SELECTABLE:YES;
#OFFSET:-0.597;
#BPMS:0.000=109.000;
#STOPS:;
#BGCHANGES:;
#FGCHANGES:;

//--------------- dance-single - Alex ----------------
#NOTES:
     dance-single:
     Alex:
     Beginner:
     1:
     0,0,0,0,0:
0000
0000
0000
0000
,
0000
0000
0000
0000
,
0100
0000
0000
0000
,
0010
0000
0000
0000
,
1000
0000
0000
0000
,
1000
0000
0000
0000
,
0100
0000
0000
0000
,
0001
0000
0000
0000
,
0001
0000
0000
0000
,
0100
0000
0000
0000
,
0010
0000
0000
0000
,
0010
0000
0000
0000
,
1000
0000
1000
0000
,
1000
0000
0000
0000
,
1001
0000
0000
0000
,
0001
0000
0000
0000
,
1000
0000
0000
0000
,
0010
0000
0000
0000
,
1000
0000
0000
0000
,
0100
0000
0000
0000
,
0010
0000
0010
0000
,
0010
0000
0000
0000
,
1001
0000
0000
0000
,
0001
0000
0000
0000
,
0001
0000
0000
0000
,
1000
0000
0000
0000
,
0010
0000
0000
0000
,
0100
0000
0000
0000
,
0001
0000
0000
0000
,
1000
0000
0000
0000
,
1001
0000
0000
0000
,
0010
0000
0000
0000
,
1000
0000
0000
0000
,
0001
0000
0000
0000
,
0100
0000
0000
0000
,
0001
0000
0000
0000
,
1000
0000
1000
0000
,
1000
0000
0000
0000
,
0010
0000
0000
0000
,
1000
0000
0000
0000
,
0100
0000
0000
0000
,
0001
0000
0000
0000
,
0010
0000
0000
0000
,
0001
0000
0000
0000
,
0100
0000
0100
0000
,
0100
0000
0000
0000
,
1001
0000
0000
0000
;

//--------------- dance-single - Alex ----------------
#NOTES:
     dance-single:
     Alex:
     Easy:
     3:
     0,0,0,0,0:
0000
0000
0000
0000
,
0000
0000
0000
0000
,
1000
0000
0001
0000
,
2000
0000
3000
0000
,
0001
0000
1000
0000
,
0010
0000
0100
0000
,
0100
0000
0001
0000
,
1000
0000
0001
0000
,
0010
0000
0001
0000
,
1000
0000
0100
0000
,
1000
0000
0001
0000
,
0200
0000
0300
0000
,
0010
0010
0010
0010
,
0100
0000
2002
0000
,
3003
0000
0001
1000
,
0001
0000
1000
0010
,
1000
0000
0001
0100
,
0001
0000
0100
0010
,
0100
0000
0100
0000
,
0001
0000
1000
0010
,
1000
0000
0001
0000
,
1001
1001
1001
0000
,
0110
0000
0010
0000
,
1000
0000
0001
0000
,
1000
0000
0100
0000
,
2000
0000
3000
0000
,
0001
0000
1000
0000
,
0010
0000
0100
0000
,
0001
0000
0010
0000
,
0001
0000
1000
1000
,
1001
0000
0010
0010
,
1000
0000
0100
0100
,
0100
0000
1000
0001
,
0001
0000
0100
0100
,
0100
0000
0001
0000
,
1000
0000
0010
0000
,
0100
0000
0100
0000
,
0110
0110
0110
0000
,
0001
0000
1000
0100
,
1000
0000
0001
0010
,
0001
0000
0100
0100
,
0100
0000
0001
1000
,
0001
0000
1000
0000
,
0010
0000
0100
0100
,
0100
0000
1001
0000
,
1001
1001
2002
0000
,
3003
0000
0000
0000
;

//--------------- dance-single - Alex ----------------
#NOTES:
     dance-single:
     Alex:
     Medium:
     5:
     0,0,0,0,0:
0000
0000
0000
0000
,
0000
0000
0000
0000
,
0001
1000
0001
1000
,
2002
0000
3003
0000
,
0001
0100
0010
1000
,
0001
0000
1000
0000
0100
1000
0100
0000
,
1000
0001
0100
0010
,
1000
0000
0001
0000
0010
0001
0010
0000
,
0001
0001
0100
0010
,
1000
0000
0001
0000
1000
0001
1000
0000
,
0001
0100
0010
0100
,
2002
0000
3003
0000
,
0011
0001
1100
1000
,
1010
0100
2002
3003
,
0001
0000
0001
0000
0100
0010
0100
0000
,
0001
0000
1000
0000
0100
1000
0100
0000
,
1000
0000
0001
0000
1000
0010
1000
0000
,
0001
0010
0001
0100
,
0110
0000
0110
0000
0110
0000
0010
0100
,
0002
0003
1000
0001
,
0101
0000
0110
0000
,
1001
1001
1001
0000
,
0001
1000
0010
1000
,
0001
0000
1000
0000
1000
0001
0100
0000
,
0001
0010
0100
0010
,
0001
0000
1000
0000
0010
1000
0010
0000
,
1010
1000
0001
0100
,
0010
0100
0001
0001
,
1000
0100
0010
0001
,
0202
0000
0303
0000
,
1001
0000
0001
0000
0100
0010
0100
0000
,
0001
0000
1000
0000
0100
1000
0100
0000
,
1000
0000
0010
0000
1000
0010
1000
0000
,
0001
0000
0100
0000
0010
0100
0010
0000
,
0100
0100
0001
1000
,
0010
1000
0001
0100
,
0110
0000
1010
0000
,
1100
1100
1100
0000
,
1000
0000
1000
0000
0001
0010
0001
0000
,
0100
0000
0100
0000
0001
1000
0010
0000
,
1000
0000
0001
0000
1000
0100
1000
0000
,
0001
0000
0100
0000
0001
0010
0001
0000
,
0100
0100
0001
1000
,
0010
1000
0001
0010
,
0011
0000
1100
0000
,
0011
0011
0011
0000
,
1001
0000
0000
0000
;

//--------------- dance-single - Alex ----------------
#NOTES:
     dance-single:
     Alex:
     Hard:
     7:
     0,0,0,0,0:
0000
0000
0000
0000
,
0000
0000
0000
0000
,
0001
0100
0010
1000
0100
0010
0001
0100
,
0020
0000
0030
0000
,
1001
0000
0110
0000
0010
1000
0100
0010
,
0100
0000
1000
0001
0100
0010
1000
0000
,
1001
0000
0001
0100
0010
0100
0001
0000
,
0011
0000
0010
0100
1000
0010
1000
0000
,
0001
1000
0010
0000
1000
0001
0100
0000
,
0001
0010
0100
1000
0020
0030
2000
3000
,
0001
1000
0001
0100
0001
1000
0010
0100
,
0002
0000
0003
0000
,
0011
0101
0110
1010
,
1100
0110
2002
3003
,
1001
0000
0001
0100
0010
0100
0001
2000
,
0000
3000
0001
1000
0010
1000
0001
0020
,
0000
0030
0001
0100
0010
1000
0100
0020
,
0000
0030
0001
1000
0001
0100
0001
1000
,
1010
0000
0101
0000
0011
0000
0100
1000
,
0020
0000
0030
1000
0001
0100
0001
1000
,
0020
0000
0030
1000
0002
0000
0003
0100
,
0010
0100
0010
0100
0020
0000
0030
0000
,
1001
0000
0001
0010
0001
1000
0010
0000
,
1000
0100
0010
0001
0100
0010
0100
0000
,
1001
0000
0001
0010
0001
0100
0010
0100
,
0001
1000
0100
0010
0002
0000
2003
0000
,
3010
0000
0100
0001
1000
0100
0010
0000
,
0011
0000
0001
1000
0010
1000
0001
0000
,
1001
0000
1000
0100
1000
0010
1000
0001
,
0202
0000
0303
0000
,
1001
0000
0001
0010
0001
1000
0010
2000
,
0000
3000
0001
1000
0100
0010
0001
2000
,
0000
3000
0001
0100
0001
0100
0010
0200
,
0000
0300
0001
0010
0100
1000
0001
0100
,
0110
0000
0101
0000
0011
0000
0001
1000
,
0020
0000
0030
1000
0001
1000
0010
0100
,
0002
0000
0003
0010
0002
0000
0003
1000
,
0100
0010
0100
1000
0020
0000
0030
0000
,
1001
0000
1000
0010
1000
0001
0010
0002
,
0000
0003
0100
0010
0100
0001
1000
0200
,
0000
0300
1000
0010
1000
0001
0010
0002
,
0000
0003
0100
0010
0100
0001
1000
0100
,
1100
0000
0011
0000
1100
0000
0010
0001
,
2000
0000
3000
0001
0100
0010
0100
0001
,
2000
0000
3000
0100
0020
0000
0030
0001
,
0100
0010
0100
0001
1000
0000
1001
0000
,
0110
0000
0000
0000
;

//--------------- dance-single - Alex ----------------
#NOTES:
     dance-single:
     Alex:
     Challenge:
     9:
     0,0,0,0,0:
0000
0000
0000
0000
,
M000
0M00
00M0
000M
,
0001
0000
0100
0010
0100
0000
0001
0000
1000
0000
0010
0100
0001
0000
1000
0000
,
1001
0110
0011
1100
0110
0000
2002
3003
,
0001
0000
1000
0000
0010
0000
1000
0010
1000
0000
0001
0000
0100
0000
0010
0000
,
0100
0000
0001
0000
0010
0000
0100
1000
0010
0000
0100
0000
1001
0000
0000
0000
,
0001
0000
0100
0000
1000
0000
0100
0001
1000
0000
0010
0000
1000
0000
0100
0000
,
0010
0000
0001
0000
0100
0000
0010
0100
0001
0000
0010
0000
1001
0000
0000
0000
,
0001
0000
1000
0000
0010
0000
1000
0001
1000
0000
0001
0000
0100
0000
0010
0100
,
0001
0000
1000
0000
0100
0000
0010
0001
1000
0000
0010
0000
0100
0000
0000
0000
,
0001
0000
0010
0000
0001
0000
0001
0100
0001
0000
1000
0000
0010
0000
0100
0000
,
2002
0000
3003
0000
,
0002
0100
0010
0100
1000
0100
0010
0103
,
2000
0010
0100
0001
0100
0010
0001
3100
,
0001
0000
0010
0000
0100
0000
1000
0010
1000
0000
0001
0000
1001
0000
0110
0000
,
0010
0000
0100
0000
0001
0000
0010
0001
0010
0000
0001
0000
0101
0000
0110
0000
,
0010
0000
1000
0000
0100
0000
1000
0100
1000
0000
0010
0000
1010
0000
0101
0000
,
0001
0000
1000
0000
0010
0000
0100
0001
1000
0000
0001
0000
0010
0000
0001
0000
,
0101
0000
0110
0000
1010
0000
1100
0010
,
1100
0000
0001
0010
0100
1000
0010
0100
,
0202
0303
0001
1000
2020
3030
0010
1000
,
0100
0010
0001
0100
0220
0000
0330
0000
,
1010
0000
0000
0000
1000
0000
0001
0000
1000
0000
0001
1000
0010
0000
0010
0000
,
1000
0000
0100
0000
1000
0001
1000
0000
0010
0000
0100
0010
0100
0000
1001
0000
,
1000
0000
0010
0000
1000
0001
1000
0000
0010
0000
0100
0001
0010
0000
0110
0000
,
0100
0000
1000
0001
0200
0300
0010
1000
0002
0003
1000
0001
0200
0000
0300
0000
,
0010
0000
1000
0010
1000
0000
0001
0000
0100
0001
0010
0100
1000
0000
1001
0000
,
0001
0000
0100
0010
0100
0000
0000
0001
1000
0010
1000
0001
1000
0000
1010
0000
,
0010
0000
0100
0001
0100
0000
0001
0000
0010
0001
0100
0010
0100
0000
0101
0000
,
2002
0000
0000
0000
3003
0000
1001
0000
0001
1000
0010
0100
0002
0000
0003
0000
,
0100
0000
0010
0100
0010
0000
1000
0000
0100
0000
0010
0000
1001
0000
0101
0000
,
0100
0000
0001
0010
0100
0000
1000
0000
0010
0000
1000
0000
1001
0000
0110
0000
,
0010
0000
0100
0001
0010
0000
0001
0000
1000
0000
0010
0000
1010
0000
0101
0000
,
0001
0000
1000
0100
1000
0000
0001
0000
0100
0000
0010
0100
0010
0000
1000
0000
,
2002
3003
0022
0033
2200
3300
0100
1000
,
1010
0000
0000
0001
0100
0000
0001
0000
0010
0000
0100
0000
1000
0000
0001
0000
,
0202
0303
0010
1000
2200
3300
0010
0001
,
0101
0100
0110
0010
2020
0000
3030
0000
,
1001
0000
0001
0100
0010
0000
0100
0000
0001
0000
0010
0000
0101
0000
1010
0000
,
0100
0000
0001
1000
0010
0000
1000
0000
0001
0000
0100
0000
0110
0000
0101
0000
,
0001
0000
1000
0010
1000
0000
0001
0000
0010
0000
0001
0000
0011
0000
0101
0000
,
0001
0000
0100
0010
0100
0000
0001
0000
1000
0000
0100
0000
0011
0000
1100
0000
,
0022
0033
0202
0303
0220
0330
0010
1000
,
2002
3003
0001
1000
0010
0100
0001
1000
,
2200
3300
0010
0001
0202
0303
0010
0100
,
0101
0001
1001
1000
1001
0000
0110
0000
,
2002
0000
3003
0000
;
