#TITLE:Go;
#SUBTITLE:;
#ARTIST:U Nee;
#TITLETRANSLIT:;
#SUBTITLETRANSLIT:;
#ARTISTTRANSLIT:;
#GENRE:;
#CREDIT:;
#MUSIC:Go.ogg;
#BANNER:Go.png;
#BACKGROUND:Go-BG.png;
#CDTITLE:;
#SAMPLESTART:28.842;
#SAMPLELENGTH:13.668;
#SELECTABLE:YES;
#OFFSET:-0.201;
#BPMS:0.000=138.000;
#STOPS:;
#BGCHANGES:;
#FGCHANGES:;

//--------------- dance-single - Alex ----------------
#NOTES:
     dance-single:
     Alex:
     Beginner:
     1:
     0,0,0,0,0:
0000
0000
0000
0000
,
0000
0000
0000
0000
,
0000
0000
0000
0000
,
0000
0000
0000
0000
,
0000
0000
1000
0000
,
0000
0000
0001
0000
,
0000
0000
1000
0000
,
1000
0000
2000
0000
,
3000
0000
1001
0000
,
0000
0000
0010
0000
,
0000
0000
1000
0000
,
0000
0000
0001
0000
,
0000
0000
0100
0000
,
0000
0000
0001
0000
,
0000
0000
1000
0000
,
0000
0000
0010
0000
,
0000
0000
1001
0000
,
0000
0000
0001
0000
,
0000
0000
0100
0000
,
0100
0000
0200
0000
,
0300
0000
0010
0000
,
0000
0000
0001
0000
,
0000
0000
1000
0000
,
1000
0000
2000
0000
,
3000
0000
1001
0000
,
0000
0000
1001
0000
,
0000
0000
0110
0000
,
0000
0000
0010
0000
,
0000
0000
0001
0000
,
0000
0000
0100
0000
,
0000
0000
0001
0000
,
0000
0000
1000
0000
,
0000
0000
0100
0000
,
0000
0000
1000
0000
,
0000
0000
0001
0000
,
0000
0000
0001
0000
,
0000
0000
1000
0000
,
1000
0000
2000
0000
,
3000
0000
0010
0000
,
0000
0000
0100
0000
,
0000
0000
0001
0000
,
0001
0000
0002
0000
,
0003
0000
1001
0000
,
0000
0000
0010
0000
,
0000
0000
1000
0000
,
0000
0000
0100
0000
,
0000
0000
0001
0000
,
0000
0000
1000
0000
,
0000
0000
0001
0000
,
0000
0000
0001
0000
,
0000
0000
0110
0000
,
0000
0000
0010
0000
,
0000
0000
0100
0000
,
0100
0000
0200
0000
,
0300
0000
0001
0000
,
0000
0000
1000
0000
,
0000
0000
0001
0000
,
0001
0000
0002
0000
,
0003
0000
1001
0000
;

//--------------- dance-single - Alex ----------------
#NOTES:
     dance-single:
     Alex:
     Easy:
     3:
     0,0,0,0,0:
0000
0000
0000
0000
,
0000
0000
0000
0000
,
0000
0000
0000
0000
,
0000
0000
0000
0000
,
0000
0000
0100
0000
,
0100
0000
0010
0000
,
0010
0000
1000
1000
,
0001
0001
2002
0000
,
3003
0000
1001
0000
,
0001
0000
1000
0000
,
0001
0000
0100
0000
,
0010
0010
0010
0000
,
1000
1000
1000
0000
,
0001
0000
1000
0000
,
0100
0000
1000
0000
,
1000
0000
0010
0000
,
0001
0000
1000
1000
,
1000
0000
0001
0001
,
0001
0000
0100
0000
,
0010
0000
0220
0000
,
0330
0000
0010
0010
,
0010
0000
0100
0100
,
0100
0000
0001
0000
,
1000
0000
2002
0000
,
3003
0000
1001
0000
,
1001
0000
0110
0110
,
0110
0000
0100
0000
,
0001
0000
1000
0000
,
0001
0000
0100
0000
,
0010
0000
0010
0000
,
1000
0000
0100
0000
,
1000
0000
0001
0000
,
0001
0000
0100
0000
,
0001
0000
1000
1000
,
1001
0000
0001
0001
,
0001
0000
1000
1000
,
1000
0000
0001
0000
,
0100
0000
0220
0000
,
0330
0000
0010
0010
,
0010
0000
0100
0100
,
0100
0000
0001
0000
,
1000
0000
2200
0000
,
3300
0000
1000
0000
,
0001
0001
0100
0000
,
0010
0010
0100
0000
,
1000
1000
0100
0000
,
0001
0000
1000
0000
,
0001
0001
0010
0000
,
1000
1000
0010
0000
,
0100
0100
0001
0000
,
1001
0000
0010
0000
,
0010
0000
1000
0000
,
1000
0000
0001
0000
,
0001
0000
0100
0100
,
0200
0300
0001
0000
,
1000
0000
0001
0000
,
0010
0000
0001
0000
,
1000
0000
0010
0010
,
0010
0010
0110
0000
;

//--------------- dance-single - Alex ----------------
#NOTES:
     dance-single:
     Alex:
     Medium:
     6:
     0,0,0,0,0:
0000
0000
0000
0000
,
0000
0000
0000
0000
,
0000
0000
0000
0000
,
0000
0000
0000
0000
,
0000
0000
0001
0001
,
1000
1000
0001
1000
,
0001
1000
1001
0110
,
1001
0110
2002
3003
,
1001
0000
0001
0100
,
0010
0100
0001
1000
,
0100
0000
0010
0000
0001
1000
0010
0000
,
0100
0000
0000
0100
0000
0000
0100
0000
0010
0000
0100
0000
0010
0000
0000
0000
,
0010
0000
0000
0010
0000
0000
0010
0000
1000
0000
0000
0000
0001
0000
0000
0000
,
0100
0001
1000
0100
,
1000
0000
0001
0000
0100
0010
0100
0000
,
0001
0000
1000
0000
0001
0010
0001
0000
,
2002
3003
0011
1001
,
1100
1001
0001
0100
,
0010
0000
0100
0000
0001
1000
0100
1000
,
0001
0000
0001
1000
0000
1000
0020
0000
,
0000
0030
0000
0000
0110
0000
0101
0000
,
0110
1010
0010
1000
,
0100
0000
1000
0000
0001
0010
0001
0000
,
1000
0010
1000
0001
0000
0001
0200
0000
,
0000
0300
0000
0000
1001
0000
0000
0000
,
0110
0000
1001
0110
,
1001
0110
0010
1000
,
0100
0010
0100
1000
,
0001
0001
0100
0010
,
0100
0001
0010
0100
,
1000
0001
0100
0000
0001
0000
1000
0000
,
0010
1000
0001
0010
,
0010
0001
1000
0010
,
0100
0001
1001
1001
,
1001
1001
0110
0101
,
0110
0011
0001
0001
,
0100
0000
0100
0000
0010
1000
0100
0000
,
1000
0010
1000
0010
0000
0010
0200
0000
,
0000
0300
0000
0000
0101
0000
0110
0000
,
1100
0110
0001
1000
,
0010
0000
1000
0000
0001
0010
0001
0000
,
1000
0010
1000
0010
0000
0010
2000
0000
,
0000
3000
0000
0000
0001
0000
1000
0000
,
0001
0100
0001
0100
0001
0000
1000
0000
,
0100
1000
0100
1000
0100
0000
1000
0000
,
0010
1000
0010
1000
0010
0000
0010
0000
,
1000
1000
0001
0010
,
0001
1000
0001
1000
0001
0000
0100
0000
,
0010
0100
0010
0100
0010
0000
0100
0000
,
0001
0100
0001
0100
0002
0000
1000
0000
,
1000
0000
1003
0000
0001
1000
0000
0010
,
0000
1000
0000
0001
0000
0001
0000
0100
,
0000
0010
0000
0100
0000
0001
0000
0010
,
0000
0000
0100
0000
0000
0000
1000
0000
0010
0000
0000
0010
0000
0000
0020
0000
,
0000
0000
0030
0000
1000
0001
0000
1000
,
0000
0001
0000
1000
0000
0001
0000
0100
,
0000
0100
0000
0010
0000
0010
0000
1000
,
0000
0000
0001
0000
0000
0000
1000
0000
0100
0000
0000
0100
0000
0000
0200
0000
,
0000
0300
0000
0000
1001
0000
0000
0000
;

//--------------- dance-single - Alex ----------------
#NOTES:
     dance-single:
     Alex:
     Hard:
     8:
     0,0,0,0,0:
0000
0000
0000
0000
,
0000
0000
0000
0000
,
0000
0000
0000
0000
,
0000
0000
0000
0000
,
0000
0000
1002
0103
,
2010
3100
0102
0013
,
2001
3010
1001
0110
,
1001
0110
2002
3003
,
0220
0000
0000
0000
0330
0000
0000
0000
0010
0000
1000
0100
0000
0100
1000
0000
,
0001
0000
0100
0000
0010
0000
0100
0000
0001
0000
0100
0001
0000
0001
0100
0000
,
0010
1000
0001
0010
0001
1000
0010
0000
,
1000
0000
0000
1000
0000
0000
1010
0000
0001
0000
0001
0000
0001
0000
0000
0000
,
0001
0000
0000
0010
0000
0000
0011
0000
1000
0000
0100
1000
0000
1000
0100
0000
,
1000
0000
0010
0000
1000
0000
0001
0000
1000
0000
0010
0100
0000
0100
0010
0000
,
0100
0000
0001
0000
1000
0000
0100
0000
0010
0000
0001
1000
0000
0010
0000
0000
,
0100
0000
0000
0000
0001
0000
0100
0000
0001
0000
1000
0001
0000
0001
1000
0000
,
2002
3003
0110
0000
0010
0100
0001
0100
,
0010
0000
0100
0000
0001
0000
2000
0000
0000
3000
0100
0000
1000
0000
0010
0000
,
1000
0002
0000
0000
0003
0100
0001
0010
,
0100
1000
0001
0100
0000
0100
0220
0000
,
0330
0000
0110
0000
1000
1000
0010
0100
,
0001
0000
2000
0000
0000
3000
0001
0000
0000
0000
0001
0000
0100
0000
0001
0000
,
0010
0002
0000
0000
0003
0100
0010
0100
,
0001
1000
0010
1000
0000
0001
2002
0000
,
3003
0110
1001
M00M
,
0110
0MM0
1001
0110
,
1001
0000
0110
0000
0010
0100
0001
0000
,
0100
0010
1000
0000
0001
0010
0001
1000
,
0010
1000
0001
0000
1000
0100
0010
0000
,
0001
0100
0010
0000
0100
0001
0100
0001
,
1001
0000
0110
0000
0010
0100
0001
0000
,
1000
0010
1000
0000
0001
0010
0001
1000
,
0010
1000
0001
0000
1000
0100
0010
0000
,
0001
0100
0010
0000
0102
0000
2003
0000
,
3020
0000
0230
0000
0301
0010
0001
1000
,
0010
0000
1000
0000
0001
0000
0200
0000
0000
0300
0010
0000
1000
0000
0001
0000
,
1000
0200
0000
0000
0300
1000
0001
0100
,
0010
0100
0001
1000
0000
0010
0220
0000
,
0330
0000
0110
0000
0010
0100
0001
0100
,
0010
0000
2000
0000
0000
3000
0001
0000
0000
0000
1000
0000
0001
0000
0100
0000
,
0001
0020
0000
0000
0030
0001
0100
0001
,
0100
0010
1000
0001
0000
0010
0022
0000
,
0033
0011
1001
0110
,
0010
0100
0001
0100
0110
0000
0101
0000
,
0001
1000
0100
1000
1001
0000
0110
0000
,
0010
1000
0001
0010
0011
0000
1100
0000
,
0011
1100
1010
0101
,
0001
0100
0010
0100
0101
0000
1010
0000
,
0001
1000
0100
1000
1001
0000
0110
0000
,
0010
0100
0001
0010
0011
0000
0101
0000
,
0110
0000
1010
0000
0010
0200
0300
0002
,
0003
2000
3000
0200
0300
0020
0030
0200
,
0300
2000
3000
0002
0003
0200
0300
0010
,
1000
0000
0001
0000
0010
0000
0001
0000
1000
0000
0000
0001
0000
0000
2002
0000
,
0000
0000
3003
0000
0001
0200
0300
2000
,
3000
0200
0300
0002
0003
0200
0300
2000
,
3000
0020
0030
0002
0003
0020
0030
1000
,
1000
0000
0001
0000
0001
0000
0100
0000
0010
0000
0000
0100
0000
0000
0220
0000
,
0000
0330
1001
0000
;
