#TITLE:Get Up!;
#SUBTITLE:;
#ARTIST:Banya;
#TITLETRANSLIT:;
#SUBTITLETRANSLIT:;
#ARTISTTRANSLIT:;
#GENRE:;
#CREDIT:;
#MUSIC:Get Up!.ogg;
#BANNER:Get Up!.png;
#BACKGROUND:Get Up!-BG.png;
#CDTITLE:;
#SAMPLESTART:5.387;
#SAMPLELENGTH:13.187;
#SELECTABLE:YES;
#OFFSET:-0.095;
#BPMS:0.000=180.000;
#STOPS:;
#BGCHANGES:;
#FGCHANGES:;

//--------------- dance-single - Alex ----------------
#NOTES:
     dance-single:
     Alex:
     Beginner:
     1:
     0,0,0,0,0:
0000
0000
0000
0000
,
0000
0000
0000
0000
,
0000
0000
0000
0000
,
0000
0000
0000
0000
,
0001
0000
0000
0000
,
1000
0000
0000
0000
,
0010
0000
0000
0000
,
1000
0000
0000
0000
,
0001
0000
0000
0000
,
0100
0000
0000
0000
,
0010
0000
0000
0000
,
1000
0000
0000
0000
,
0001
0000
0000
0000
,
0001
0000
0000
0000
,
1000
0000
0000
0000
,
0100
0000
0000
0010
,
0000
0000
0000
0000
,
1000
0000
0000
0000
,
0001
0000
0000
0000
,
0100
0000
0000
0000
,
0010
0000
0010
0000
,
0010
0000
0000
0000
,
0001
0000
0001
0000
,
0001
0000
0000
0000
,
0100
0000
0000
0000
,
1000
0000
0000
0000
,
0001
0000
0000
0000
,
1000
0000
0000
0000
,
0010
0000
0000
0000
,
1000
0000
0000
0000
,
0001
0000
0000
0000
,
0100
0000
0000
0000
,
0010
0000
0000
0000
,
0010
0000
0000
0000
,
0001
0000
0000
0000
,
1000
0000
0000
0000
,
0100
0000
0000
0000
,
0100
0000
0000
0000
,
1000
0000
0000
0000
,
0010
0000
0000
1000
,
0000
0000
0000
0000
,
0001
0000
0000
0000
,
0100
0000
0000
0000
,
0010
0000
0000
0000
,
0001
0000
0000
0000
,
1000
0000
0000
0000
,
1000
0000
0000
0000
,
0001
0000
0001
0000
,
0001
0000
0000
0000
,
1000
0000
1000
0000
,
1000
0000
0000
0000
,
0010
0000
0000
0000
,
0100
0000
0000
0000
,
0001
0000
0000
0000
,
0001
0000
0000
0000
,
1000
0000
0000
0000
,
0010
0000
0000
0000
,
1000
0000
0000
0001
,
0000
0000
0000
0000
,
1000
0000
0000
0000
,
0010
0000
0000
0000
,
0100
0000
0000
0000
,
0010
0000
0000
0000
,
1000
0000
0000
0000
,
0100
0000
0000
0000
,
0001
0000
0000
0000
,
0001
0000
0000
0000
,
0001
0000
0000
0000
,
0100
0100
0000
0000
;

//--------------- dance-single - Alex ----------------
#NOTES:
     dance-single:
     Alex:
     Easy:
     4:
     0,0,0,0,0:
0000
0000
0000
0000
,
0000
0000
0000
0000
,
0000
0000
0000
0000
,
0000
0000
0000
0000
,
1000
1000
1000
0000
,
1001
0000
1001
0000
,
0010
0010
0010
0000
,
0110
0000
0110
0000
,
0100
0100
0100
0000
,
1001
0000
1001
0000
,
0001
0001
0001
0000
,
1001
0000
1001
0000
,
1000
1000
1000
0000
,
0001
0001
0001
0000
,
1000
0000
0001
0000
,
0100
0010
0100
0020
,
0030
0000
0100
0100
,
0100
0000
0001
0000
,
1000
0000
0010
0100
,
0010
0000
1001
0000
,
0001
0000
0001
0000
,
1000
0000
1000
1000
,
1000
0000
0010
0000
,
0010
0000
0100
0100
,
0100
0000
0001
0000
,
0100
0001
0100
0000
,
0010
0000
1000
0000
,
0010
1000
0010
0000
,
1000
0000
0001
1000
,
0001
0000
1000
0000
,
0010
0000
0100
0100
,
0100
0000
1001
0000
,
0001
0000
0010
0001
,
0010
0000
0001
0000
,
1000
0000
0010
1000
,
0010
0000
1010
0000
,
1000
1000
1000
0000
,
0001
0001
0001
0000
,
0100
0000
0010
0000
,
0100
0001
0100
0002
,
0003
0000
1000
1000
,
1000
0000
0001
0000
,
1000
0000
0010
0100
,
0010
0000
1000
0000
,
0001
0000
1000
0000
,
0010
0000
0100
0000
,
0001
0001
0001
0000
,
2002
0000
0000
3003
0000
0000
0000
0000
,
0220
0000
0000
0330
0000
0000
0000
0000
,
0101
0000
1010
0000
,
2002
0000
0000
3003
0000
0000
0000
0000
,
1000
1000
1000
1000
,
0001
0001
0001
0001
,
1001
0000
1001
0000
,
0010
0000
0100
0000
,
0001
0000
1000
0000
,
0001
0000
0010
0000
,
0001
0001
0001
2000
,
3000
0000
0001
0100
,
0001
0000
1000
0000
,
0010
0000
1000
0100
,
1000
0000
0001
0000
,
1000
0000
0010
0000
,
0100
0000
0001
0000
,
1000
0000
0001
0000
,
0100
0100
0100
0100
,
0010
0010
0010
0010
,
1000
1000
0001
0001
,
1000
1001
0000
0000
;

//--------------- dance-single - Alex ----------------
#NOTES:
     dance-single:
     Alex:
     Medium:
     6:
     0,0,0,0,0:
0000
0000
0000
0000
,
0000
0000
0000
0000
,
0000
0000
0000
0000
,
0000
0000
0000
0000
,
0001
0100
0010
0100
,
0001
0000
1000
0000
0001
1000
0010
0000
,
1000
0100
0010
0001
,
0100
0010
0110
0000
,
1000
0001
0010
0001
,
1000
0000
0010
0000
1000
0100
1000
0000
,
0001
0100
0010
0100
,
0001
0000
1001
0000
,
0001
0001
1000
1000
,
0010
0000
0100
0001
0100
0000
0001
0000
,
1000
0100
0010
0100
,
1000
0001
0100
0220
,
0330
0010
0010
0100
,
0001
0000
1000
0000
0001
0010
0001
0000
,
1000
0010
0100
0001
,
2002
3003
0110
0000
,
0010
0010
1000
1000
,
0001
0001
0101
0101
,
0100
0100
0010
0010
,
1000
0100
1100
1100
,
1000
0001
1000
0001
,
0100
0010
0100
0010
,
1000
1000
0001
0001
,
0010
0001
1000
0010
,
0100
0001
0100
0010
,
1000
0000
0001
0000
0010
0001
0010
0000
,
0001
0001
0100
0010
,
1000
0000
1100
0000
,
0100
0100
1000
1000
,
0001
0000
1000
0000
0010
0100
0010
0000
,
0100
0001
0010
0001
,
1000
0000
1001
0000
,
0001
0001
1000
1000
,
0010
0010
0100
0100
,
0001
0010
0100
1000
,
0001
0100
0010
0220
,
0330
0010
0010
1000
,
0100
0000
1000
0000
0001
1000
0001
0000
,
1000
0010
1000
0001
,
0100
0100
0001
0001
,
1000
1000
0010
0010
,
1000
0001
0100
0010
,
1000
0001
2002
3003
,
1001
0000
0000
0220
0000
0330
0000
0000
,
0011
0000
0000
2200
0000
3300
0000
0000
,
1010
0000
0101
0000
,
0011
0000
0000
2200
0000
3300
0000
0000
,
1010
1010
1001
1001
,
0001
0100
1000
0100
,
0101
0101
0202
0303
,
0001
0001
1000
1000
,
0001
0100
0010
0010
,
1000
0100
0010
0100
,
1000
0001
0100
0202
,
0303
0001
1000
0010
,
1000
0000
0001
0000
1000
0100
1000
0000
,
0001
0100
0010
0100
,
0001
0001
1000
1000
,
0001
0001
0100
0100
,
0010
0010
0100
0100
,
0001
0001
1000
1000
,
0001
1000
0010
0100
,
0001
1000
0100
0010
,
0001
0100
0010
0100
,
0001
1000
0020
0000
0000
0000
0000
0000
,
0000
0000
0030
0000
;

//--------------- dance-single - Alex ----------------
#NOTES:
     dance-single:
     Alex:
     Hard:
     9:
     0,0,0,0,0:
0000
0000
0000
0000
,
0000
0000
0000
0000
,
0000
0000
0000
0000
,
0000
0000
0000
0000
,
0001
1000
0010
0100
0001
1000
0200
0000
,
0320
0000
0000
0000
0030
0000
0001
0000
1000
0000
0010
1000
0010
0000
0000
0000
,
1000
0001
0010
0001
1000
0010
0200
0000
,
0302
0000
2003
3000
,
0001
1000
0010
1000
0001
1000
0200
0000
,
2300
0000
0000
0000
3000
0000
0001
0000
0100
0000
0010
0100
0010
0000
0001
0000
,
1000
0010
1000
0001
1000
0100
0020
0000
,
0032
0000
0003
1000
2000
0000
3000
0000
,
0010
1000
0001
1000
0100
1000
0001
0000
,
0100
0010
0100
0001
1000
0000
1001
0000
,
0001
0000
0000
0100
0000
0000
0010
0000
1000
0000
0001
1000
0001
0000
1000
0000
,
0100
1000
0001
0100
0001
0000
2002
0000
,
3003
0000
0001
0000
1000
0010
1000
0010
1000
0000
0001
0000
0100
0000
0000
0000
,
0010
0000
0100
0000
0001
0000
0100
0000
0010
0000
1000
0001
1000
0000
0001
0000
,
0001
0100
0001
0010
0100
1000
0100
0000
,
1100
0000
0100
1000
0020
0000
0030
0000
,
1000
0000
0001
0000
0010
0000
0001
0000
1000
0000
0000
0010
0000
0000
0100
0000
,
0001
0000
0000
1000
0000
0000
0001
0000
0010
0000
0000
0000
1001
0000
0000
0000
,
0001
0100
0001
0000
1000
0000
0001
0000
0001
0000
0000
1000
0000
0000
0010
0000
,
1000
0000
0000
0001
0000
0000
0100
0000
0010
0000
0000
0000
1001
0000
0000
0000
,
0001
0010
0001
0100
0010
0100
0001
0100
,
0010
1000
0100
0010
0100
1000
0002
0000
,
0103
0100
0001
1000
0010
1000
0001
0010
,
0001
0100
0010
1000
0100
0010
0200
0000
,
1300
0000
0001
0100
0010
0100
0001
0000
,
1000
0001
0010
0100
1000
0001
2000
0000
,
3010
1000
0010
0100
0010
1000
0010
0000
,
1010
1001
0202
0303
,
0001
0010
0100
0010
0001
0100
0010
0000
,
0100
0000
0001
1000
0010
1000
0001
0000
,
1000
0100
0010
0001
0100
0010
0100
0000
,
0101
0000
0000
1001
2002
0000
3003
0000
,
0001
1000
0010
1000
0001
0100
0001
0000
,
1000
0100
0010
0001
0100
0000
0110
0000
,
0010
0000
0000
0100
0000
0000
0001
0000
1000
0000
0001
1000
0001
0000
0000
0000
,
1000
0001
1000
0010
1000
0001
0101
0000
,
0100
0010
0100
0001
0010
0100
1000
0000
,
0001
0000
0000
0000
1000
0000
0010
0000
1000
0000
0001
0100
0001
0000
0000
0000
,
0100
0001
0010
0100
1000
0001
0100
0000
,
0110
0101
0011
1001
,
1010
1100
0110
0011
,
0001
0100
0010
0100
0001
0000
0100
0000
,
0010
1000
0001
1000
0020
0000
0030
0000
,
1000
0000
0001
0100
0000
0100
0001
0000
,
1000
0000
0010
1000
0000
1000
0010
0000
,
2020
3030
0022
0033
,
0101
0000
0000
2002
0000
3003
0000
0000
,
0001
1000
0001
1000
0001
1000
0001
1000
,
0001
0100
0001
0100
0001
0100
0010
0100
,
0010
0010
0010
0110
,
0010
0000
0100
0001
0000
0001
1000
0000
,
1000
0001
0000
0001
0000
1000
0010
0000
,
1000
0000
0000
0001
0000
0000
1000
0000
0000
0000
0001
0000
1000
0000
0010
0000
,
0100
0001
1001
0220
,
0330
0000
0010
1000
0001
0010
0001
1000
,
0010
0000
0000
0000
0010
0000
1000
0000
0001
0000
1000
0100
1000
0000
0000
0000
,
0001
0100
0010
0100
0001
0000
0100
0000
,
0010
1000
0010
1000
0010
1000
0010
1000
,
0001
1000
0001
1000
0001
1000
0001
1000
,
0001
0100
0001
0100
0001
0100
0001
0100
,
0010
0100
0010
0100
0010
0100
0010
0100
,
0110
0101
0011
1001
,
1010
1001
1100
0110
,
0001
0010
0100
0010
0001
0100
0010
1000
,
1000
0001
1000
0001
0200
0000
0000
0000
0000
0000
0000
0000
0000
0000
0000
0000
,
0000
0000
0300
0000
;
