#TITLE:Funky Tonight;
#SUBTITLE:;
#ARTIST:Clon;
#TITLETRANSLIT:;
#SUBTITLETRANSLIT:;
#ARTISTTRANSLIT:;
#GENRE:;
#CREDIT:;
#MUSIC:Funky Tonight.ogg;
#BANNER:Funky Tonight.png;
#BACKGROUND:Funky Tonight-BG.png;
#CDTITLE:;
#SAMPLESTART:47.980;
#SAMPLELENGTH:14.655;
#SELECTABLE:YES;
#OFFSET:-0.051;
#BPMS:0.000=105.000;
#STOPS:;
#BGCHANGES:;
#FGCHANGES:;

//--------------- dance-single - Alex ----------------
#NOTES:
     dance-single:
     Alex:
     Beginner:
     1:
     0,0,0,0,0:
0000
0000
0000
0000
,
0000
0000
0000
0000
,
0000
0000
0000
0000
,
0000
0000
0000
0000
,
0000
0000
0000
0000
,
1000
0000
0000
0000
,
0001
0000
0000
0000
,
0001
0000
0000
0000
,
0100
0000
0000
0000
,
0001
0000
0000
0000
,
0010
0000
0000
0000
,
0010
0000
0000
0000
,
0001
0000
0000
0000
,
1000
0000
0000
0000
,
0001
0000
0000
0000
,
0100
0000
0000
0000
,
0010
0000
0000
0000
,
1000
0000
0000
0000
,
1000
0000
0000
0000
,
0001
0000
0000
0000
,
0001
0000
0000
0000
,
0100
0000
0000
0000
,
0010
0000
0000
0000
,
0010
0000
0000
0000
,
0100
0000
0000
0000
,
0001
0000
0000
0000
,
1000
0000
0000
0000
,
0001
0000
0000
0000
,
0010
0000
0000
0000
,
0001
0000
0000
0000
,
0001
0000
0000
0000
,
1000
0000
0000
0000
,
1000
0000
0000
0000
,
0010
0000
0000
0000
,
0010
0000
0000
0000
,
0010
0000
0000
0000
,
0100
0000
0000
0000
,
0100
0000
0000
0000
,
0001
0000
0000
0000
,
1000
0000
0000
0000
,
0010
0000
0000
0000
,
1000
0000
0000
0000
,
0001
0000
0000
0000
,
0001
0000
0000
0000
,
1000
0000
0000
0000
,
0100
0000
0000
0000
;

//--------------- dance-single - Alex ----------------
#NOTES:
     dance-single:
     Alex:
     Easy:
     2:
     0,0,0,0,0:
0000
0000
0000
0000
,
0000
0000
0000
0000
,
0000
0000
0000
0000
,
0000
0000
0000
0000
,
0000
0000
0000
0000
,
0010
0000
0010
0000
,
0010
0000
0000
0000
,
1000
0000
0001
0000
,
1000
0000
0000
0000
,
1001
0000
0001
0000
,
1000
0000
0001
0000
,
0100
0000
0010
0000
,
2002
0000
3003
0000
,
0001
0000
0001
0000
,
1000
0000
1000
0000
,
0010
0000
0100
0000
,
0010
0000
0010
0000
,
1000
0000
0100
0000
,
1000
0000
1000
0000
,
0001
0000
0001
0000
,
1000
0000
1000
0000
,
1001
0000
0010
0000
,
0100
0000
0100
0000
,
0001
0000
1000
0000
,
0010
0010
0010
0000
,
0100
0000
0001
0000
,
0001
0000
1000
0000
,
1000
0000
0010
0000
,
0100
0100
0100
0000
,
1001
0000
0001
0000
,
1000
0000
0001
0000
,
0010
0000
0001
0000
,
1000
0000
0010
0000
,
1000
0000
1000
0000
,
0001
0000
0001
0000
,
1000
0000
0100
0000
,
1000
0000
0001
0000
,
1001
0000
0001
1000
,
0001
0000
1000
0000
,
0001
0000
1000
0010
,
1000
0000
0001
0100
,
0110
0000
0010
0000
,
1000
0000
0001
0000
,
0001
0000
0100
0000
,
0010
0100
0220
0000
,
0330
0000
0000
0000
;

//--------------- dance-single - Alex ----------------
#NOTES:
     dance-single:
     Alex:
     Medium:
     5:
     0,0,0,0,0:
0000
0000
0000
0000
,
0000
0000
0000
0000
,
0000
0000
0000
0000
,
0000
0000
0000
0000
,
0000
0000
0000
0000
,
0001
1000
0001
0001
,
1000
0010
1000
1000
,
0001
0100
0010
0100
,
0001
1000
1001
0000
,
0001
0010
0100
0010
,
0001
0001
1000
1000
,
0010
1000
0100
0010
,
2002
0000
3003
0000
,
0001
1000
0001
0001
,
1000
0010
1000
0001
,
1000
1000
0001
0001
,
1000
0010
0100
0001
,
1001
0000
1001
0000
,
0010
0100
0010
0010
,
0100
0001
0010
0001
,
1000
0010
1000
1000
,
1001
1000
0001
0001
,
1000
0010
0100
0100
,
0001
0010
0001
0001
,
1000
0100
0010
0001
,
0100
0100
0010
0010
,
1000
0001
0010
0001
,
1000
0010
0100
0001
,
1000
1000
1001
0000
,
0001
0100
0010
0100
,
0001
0010
0100
0010
,
0001
1000
0010
0100
,
0001
1000
0100
0010
,
0001
0001
0100
0100
,
0010
1000
0100
0100
,
1000
1000
0001
0100
,
0010
0100
0001
1000
,
1001
0000
1001
0000
,
0110
0000
0110
0000
,
0011
0000
0011
0000
,
1100
0000
1100
0000
,
1000
0001
1000
1000
,
0001
0100
0001
0001
,
0100
0010
0100
0100
,
0001
1000
0010
0100
,
1001
0000
0000
0000
;

//--------------- dance-single - Alex ----------------
#NOTES:
     dance-single:
     Alex:
     Hard:
     8:
     0,0,0,0,0:
0000
0000
0000
0000
,
0000
0000
0000
0000
,
0000
0000
0000
0000
,
0000
0000
0000
0000
,
0000
0000
0000
0000
,
0001
1000
0010
1000
0001
0000
1000
0000
,
0001
0100
0010
0100
0001
0000
1000
0000
,
0100
0010
0001
0100
0010
0000
1000
0000
,
0001
1000
0010
0100
0001
0000
1001
0000
,
0001
1000
0100
0000
1000
0001
0100
0000
,
0010
1000
0001
0010
0100
1000
0001
1000
,
0010
1000
0001
0000
0010
0001
1000
0000
,
1001
0000
0000
1001
,
0001
0100
0010
0000
0100
0001
0010
0000
,
0001
1000
0010
1000
0001
1000
0100
0010
,
0001
1000
0010
0000
0100
0001
1000
0000
,
0001
0010
0001
0100
0010
0100
0001
1000
,
0010
1000
0001
0000
1000
0100
1000
0000
,
0001
0100
0001
0010
0001
0100
0010
0100
,
0001
1000
0010
0000
1000
0001
0010
0000
,
0100
0010
1000
0100
0010
0001
1001
0000
,
0001
0000
1000
0000
0010
0000
1000
0000
0001
0000
0000
1000
0000
0000
0010
0000
,
0000
0000
0100
0000
0001
0000
0010
0000
0001
0000
0000
0100
0000
0000
0010
0000
,
0000
0000
1000
0000
0100
0000
0010
0000
0001
0000
0000
1000
0000
0000
0010
0000
,
0000
1000
0001
0100
0010
0100
0001
0010
,
0000
0000
0001
0000
1000
0000
0010
0000
1000
0000
0000
0001
0000
0000
1000
0000
,
0000
0000
0001
0000
0100
0000
0001
0000
0010
0000
0000
0001
0000
0000
0100
0000
,
0000
0000
0010
0000
1000
0000
0100
0000
0010
0000
0000
0001
0000
0000
0100
0000
,
0000
0010
1000
0001
0010
0001
1001
0000
,
0001
1000
0010
1000
0001
1000
0100
0010
,
0001
1000
0010
0100
0001
0010
0100
0000
,
1000
0001
0100
0000
0001
1000
0010
0000
,
1000
0001
0010
0001
0100
0010
0100
0001
,
1000
0100
1000
0000
0001
0100
0001
0000
,
1000
0010
1000
0001
1000
0010
0100
0000
,
0001
0010
0001
0000
0100
0010
0100
0000
,
0001
1000
0100
0010
0001
1000
1001
0000
,
0001
0100
0010
0000
1000
0000
0001
0000
,
1000
0100
1000
0000
0001
0000
0100
0000
,
0010
0100
0010
0000
0100
0000
0001
0000
,
0010
0001
0010
0000
0001
0000
1000
0000
,
0010
0000
1000
0000
0001
0000
0100
0000
0010
0000
0000
0100
0000
0000
0001
0000
,
1000
0000
0100
0000
0010
0000
0001
0000
0100
0000
0000
0010
0000
0000
1000
0000
,
0001
0000
0010
0000
0001
0000
1000
0000
0010
0000
0000
1000
0000
0000
0001
0000
,
0000
0100
0010
1000
0001
0010
0100
1000
,
1001
0000
0000
0000
;

//--------------- dance-single - Alex ----------------
#NOTES:
     dance-single:
     Alex:
     Challenge:
     10:
     0,0,0,0,0:
0000
0000
0000
0000
,
0000
0000
0000
0000
,
0000
0000
0000
0000
,
0000
0000
0000
0000
,
0000
0000
0000
0000
0000
0000
0000
0000
0000
0000
1000
0010
1000
0010
1000
0010
,
1000
0000
0001
0000
0100
0000
0010
0100
0000
0000
0001
0000
1000
0000
0100
0000
,
0010
0000
0001
0000
0100
0000
0010
0100
0000
0000
0001
0000
0011
0000
0001
0000
,
0100
0000
0010
1000
0010
0000
1000
0000
0001
0000
0000
1000
0000
0000
0010
0000
,
0100
0001
0010
0100
1000
0000
0001
0000
0100
0000
0010
0100
1001
0000
0000
0000
,
0001
0000
1000
0010
1000
0000
1100
0000
0011
0000
0001
0100
0010
0000
0101
0000
,
1010
0000
0001
0010
0001
0000
1001
0000
1010
0000
0010
1000
0100
0000
1100
0000
,
0011
0000
0001
0100
0010
0000
0101
0000
1010
0000
0001
0010
0001
0000
1001
0000
,
0220
0000
0330
1001
,
0001
0000
1000
0000
0010
0000
0100
0001
0010
0100
1000
0001
0000
0001
1000
0010
,
1000
0001
0001
0100
0001
0010
0100
1000
0010
0100
0001
0010
0001
1000
0010
0100
,
0001
0000
1000
0010
0000
0010
1000
0001
1000
0000
0001
0000
0100
0000
0010
0100
,
0001
0010
0001
0100
0010
0100
0001
0010
0100
1000
0001
0100
0010
0010
1000
0100
,
1000
0001
0000
0001
1000
0000
0010
0100
0001
0100
0000
0010
0100
0000
0001
0010
,
0100
1000
0000
0001
1000
0010
1000
0001
1000
1000
0001
0100
0010
0100
0001
0010
,
0001
0100
0000
0100
0010
0000
0010
1000
0001
0010
0000
0010
0001
0000
0001
0100
,
0010
0100
0001
1000
0100
1000
1000
0010
0100
0001
1000
0010
2002
0000
3003
0000
,
0001
0000
0100
0010
0100
0000
0001
0000
1001
0000
0000
0110
0000
0000
1001
0000
,
0001
0000
1000
0010
0100
0000
0001
0000
0011
0000
0000
0101
0000
0000
0110
0000
,
0010
0000
1000
0100
1000
0000
0001
0000
1001
0000
0000
0011
0000
0000
1001
0000
,
0010
0000
1000
0001
1000
0000
0001
0000
0100
0000
0010
0100
0010
0000
0100
0000
,
0001
0000
0010
0001
0010
0000
0001
0000
0011
0000
0000
0101
0000
0000
0110
0000
,
0010
0000
1000
0100
1000
0000
0010
0000
1010
0000
0000
1010
0000
0000
1001
0000
,
0001
0000
1000
0010
0100
0000
0001
0000
0011
0000
0000
0101
0000
0000
0110
0000
,
0010
0000
1000
0001
1000
0000
0001
0100
0001
0000
0100
0010
0200
0000
0300
0000
,
0010
1000
0010
1000
0010
0100
0001
0100
0001
0010
0100
1000
0001
0000
0100
0000
,
0010
0100
0001
0010
0001
1000
0010
1000
0001
1000
0100
0010
0001
0100
0010
0000
,
0100
0001
0010
0001
0000
1000
0010
1000
0001
1000
0000
0010
0100
0000
0001
0010
,
0001
0100
0010
0100
0001
0010
0001
1000
0010
0100
0001
1000
0200
0000
0300
0000
,
1000
0010
1000
0010
1000
0001
1000
0001
0010
0100
1000
0001
0100
0001
0010
0100
,
0000
0010
0010
0001
1000
0010
1000
0001
1000
0100
0010
0001
0100
0100
0010
1000
,
0001
1000
0010
1000
0001
0010
0001
0100
0010
0100
0001
1000
0100
0000
0010
0000
,
0001
0100
0010
0100
0001
0010
0001
0100
0001
0010
0100
1000
0001
0100
0010
0100
,
0001
0000
1000
0010
1000
0000
0001
0000
0010
0000
0001
0010
0001
0000
0100
0000
,
0010
0000
1000
0100
0010
0000
0001
0000
0100
0010
0100
0001
0010
0001
1000
0010
,
1000
0000
0001
1000
0001
0000
1000
0000
0010
0000
0100
0001
0100
0000
0001
0000
,
0010
0000
0100
1000
0100
0000
0010
0000
0001
0100
0010
0100
0001
0010
0100
1000
,
0001
0000
1000
0010
1000
0000
0001
0000
1001
0000
0000
0110
0000
0000
1001
0000
,
0001
0000
0010
0001
0010
0000
0001
0000
0101
0000
0000
0110
0000
0000
1010
0000
,
0010
0000
1000
0100
1000
0000
0001
0000
1001
0000
0000
0110
0000
0000
1001
0000
,
0000
0011
0101
0110
2200
3300
0022
0033
,
2002
3003
0000
0000
;
