#TITLE:Follow Me;
#SUBTITLE:;
#ARTIST:SHK;
#TITLETRANSLIT:;
#SUBTITLETRANSLIT:;
#ARTISTTRANSLIT:;
#GENRE:;
#CREDIT:;
#MUSIC:Follow Me.ogg;
#BANNER:Follow Me.png;
#BACKGROUND:Follow Me-BG.png;
#CDTITLE:;
#SAMPLESTART:29.491;
#SAMPLELENGTH:14.935;
#SELECTABLE:YES;
#OFFSET:-0.120;
#BPMS:0.000=155.000;
#STOPS:290.000=0.568
,296.500=0.568
,299.000=0.580
;
#BGCHANGES:;
#FGCHANGES:;

//--------------- dance-single - Alex ----------------
#NOTES:
     dance-single:
     Alex:
     Beginner:
     1:
     0,0,0,0,0:
0000
0000
0000
0000
,
0000
0000
0000
0000
,
0000
0000
0000
0000
,
0000
0000
0000
0000
,
0000
0000
0000
0000
,
0001
0000
0000
0000
,
0001
0000
0000
0000
,
1000
0000
0000
0000
,
1000
0000
0000
0000
,
1001
0000
0000
0000
,
0010
0000
0010
0000
,
0010
0000
0000
0000
,
0100
0000
0100
0000
,
0100
0000
0000
0000
,
0001
0000
0000
0000
,
1000
0000
0000
0000
,
1000
0000
0000
0000
,
0020
0000
0000
0000
,
0030
0000
0000
0000
,
1000
0000
1000
0000
,
1000
0000
0000
0000
,
0100
0000
0100
0000
,
0100
0000
0000
0000
,
0010
0000
0000
0000
,
0001
0000
0000
0000
,
0100
0000
0000
0000
,
0100
0000
0000
0000
,
1001
0000
0000
0000
,
0001
0000
0000
0000
,
1000
0000
0000
0000
,
0010
0000
0000
0000
,
1000
0000
0000
0000
,
1000
0000
0000
0000
,
0010
0000
0000
0000
,
0100
0000
0100
0000
,
0200
0000
0000
0000
,
0300
0000
0000
0000
,
0020
0000
0000
0000
,
0030
0000
0000
0000
,
0001
0000
0001
0000
,
1001
0000
0000
0000
,
0001
0000
0000
0000
,
1000
0000
0000
0000
,
0010
0000
0000
0000
,
0200
0000
0000
0000
,
0300
0000
0000
0000
,
0002
0000
0000
0000
,
0003
0000
0000
0000
,
1000
0000
0000
0000
,
0001
0000
0000
0000
,
0100
0000
0000
0000
,
0100
0000
0100
0000
,
0100
0000
0000
0000
,
1001
0000
0000
0000
,
0001
0000
0000
0000
,
1000
0000
0000
0000
,
1000
0000
0000
0000
,
0010
0000
0000
0000
,
0010
0000
0000
0000
,
0100
0000
0000
0000
,
0010
0000
0010
0000
,
0010
0000
0000
0000
,
0010
0000
0000
0000
,
1000
0000
0000
0000
,
0001
0000
0000
0000
,
0001
0000
0000
0000
,
0001
0000
0000
0000
,
1000
0000
0000
0000
,
0010
0000
0000
0000
,
0100
0000
0100
0000
,
0200
0000
0300
0000
,
1001
0000
0000
0000
,
0110
0000
0000
0000
0000
1001
0000
0000
,
0000
0000
0000
0000
0000
0110
0000
0000
,
0000
0000
1001
0000
0000
0000
0000
0110
;

//--------------- dance-single - Alex ----------------
#NOTES:
     dance-single:
     Alex:
     Easy:
     4:
     0,0,0,0,0:
0000
0000
0000
0000
,
0000
0000
0000
0000
,
0000
0000
0000
0000
,
0000
0000
0000
0000
,
0000
0000
0000
0000
,
0100
0000
0100
0000
,
0010
0000
0010
0000
,
1000
0000
0001
0000
,
1000
0000
0002
0003
,
0100
0000
0010
0000
,
0100
0100
0010
0010
,
1000
0000
0001
0000
,
1000
1000
0001
0000
,
0001
0100
0001
0000
,
1000
0010
1000
0000
,
0001
0000
1000
0000
,
0001
0100
0100
0010
,
0020
0000
0000
0000
,
0030
0000
0000
0000
,
1000
0000
0001
0000
,
1000
0001
1000
0001
,
1000
0000
0100
0000
,
0010
0010
0100
0000
,
0010
1000
0010
0000
,
1000
0100
1000
0000
,
0001
0000
1000
0000
,
0001
0001
0100
0100
,
0101
0000
0101
0000
,
0001
0001
1000
1000
,
0020
0000
0100
0000
,
0100
0000
0130
0000
,
1001
0000
1001
0000
,
1000
0001
1000
0001
,
0020
0000
0001
0000
,
0001
0000
0031
0000
,
0001
0001
0100
0100
,
0020
0000
0030
0000
,
1000
1000
0001
0001
,
2000
0000
3000
0000
,
1001
0000
1001
0000
,
0010
0000
0010
0000
,
1000
0000
1000
0000
,
0001
0000
0100
0000
,
0001
0000
1000
0001
,
0200
0000
0300
0000
,
0020
0000
0030
0000
,
2000
0000
3000
0000
,
0002
0000
0003
0000
,
1000
0100
1000
0000
,
0001
0100
0001
0000
,
0100
0000
0010
0000
,
0100
0100
0010
0010
,
0200
0000
0300
0000
,
1001
0000
1001
0000
,
0001
1000
0001
0100
,
0002
0000
1000
0000
,
1000
0000
1003
0000
,
1010
0000
1010
0000
,
0010
1000
0100
1000
,
0020
0000
0100
0000
,
0100
0000
0130
0000
,
0110
0000
0110
0000
,
0100
0001
0100
0001
,
2000
0000
0001
0000
,
0001
0000
3001
0000
,
0011
0000
0011
0000
,
0001
0100
0001
0100
,
0020
0000
0100
0000
,
0100
0000
0130
0000
,
1001
0000
1001
1001
,
0220
0000
0330
0000
,
0010
0010
0100
0100
,
0001
0000
1000
0000
0001
1000
0000
0001
,
0000
1000
0000
0001
0000
0100
0000
0010
,
0000
0100
0001
0000
0010
0000
0001
1000
,
0000
0100
0000
1001
0000
0000
0000
0000
;

//--------------- dance-single - Alex ----------------
#NOTES:
     dance-single:
     Alex:
     Medium:
     6:
     0,0,0,0,0:
0000
0000
0000
0000
,
0000
0000
0000
0000
,
0000
0000
0000
0000
,
0000
0000
0000
0000
,
0000
0000
0000
0000
,
0001
0001
1000
1000
,
0010
0010
0100
0100
,
0001
0001
0100
0100
,
0010
0000
0010
0000
0100
0000
2002
3003
,
0001
1000
0010
0100
,
0001
1000
0200
0300
,
1000
0010
1000
0001
,
0010
0001
2000
3000
,
0001
0100
0002
0003
,
1000
0100
2000
3000
,
0010
0100
0001
0010
,
0100
1000
0001
0100
,
0220
0000
0000
0000
,
0330
0000
0000
0000
,
0010
0100
0001
0010
,
0100
1000
0002
0003
,
0100
0001
0010
0001
,
1000
0010
2000
3000
,
0001
0100
0020
0030
,
1000
0100
0020
0030
,
0001
0100
0010
0100
,
0001
1000
0020
0030
,
1000
0001
0010
0002
,
0003
0100
0001
1000
,
0020
0100
0100
0130
,
0002
1000
1000
1003
,
1000
0001
0010
0002
,
0003
1000
0010
1000
,
0002
0100
0100
0103
,
2000
0010
0010
3010
,
0010
0100
0001
1000
,
2002
0000
3003
0000
,
0001
0010
0001
0100
,
0220
0000
0330
0000
,
1001
1001
1001
1001
,
0001
0001
0100
0100
,
0001
0001
1000
1000
,
0010
0100
0010
1000
,
0001
0010
0001
0101
,
0200
0000
0300
0000
,
0020
0000
0030
0000
,
2000
0000
3000
0000
,
0002
0000
0003
0000
,
1000
1000
1000
1000
,
0001
0001
0001
0001
,
0100
0100
0010
0010
,
0100
0001
1000
0000
,
2002
0000
3003
0000
,
0001
0001
0100
0100
,
0001
1000
0010
1000
,
0200
1000
1000
1300
,
2000
0001
0001
3001
,
0001
1000
0010
0100
,
0001
1000
0100
0100
,
2000
0010
0010
3010
,
0020
0100
0100
0130
,
0001
0010
0100
0010
,
0001
0100
0010
0100
,
0002
1000
1000
1003
,
2000
0010
0010
3010
,
0010
1000
0001
0100
,
0100
0001
1000
0100
,
2000
0001
0001
3001
,
0002
0100
0100
0103
,
1001
0000
1001
1001
,
0220
0000
0330
0000
,
0010
0100
0001
0010
,
0100
0000
1000
0000
0001
0000
0100
0000
0020
0030
0100
0000
0000
0000
0100
0000
,
0000
0001
0000
1000
0000
0001
0010
0001
,
1000
0000
0020
0030
1000
0000
0001
0000
1000
0000
0001
0000
2000
3000
0001
0000
,
1000
0001
1000
1001
0000
0000
0000
0000
;

//--------------- dance-single - Alex ----------------
#NOTES:
     dance-single:
     Alex:
     Hard:
     8:
     0,0,0,0,0:
0000
0000
0000
0000
,
0000
0000
0000
0000
,
0000
0000
0000
0000
,
0000
0000
0000
0000
,
0000
0000
0000
0000
,
0001
0100
0001
0100
0001
0100
0001
0100
,
0010
0100
0010
0100
0010
0100
0010
0100
,
0010
1000
0010
1000
0010
1000
0010
1000
,
0100
1000
0100
1000
0100
1000
1001
0000
,
0001
1000
0020
0030
0100
0001
2000
3000
,
0001
0010
0100
1000
0001
0000
1001
0000
,
0001
0100
0002
0003
1000
0010
2000
3000
,
0001
0010
0001
0100
0010
0000
0110
0000
,
0010
1000
0100
0010
0001
0000
0101
0000
,
0001
0100
0010
0100
0001
0000
1001
0000
,
0001
1000
0020
0030
1000
0001
0020
0030
,
0001
1000
0010
0100
0001
0000
1001
0000
,
0001
1000
0100
0010
0001
0100
0010
1000
,
0004
4000
0000
0000
0000
0000
0000
0000
0000
0000
3003
0000
0000
0000
0000
0000
,
0001
0010
0002
0003
1000
0100
2000
3000
,
0010
1000
0001
0100
0010
0000
0110
0000
,
0010
0100
0002
0003
1000
0001
2000
3000
,
0001
0010
0001
1000
0010
0000
1010
0000
,
0010
1000
0001
1000
0100
0000
1100
0000
,
1000
0001
0100
0010
0100
0000
0101
0000
,
0001
0010
0002
0003
1000
0100
2000
3000
,
0010
0100
0001
0010
0001
0000
1001
0000
,
0002
0003
1000
0010
0200
0300
0002
0003
,
1000
0100
0010
0001
0100
0010
0100
0001
,
2000
0010
0010
3010
,
0002
0100
0100
0103
,
0002
0003
1000
0100
0020
0030
0002
0003
,
0100
0010
0100
0001
0010
0100
1000
0010
,
0200
0001
0001
0301
,
0002
0010
0010
0013
,
0001
1000
0010
0100
0001
1000
0100
0010
,
2002
0000
0000
3003
,
0001
1000
0010
1000
0001
0010
0100
1000
,
2200
0000
0000
3300
,
1001
1001
0110
0110
,
0010
0100
0010
0100
0010
0100
0010
0100
,
0010
0100
0001
0100
0001
0100
0001
0100
,
0001
1000
0001
1000
0001
1000
0001
1000
,
0010
1000
0010
1000
0010
1000
1010
0000
,
0020
0000
0130
0000
,
0200
0001
0001
0301
,
0002
0000
1003
0000
,
2000
0010
0010
3010
,
1000
0001
0010
0001
1000
0000
0001
0000
,
0100
0100
0001
1000
0010
0000
0100
0000
,
0001
0010
0001
0000
0100
0010
0100
0000
,
0001
1000
0100
0010
0001
0000
0100
0000
,
0220
0000
0330
0000
,
0020
0030
1000
0001
0020
0030
0002
0003
,
0100
0001
0010
0100
1000
0010
0100
0001
,
2000
0010
0010
3010
,
0002
0100
0100
0103
,
0002
0003
0010
0001
0200
0300
0020
0030
,
1000
0001
0010
0100
1000
0001
0100
0010
,
0200
0001
0001
0301
,
0020
0100
0100
0130
,
1001
0000
0010
0100
0001
0000
1001
0000
,
1000
0100
0010
0001
0100
0010
0100
0001
,
0011
0011
0011
0011
,
1100
1100
1100
1100
,
1010
0000
0010
0100
0101
0000
1001
0000
,
0001
1000
0010
0100
0001
1000
0100
0010
,
0011
0011
0011
0011
,
0101
0101
0110
0110
,
1001
0000
0010
0010
,
1000
0001
0010
0100
1000
0001
0100
0010
,
1000
0001
1000
0000
0001
0100
0010
0100
,
0001
0000
0010
0000
0100
0000
1000
0000
0020
0030
0100
0000
0001
0000
0100
0000
,
0000
0001
0010
0100
1000
0010
0100
0001
,
1000
0000
0020
0030
1000
0000
0001
0000
1000
0000
0010
0000
0200
0300
0001
0000
,
1000
0010
0100
1001
0000
0000
0000
0000
;

//--------------- dance-single - Alex ----------------
#NOTES:
     dance-single:
     Alex:
     Challenge:
     10:
     0,0,0,0,0:
0000
0000
0000
0000
,
0000
0000
0000
0000
,
0000
0000
0000
0000
,
0000
0000
0000
0000
,
0000
0000
0000
1001
,
0001
1000
0010
0100
0001
0010
0100
0010
,
0001
0100
0010
0100
0001
0010
0100
1000
,
0001
0100
1000
0100
0001
1000
0010
0001
,
0010
1000
0001
0010
0100
1000
1001
M00M
,
0001
0000
0100
0000
0020
0000
0030
1000
0100
0010
0001
0000
0100
0000
0010
0000
,
0100
0001
0010
0100
1100
MM00
0011
00MM
,
0001
0000
0100
0000
0020
0000
0030
0100
0001
0100
0001
0000
1000
0000
0001
0000
,
0010
0001
1000
0010
0110
0MM0
1001
M00M
,
0001
0000
0100
0000
0010
0000
0100
0000
0001
2000
3000
0020
0030
1000
0001
0010
,
0001
0000
0100
0000
1000
0000
0100
0000
0001
0020
0030
0002
0003
0100
0010
0100
,
0001
0000
0100
0000
0020
0000
0030
1000
0001
0100
0001
0000
1000
0000
0010
0000
,
0100
0001
0010
0100
1100
MM00
0011
00MM
,
0001
0100
0010
0100
0001
0010
0100
1000
,
0001
0010
0100
1000
0010
0100
0001
0010
0001
1000
0010
0100
0001
1000
0100
0000
,
1000
0000
0010
0000
2000
0000
3000
0001
0100
0001
1000
0000
0001
0000
0010
0000
,
0100
0000
1000
0000
0010
0000
0100
0000
0001
0000
0100
0010
0100
0001
0010
0100
,
1000
0000
0001
0000
0020
0000
0030
0001
0100
0010
1000
0000
0001
0000
0100
0000
,
0010
0000
0100
0000
0001
0000
1000
0000
0100
0000
0010
0001
0100
0010
0100
0001
,
1000
0000
0001
0000
0100
0000
0001
0000
1000
0020
0030
2000
3000
0001
0010
0100
,
1000
0000
0001
0000
0100
0000
1000
0000
0100
0002
0003
0020
0030
0001
0100
0010
,
0100
0000
0001
0000
2000
0000
3000
0010
1000
0010
1000
0000
0001
0000
0100
0000
,
0110
0000
0100
0000
0101
0000
0001
0000
1001
0000
1000
0001
0010
0001
1000
0010
,
2000
0000
0000
3000
0002
0003
0200
0300
0020
0000
0000
0030
2000
0000
0000
3000
,
0001
0000
0010
0000
0100
0000
1000
0000
0001
0000
0100
0000
0010
0000
0100
0001
,
0100
0000
0001
1000
0001
0000
1000
0010
1000
0000
0010
0100
0010
0000
0100
0001
,
0100
0000
0001
0010
0001
0000
1000
0010
1000
0000
0001
0100
0001
0000
0010
0001
,
0020
0000
0000
0030
0002
0003
0200
0300
0020
0000
0000
0030
2000
0000
0000
3000
,
0001
0000
0010
0000
0100
0000
0010
0000
0001
0000
0100
0000
0010
0000
0100
0001
,
0100
0000
0001
1000
0001
0000
1000
0010
1000
0000
0010
0100
0010
0000
0100
0001
,
0100
0000
0001
1000
0001
0000
1000
0010
1000
0000
0010
0100
0010
0000
0100
0001
,
0100
0001
0010
0100
1000
0001
0100
0010
,
1000
0001
0010
0100
1000
0010
0100
0010
1000
0001
0010
0001
1000
0010
1000
0001
,
1000
1000
0010
0010
0100
0100
0001
0001
,
0010
0001
0100
0010
0100
0001
0010
0100
1000
0001
0100
0001
1000
0010
0100
0001
,
1000
0000
0001
1000
0001
0000
1000
0001
1000
0000
0001
1000
0002
0000
0003
0000
,
1000
0100
0010
0100
1000
0010
0001
0010
,
1000
0001
0010
0100
0010
0001
0100
1000
,
0100
0001
1000
0010
1000
0001
0010
0100
,
0010
0001
0100
0010
0100
0001
1001
M00M
,
0001
0000
0010
0000
0200
0000
0300
0010
0001
0100
0010
0000
0100
0000
0001
0000
,
1000
0010
0100
0001
0011
00MM
0101
0M0M
,
0001
0000
1000
0000
0200
0000
0300
1000
0010
1000
0010
0000
1000
0000
0001
0000
,
0010
0001
1000
0010
1010
M0M0
0110
0MM0
,
0010
0000
0100
0000
0001
0000
0100
0000
0001
2000
3000
0002
0003
0010
0001
1000
,
0010
0000
0010
0000
1000
0000
1000
0000
0001
0200
0300
0002
0003
0100
0010
0100
,
0001
0000
1000
0000
0200
0000
0300
1000
0010
0100
0001
0000
0100
0000
0010
0000
,
0100
0000
0001
0000
1000
0000
0100
0000
0100
1000
0010
0100
0001
0010
0100
1000
,
2002
0000
0000
0000
0000
0000
0000
0000
3003
0000
0000
0000
0001
1000
0001
0100
,
0002
0000
0000
0003
2000
3000
0020
0030
0200
0000
0000
0300
0002
0000
0000
0003
,
1000
0000
0100
0000
0010
0000
0100
0000
1000
0000
0001
0000
0100
0000
0010
0100
,
0010
0000
0100
0001
0100
0000
0001
1000
0001
0000
1000
0010
1000
0000
0010
0100
,
0010
0000
0100
0001
0100
0000
0001
0010
0001
0000
1000
0001
1000
0000
0001
0100
,
0002
0000
0000
0003
0200
0300
0002
0003
0020
0000
0000
0030
0200
0000
0000
0300
,
1000
0000
0010
0000
0100
0000
0001
0000
0010
0000
0100
0000
1000
0000
0001
1000
,
0001
0000
1000
0010
1000
0000
0010
0100
0010
0000
0100
0001
0100
0000
0001
0010
,
0011
0101
0110
1010
,
0020
0000
0000
0030
0200
0300
0002
0003
2000
0000
0000
3000
0002
0000
0000
0003
,
0100
0000
0010
0000
0100
0000
0001
0000
0010
0000
0100
0000
1000
0000
0001
1000
,
0001
0000
0100
0001
0100
0000
0010
1000
0010
0000
1000
0100
1000
0000
0001
0010
,
0001
0000
1000
0010
1000
0000
0001
0100
0001
0000
0100
0010
0100
0000
0001
0010
,
0002
0000
0000
0003
2000
3000
0002
0003
0020
0000
0000
0030
0002
0000
0000
0003
,
0100
0000
0010
0000
0100
0000
0001
0000
0010
0000
0100
0000
1000
0000
0001
1000
,
0001
0000
1000
0010
1000
0000
0010
0100
0010
0000
0100
0001
0100
0000
0001
1000
,
1001
M00M
0011
00MM
1001
M00M
1100
MM00
,
0110
0MM0
0000
0000
1001
M00M
1001
M00M
,
0001
1000
0010
0100
0001
0010
0100
0010
0001
0100
0010
0100
0001
1000
0100
0010
,
0001
0000
1000
0000
0020
0000
0030
1000
0001
0100
0001
0000
1000
0000
0100
0000
,
0010
0001
0100
0010
0110
1000
0001
0200
,
0300
0001
0010
0100
1000
0000
0010
0000
1000
0000
0100
0000
0010
0000
0001
0000
,
0100
0000
0202
0303
0010
0000
1000
0000
0001
0000
0010
0000
0022
0033
0001
0000
,
0100
0010
1000
2002
0000
0000
3003
0000
;
