#TITLE:Final Audition Episode 2-2;
#SUBTITLE:;
#ARTIST:Yahpp;
#TITLETRANSLIT:;
#SUBTITLETRANSLIT:;
#ARTISTTRANSLIT:;
#GENRE:;
#CREDIT:;
#MUSIC:Final Audition Episode 2-2.ogg;
#BANNER:Final Audition Episode 2-2.png;
#BACKGROUND:Final Audition Episode 2-2-BG.png;
#CDTITLE:;
#SAMPLESTART:30.159;
#SAMPLELENGTH:10.069;
#SELECTABLE:YES;
#OFFSET:0.104;
#BPMS:0.000=200.000
,158.000=100.000
,162.000=200.000
;
#STOPS:;
#BGCHANGES:;
#FGCHANGES:;

//--------------- dance-single - Alex ----------------
#NOTES:
     dance-single:
     Alex:
     Beginner:
     1:
     0,0,0,0,0:
0000
0000
0000
0000
,
0000
0000
0000
0000
,
0000
0000
0000
0000
,
0000
0000
0000
0000
,
0000
0000
0000
0000
,
0000
0000
0000
0000
,
0000
0000
0000
0000
,
0000
0000
0000
0000
,
0001
0000
0000
0000
,
1000
0000
0000
0000
,
0010
0000
0000
0000
,
0010
0000
0000
0000
,
0100
0000
0000
0000
,
0001
0000
0000
0000
,
0200
0000
0000
0000
,
0000
0300
0000
0000
,
0000
0000
0000
0000
,
0000
0000
1001
0000
,
0000
0000
0000
0000
,
0000
0000
0110
0000
,
0000
0000
0000
0000
,
0000
0000
0011
0000
,
0000
0000
0000
0000
,
0000
0000
1100
0000
,
0000
0000
0000
0000
,
0000
0000
1001
0000
,
0000
0000
0001
0000
,
0000
0000
1000
0000
,
0000
0000
0010
0000
,
0000
0000
1000
0000
,
0000
0000
1000
0000
,
0000
0000
2002
0000
,
0000
0000
0000
0000
,
3003
0000
0100
0000
,
0000
0000
0010
0000
,
0000
0000
1000
0000
,
0000
0000
0100
0000
,
0100
0000
0100
0000
,
0000
0000
1000
0000
,
0000
0000
0001
0000
,
0000
0000
0110
0000
,
0000
0000
0001
0000
,
0000
0000
0001
0000
,
0000
0000
1000
0000
,
0000
0000
0010
0000
,
0000
0000
1000
0000
,
1000
0000
1000
0000
,
0000
0000
0001
0000
,
0000
0000
1000
0000
,
0000
0000
0100
0000
,
0000
0000
0100
0000
,
0000
0000
1000
0000
,
1000
0000
1000
0000
,
0000
0000
0001
0000
,
0000
0000
0010
0000
,
0000
0000
0001
0000
,
0000
0000
0200
0000
,
0300
0000
0010
0000
,
0010
0000
0020
0000
,
0030
0000
1000
0000
,
1000
0000
1000
0000
,
0000
0000
0001
0000
,
0000
0000
0100
0000
,
0000
0000
0001
0000
,
0000
0000
2000
0000
,
0000
0000
3000
0000
,
1001
0000
0000
0000
,
0010
0000
0000
0000
,
1000
0000
0000
0000
,
0001
0000
0000
0000
,
0100
0000
0000
0000
,
0100
0000
0000
0000
,
0220
0000
0330
0000
,
0001
0000
0000
0000
,
0001
0000
0000
0000
,
1000
0000
0000
0000
,
1000
0000
0000
0000
,
0000
1001
0000
0000
;

//--------------- dance-single - Alex ----------------
#NOTES:
     dance-single:
     Alex:
     Easy:
     4:
     0,0,0,0,0:
0000
0000
0000
0000
,
0000
0000
0000
0000
,
0000
0000
0000
0000
,
0000
0000
0000
0000
,
0000
0000
0000
0000
,
0000
0000
0000
0000
,
0000
0000
0000
0000
,
0000
0000
0000
0100
,
0200
0000
0300
0001
,
0002
0000
0003
1000
,
1000
0001
0001
0010
,
0020
0000
0030
0001
,
0001
0100
0100
0010
,
0010
1000
1000
0100
,
0200
0000
0000
0300
,
1001
0000
0110
0000
,
1001
0000
0220
0000
,
0330
0010
0020
0000
,
0000
0000
0000
0000
,
0030
0100
0200
0000
,
0000
0000
0000
0000
,
0300
0001
2002
0000
,
0000
0000
0000
0000
,
3003
0100
0200
0000
,
0000
0000
0000
0000
,
0300
0000
0001
1000
,
0001
0000
1000
0010
,
1000
0000
0001
0100
,
0001
0000
0100
0010
,
0100
0000
0001
0010
,
0100
1000
0001
0100
,
0010
1000
2002
0000
,
0000
0000
0000
0000
,
0000
3003
1000
0001
,
1000
0001
0100
0010
,
0100
0000
0001
0010
,
0100
1000
0001
0001
,
0100
0100
0010
1000
,
0010
0000
1000
0100
,
1000
0001
0200
0000
,
0300
0110
0010
0010
,
1000
0000
0001
0001
,
0100
0000
0010
1000
,
0100
0000
1000
1000
,
0001
0000
0001
0001
,
1000
1000
1001
0000
,
1001
0000
0010
0010
,
0010
0000
0100
0001
,
0100
0000
0001
0001
,
1000
0000
1000
1000
,
0010
0000
1000
0010
,
1000
0001
0101
0000
,
0110
0000
0100
0001
,
0100
0001
1000
0010
,
1000
0000
0001
0010
,
0100
1000
0001
0001
,
0100
0100
0020
0000
,
0030
0000
0100
0100
,
0001
0001
2000
0000
,
3000
0000
0001
0001
,
1000
1000
1001
0000
,
1001
0000
0110
0000
,
0110
0000
1010
0000
,
1010
0000
0101
0000
,
0101
0000
0220
0000
,
0000
0000
0330
0100
,
0200
0000
0300
0001
,
0002
0000
0003
1000
,
1000
0001
0001
0010
,
0020
0000
0030
0001
,
0001
0100
0100
0010
,
0010
1000
1000
0100
,
0200
0300
2000
3000
,
1000
0001
1000
0001
,
0100
0010
0100
0010
,
1000
0001
0010
0100
,
2000
3000
0002
0000
,
0003
0200
0000
0000
,
0000
0000
0000
0000
,
0000
0000
0000
0000
,
0000
0000
0000
0000
,
0000
0000
0300
0000
;

//--------------- dance-single - Alex ----------------
#NOTES:
     dance-single:
     Alex:
     Medium:
     7:
     0,0,0,0,0:
0000
0000
0000
0000
,
0000
0000
0000
0000
,
0000
0000
0000
0000
,
0000
0000
0000
0000
,
0000
0000
0000
0000
,
0000
0000
0000
0000
,
0000
0000
0000
0000
,
0000
0000
0000
0001
,
2002
0000
3003
1000
,
2020
0000
3030
0010
,
0110
0100
0101
0001
,
2002
0000
3003
0010
,
1001
0100
1001
1000
,
1010
0010
0110
0100
,
0101
0011
1001
0110
,
2002
3003
0220
0330
,
0022
0033
2200
0000
,
3300
1010
0202
0000
,
0000
0000
0000
0000
,
0303
0011
2002
0000
,
0000
0000
0000
0000
,
3003
0110
0100
0001
,
0010
0100
1000
0001
,
0100
0110
2200
0000
,
0000
0000
0000
0000
,
3300
1001
0001
1000
,
0010
1000
0010
0000
1000
0000
0001
0000
,
1000
0100
1000
0000
0001
0000
0100
0000
,
0010
0100
0010
0000
0100
0000
0001
0000
,
0010
0001
0010
0000
0001
0000
1000
0000
,
0010
1000
0010
0000
1000
0000
0001
0000
,
0100
0001
0100
0000
0220
0000
0000
0000
,
0000
0000
0000
0000
,
0000
0330
1001
0001
,
0100
0000
0010
0000
1000
0100
1000
0000
,
0001
0010
0001
0000
0100
0000
0010
0000
,
0100
0000
0001
0000
1000
0001
1000
0000
,
0001
1000
0001
0000
0100
0000
0010
0000
,
1000
0000
0100
0000
1000
0100
1000
0000
,
0001
0010
0001
0000
2002
0000
0000
0000
,
3003
1001
0001
0100
,
0010
0000
1000
0000
0001
0010
0001
0100
,
0001
0100
0001
0000
0100
0000
0010
0000
,
1000
0000
0100
0000
1000
0010
1000
0010
,
1000
0001
1000
0000
0001
0000
0100
0000
,
0010
1000
1001
0110
,
2002
3003
0001
0100
,
0010
0000
0100
0000
0001
1000
0001
1000
,
0100
1000
0001
0000
1000
0000
0010
0000
,
1000
0000
0001
0000
0010
0001
0010
0001
,
0100
0010
0100
0000
0001
0000
1000
0000
,
0001
0100
0110
1001
,
0220
0330
0100
0001
,
0100
0001
0100
0000
0001
0000
1000
0000
,
0001
1000
0001
0000
1000
0000
0010
0000
,
1000
0000
0001
0000
0100
0010
0100
0010
,
0100
0010
0100
0000
0202
0000
0000
0000
,
0303
0000
0000
0000
0001
1000
0001
0000
,
1000
0001
1000
0000
2002
0000
0000
0000
,
3003
0000
0000
0000
0010
0100
0010
0000
,
0100
0010
0100
0000
0101
0000
1010
0000
,
1100
0011
0101
0110
,
0011
1001
0001
0001
,
1000
0000
1000
0000
0010
0100
0010
0100
,
0010
0100
0010
0100
0020
0000
0000
0000
,
0000
0000
0030
1000
,
2002
0000
3003
0010
,
0220
0000
0330
0100
,
0101
0001
0011
0010
,
0022
0000
0033
0001
,
1001
1000
1010
0010
,
0110
0100
0101
0001
,
1001
0011
1001
1010
,
1100
1000
0001
0100
,
0010
0000
1000
0001
1000
0000
0001
0100
,
0001
0000
0100
0010
0100
0000
0010
0100
,
0020
0000
0000
0030
2000
0000
0000
0000
,
0000
3000
2002
0000
0000
0000
0000
0000
,
0000
0000
0000
0000
,
0000
0000
0000
0000
,
0000
0000
0000
0000
,
0000
0000
3003
0000
;

//--------------- dance-single - Alex ----------------
#NOTES:
     dance-single:
     Alex:
     Hard:
     10:
     0,0,0,0,0:
0000
0000
0000
0000
,
0000
0000
0000
0000
,
0000
0000
0000
0000
,
0000
0000
0000
0000
,
0000
0000
0000
0000
,
0000
0000
0000
0000
,
0000
0000
0000
0000
,
0000
0000
0000
0000
0000
0000
0000
0000
0000
0001
0100
0001
,
0200
0000
0000
0000
0000
0000
0300
0000
0000
0010
1000
0010
,
2000
0000
0000
0000
0000
0000
3000
0000
0000
0001
1000
0001
,
2000
0000
3000
0010
0100
0010
0200
0000
0300
0001
0010
0001
,
0020
0000
0000
0000
0000
0000
0030
0000
0000
0001
0100
0001
,
0200
0000
0300
0010
1000
0010
2000
0000
3000
0001
1000
0001
,
2000
0000
3000
0001
0100
0001
0200
0000
0300
0010
1000
0010
,
1000
0000
0001
0000
0100
0000
0010
0000
0100
0000
0001
0000
,
1000
0001
1000
0001
1000
0000
0000
0000
1001
0000
0000
0001
0100
0000
0010
0000
,
1000
0010
1000
0000
0001
0000
0100
0001
0100
0000
0010
0000
1000
0010
1000
0010
,
1000
0001
0100
0000
0220
0000
0000
0000
,
0000
0000
0000
0000
,
0330
1001
2002
0000
,
0000
0000
0000
0000
,
3003
0000
1001
0000
0001
0100
0010
0100
,
0001
0010
0100
1000
0001
0100
0010
1000
,
0100
1100
0022
0000
,
0000
0000
0000
0000
,
0033
0000
0000
0000
0011
0000
0000
0000
0001
0000
0100
0000
0010
0000
0100
0001
,
1000
0000
0001
0000
1000
0000
0000
0000
0001
0000
0010
0000
0001
0000
0100
0010
,
0100
0000
0001
0000
1000
0000
0000
0000
0100
0000
0010
0000
0001
0000
1000
0010
,
1000
0000
0001
0000
0100
0000
0000
0000
0001
0000
0100
0000
0010
0000
0100
0001
,
0100
0000
0001
0000
1000
0000
0000
0000
0001
0000
0010
0000
0001
0000
0100
0010
,
0100
0000
0001
0000
1000
0000
0000
0000
0010
0000
1000
0000
0100
0000
1000
0010
,
1000
0001
0100
0000
0220
0000
0000
0000
,
0000
0000
0000
0000
,
0330
0000
0000
0000
1001
0000
0000
0000
0001
0000
0100
0000
0010
0000
0100
0001
,
0100
0000
0001
0000
1000
0000
0010
1000
0010
0000
1000
0000
0001
0000
1000
0001
,
1000
0000
0001
0000
0100
0000
0010
0100
0001
0000
1000
0000
0100
0000
0010
0001
,
0100
0000
0010
0000
1000
0000
0010
0000
0100
0001
0100
0000
0202
0000
0303
0000
,
0010
1000
0010
0000
2020
0000
3030
0000
1000
0000
0010
0000
0100
0000
0001
0100
,
0001
0000
1000
0000
0001
0000
0010
0001
0010
0000
0001
0000
0001
0000
0100
0010
,
0100
0000
0000
0001
0000
0000
1000
0000
0000
0010
0000
0000
0100
0000
0001
0000
0100
0000
0010
0000
1000
0000
0001
0000
,
0010
0000
0001
0000
0100
0000
0220
0000
0000
0000
0330
0000
0010
0000
0000
0100
0000
0000
0101
0000
0000
0001
0000
0000
,
1000
0000
0010
0000
1010
0000
0010
0000
1000
0000
0001
1000
0001
0000
1000
0000
,
0001
0000
0100
0001
0100
0000
0001
0000
0100
0000
0010
0000
0110
0000
0100
0000
,
0001
0000
1000
0000
1001
0000
0001
0000
0100
0000
0010
0100
0010
0000
1000
0000
,
0001
0000
0010
0001
0010
0000
0001
0000
0100
0000
0010
0000
0100
0000
0001
0000
,
0010
0000
0100
0000
1000
0000
0001
0000
1000
0010
0000
0010
1000
0000
1000
0001
,
0000
0001
0100
0000
0020
0000
0000
0030
0100
0000
0001
0000
0011
0000
0001
0000
,
1000
0010
1010
1000
0001
1000
1001
0001
,
0100
0000
0010
0000
0110
0000
0010
0000
0100
0000
0001
0100
0001
0000
0100
0000
,
0010
0000
1000
0010
1000
0000
0001
0000
1000
0000
0010
0000
0100
0000
0001
0000
,
0010
0100
1000
0001
0100
0001
1000
0010
,
1000
0000
0001
0000
0100
0000
0010
0000
0100
0001
0000
0001
0100
0000
0100
0010
,
0000
0010
1000
0000
0020
0000
0030
0000
1000
0000
0001
1000
0001
0000
1000
0000
,
0010
0000
1000
0010
1000
0000
0001
0000
0100
0000
0010
0000
0100
0000
0001
0000
,
0010
0100
1000
0001
0100
0000
0010
0000
0110
0000
0000
0000
1010
0000
0000
0000
,
1100
0000
0000
0000
0011
0000
0000
0000
0001
0000
0100
0000
0010
0000
0100
0001
,
0100
0001
0100
0000
0010
0000
0010
0000
1000
0000
0000
1000
0000
0000
1000
0000
,
0000
0001
0100
0000
0010
1000
0100
0010
,
0001
1000
0010
0100
0001
0000
1000
0000
0001
0000
0000
0001
0000
0000
0001
0000
,
0000
0100
0100
0000
0001
1000
0010
0100
,
0001
0010
0100
1000
0001
0000
0100
0000
0010
0100
0010
0000
0200
0000
0300
0000
,
0010
1000
0010
0000
2000
0000
3000
0000
0001
0010
0001
0000
0002
0000
0003
0000
,
0100
0010
0100
0000
0020
0000
0030
0000
1000
0100
1000
0000
0001
0000
0100
0000
,
0010
0100
0010
0000
0100
0000
0001
0000
1000
0001
1000
0000
0001
0000
0100
0000
,
0001
0010
0001
0000
0100
0000
0010
0000
0220
0000
0000
0000
0000
0000
0000
0000
,
0000
0000
0000
0000
0000
0000
0330
0000
0000
0100
0010
0100
,
0020
0000
0000
0000
0000
0000
0030
0000
0000
1000
0010
1000
,
0020
0000
0000
0000
0000
0000
0030
0000
0000
1000
0001
1000
,
0002
0000
0003
0100
0001
0100
0002
0000
0003
0010
0100
0010
,
0200
0000
0000
0000
0000
0000
0300
0000
0000
1000
0010
1000
,
0020
0000
0030
1000
0001
1000
0002
0000
0003
0100
0001
0100
,
0002
0000
0003
0010
0100
0010
0200
0000
0300
1000
0010
1000
,
0010
0000
0100
0000
0001
0000
0100
0000
0010
0000
1000
0000
,
0001
0010
0100
1000
0001
0100
0010
0100
,
0001
1000
0010
1000
0001
0010
0001
0100
,
0010
0100
0001
0010
0100
1000
0001
0010
,
0022
0000
0000
0033
2200
0000
0000
0000
,
0000
3300
2002
0000
0000
0000
0000
0000
,
0000
0000
0000
0000
,
0000
0000
0000
0000
,
0000
0000
0000
0000
,
0000
0000
3003
0000
;

//--------------- dance-single - Alex ----------------
#NOTES:
     dance-single:
     Alex:
     Challenge:
     13:
     0,0,0,0,0:
0000
0000
0000
0000
,
0000
0000
0000
0000
,
0000
0000
0000
0000
,
0000
0000
0000
0000
,
0000
0000
0000
0000
,
0000
0000
0000
0000
,
0000
0000
0000
0000
,
0000
0000
0000
0000
0000
0000
0000
0000
0000
1000
0001
0100
,
0220
0000
0000
0000
0000
0330
0000
0000
0000
1000
0001
0010
,
0022
0000
0000
0000
0000
0033
0000
0000
0000
0001
0100
0010
,
0220
0000
0330
1000
0001
0100
0202
0000
0303
1000
0010
1000
,
2200
0000
0000
0000
0000
3300
0000
0000
0000
1000
0001
0100
,
0202
0000
0303
0010
1000
0001
0022
0000
0033
0001
1000
0010
,
2020
0000
3030
1000
0001
0100
0202
0000
0303
0010
1000
0100
,
1100
0000
0011
0000
0101
0000
1010
0000
0101
0000
0011
0000
,
1000
0001
0100
0010
0100
0000
0000
0000
1001
0000
0000
0001
1000
0010
1000
0001
,
0010
0001
0100
0000
0100
0000
0100
0010
0100
0010
0100
0001
1000
0000
0001
0010
,
0100
1000
0001
0100
0010
0000
0000
0000
2002
0000
0000
0000
0000
0000
0000
0000
,
0000
0000
0000
0000
,
0000
3003
0110
0000
2002
0000
0000
0000
,
0000
0000
0000
0000
,
0000
0000
3003
0000
0110
0000
0000
0000
1000
0100
0010
0001
1000
0010
1000
0001
,
0010
0100
1000
0001
0100
0010
0100
0001
0010
0100
0010
0001
1000
0010
1000
0001
,
0100
0110
2002
0000
,
0000
0000
0000
0000
,
0000
0000
0000
0000
3003
0000
0000
0000
0001
0000
1000
0000
1010
0000
0010
1000
,
0100
0010
0001
0000
0101
0000
0000
0000
0001
0000
0100
0000
0110
0000
0010
1000
,
0100
0010
0001
0000
1001
0000
0000
0000
0001
0000
1000
0000
1010
0000
0010
1000
,
0010
0100
0010
0000
1010
0000
0000
0000
0010
0000
1000
0000
1001
0000
0001
1000
,
0010
0100
0001
0000
0101
0000
0000
0000
0001
0000
0100
0000
0110
0000
0010
1000
,
0100
0010
0001
0000
0101
0000
0001
0000
0100
0000
0001
0000
1001
0000
0001
0010
,
0100
1000
0001
0000
0100
0000
0000
0000
0010
1000
0010
1000
0010
1000
0001
1000
,
0001
1000
0001
0100
0001
0100
0001
0100
0010
0100
0010
0100
0010
1000
0100
0010
,
0002
0000
0000
0003
2000
0000
0000
3000
0010
0000
0100
0000
0001
0000
0010
0100
,
1000
0001
0100
0000
0010
0000
0010
0100
0001
0000
1000
0000
0001
0000
1000
0001
,
1000
0010
1000
0000
0001
0000
0100
0001
0100
0000
0001
0000
0010
0000
0001
0100
,
0010
1000
0100
0000
1000
0000
0010
1000
0010
0100
0001
0000
1001
0000
0000
0000
,
0001
0010
0100
0000
1001
0000
0000
0000
0001
0000
0100
0000
0001
0000
0001
0010
,
0100
1000
0001
0000
1000
0000
0010
1000
0010
0000
1000
0000
0001
0000
1000
0010
,
1000
0000
0000
0010
0000
0000
1000
0000
0000
0000
0000
0000
0001
0000
0000
0000
0000
0000
0100
0000
0000
0001
0000
0000
0100
0000
0000
0000
0101
0000
0000
0000
0001
0000
0000
0000
1001
0000
0000
0000
1000
0000
0000
0000
1010
0000
0000
0000
,
0010
0000
0000
0000
0110
0000
0000
0000
0100
0000
0000
0000
0202
0000
0000
0000
0000
0000
0000
0000
0303
0000
0000
0000
0001
0000
0000
0010
0000
0000
0100
0000
0000
1000
0000
0000
0001
0000
0000
0010
0000
0000
0001
0000
0000
1000
0000
0000
,
0010
1000
0001
0100
0001
0010
0001
0100
0010
0000
0100
0001
0100
0000
0001
0000
,
1000
0000
0010
1000
0010
0000
1000
0000
0001
0010
0100
1000
0001
0010
0001
1000
,
0010
1000
0001
1000
0100
1000
0001
0100
0010
0000
0100
0001
0100
0000
0001
0000
,
1000
0000
0010
1000
0001
0000
0010
0000
0001
0100
0010
1000
0100
0010
0001
1000
,
0010
0100
0001
0010
0100
1000
0001
0100
0010
0100
0000
0100
0010
0000
0010
1000
,
0000
1000
0001
0000
0022
0000
0033
0000
0001
0100
0001
1000
0001
0100
0001
1000
,
0010
1000
0001
0010
0100
1000
0001
1000
0010
0000
1000
0001
0100
0000
0001
0000
,
1000
0000
0001
0010
0001
0000
0100
0000
0010
0100
0001
0010
0100
1000
0001
0010
,
0001
1000
0010
1000
0001
0100
0001
1000
0010
0000
1000
0001
1000
0000
0001
0000
,
0100
0000
0010
0100
0010
0000
0100
0000
0001
0010
0100
1000
0001
0010
0001
0100
,
0001
0100
0010
1000
0100
0010
0100
1000
0010
1000
0000
1000
0010
0000
0010
0100
,
0000
0100
0001
0000
0202
0000
0303
0000
0010
1000
0010
1000
0010
1000
0001
0100
,
0010
1000
0100
0010
0001
1000
0010
0100
0001
0010
0100
1000
0001
0100
0010
0100
,
0001
0010
0001
1000
0010
0100
0001
0100
0001
0010
0001
0100
0001
0100
0001
0100
,
0010
0100
0001
0100
0001
1000
0001
1000
0010
1000
0100
0010
0001
1000
0010
0100
,
0001
0010
0100
1000
0001
1000
0010
0000
1001
0000
0000
0110
0000
0000
1001
0000
,
0000
0000
0011
0000
0101
0000
0000
0000
0001
0010
0100
1000
0001
0100
0010
1000
,
0100
0010
0001
1000
0010
0100
0001
0000
1001
0000
0000
0011
0000
0000
0101
0000
,
0000
0000
1010
0000
1100
0000
0000
0000
1000
0100
0010
0001
1000
0010
1000
0001
,
0010
0100
1000
0001
0100
0010
0100
0001
1000
0001
0100
0010
0200
0000
0300
0000
,
0001
0010
0100
1000
0002
0000
0003
0000
1000
0010
1000
0001
2000
0000
3000
0000
,
0001
1000
0010
0100
0002
0000
0003
0000
1000
0100
2000
3000
0001
0010
0002
0003
,
0100
0010
0200
0300
0001
0010
0200
0300
1000
0100
0010
0001
1000
0010
0100
0001
,
0010
0100
1000
0001
0100
0010
1000
0001
2002
0000
0000
0000
0000
0000
0000
0000
,
0000
0000
0000
0000
0000
0000
3003
0000
0000
0001
1000
0100
,
2200
0000
0000
0000
0000
0000
3300
0000
0000
1000
0001
0010
,
0022
0000
0000
0000
0000
0000
0033
0000
0000
0001
0100
0010
,
0220
0000
0330
0010
1000
0001
0022
0000
0033
0001
1000
0100
,
2200
0000
0000
0000
0000
0000
3300
0000
0000
1000
0001
0100
,
0220
0000
0330
1000
0001
0010
0022
0000
0033
0001
1000
0010
,
2020
0000
3030
1000
0100
1000
2200
0000
3300
1000
0001
0100
,
0101
0000
0110
0000
0101
0000
0011
0000
1001
0000
1010
0000
,
1000
0001
0100
0010
0100
0010
1000
0100
0010
0001
1000
0010
0100
0001
0010
0100
,
1000
0001
0100
0010
1000
0100
0010
0100
1000
0001
1000
0001
0100
0001
0010
0001
,
0100
0010
0100
0001
1000
0001
0100
0010
0100
0001
0010
0100
1000
0001
0100
0010
,
2020
0000
0000
3030
2002
0000
0000
0000
,
0000
3003
0000
0000
0220
0000
0000
0000
0000
0000
0000
0000
0000
0000
0000
0000
,
0000
0000
0000
0000
,
0000
0000
0000
0000
,
0000
0000
0000
0000
,
0000
0000
0330
0000
;
