#TITLE:Final Audition Episode 2-1;
#SUBTITLE:;
#ARTIST:Yahpp;
#TITLETRANSLIT:;
#SUBTITLETRANSLIT:;
#ARTISTTRANSLIT:;
#GENRE:;
#CREDIT:;
#MUSIC:Final Audition Episode 2-1.ogg;
#BANNER:Final Audition Episode 2-1.png;
#BACKGROUND:Final Audition Episode 2-1-BG.png;
#CDTITLE:;
#SAMPLESTART:36.156;
#SAMPLELENGTH:13.551;
#SELECTABLE:YES;
#OFFSET:-0.200;
#BPMS:0.000=170.000
,231.000=85.000
,233.000=170.000
,237.000=85.000
,239.000=170.000
;
#STOPS:;
#BGCHANGES:;
#FGCHANGES:;

//--------------- dance-single - Alex ----------------
#NOTES:
     dance-single:
     Alex:
     Beginner:
     1:
     0,0,0,0,0:
0000
0000
0000
0000
,
0000
0000
0000
0000
,
0000
0000
0000
0000
,
0000
0000
0000
0000
,
0000
0000
0000
0000
,
0000
0000
0000
0000
,
0000
0000
0000
0000
,
0000
0000
0000
0000
,
0000
0100
0000
0000
,
0000
0001
0000
0000
,
0000
1000
0000
0000
,
0000
1000
0000
0000
,
0000
0010
0000
0000
,
0000
0001
0000
0000
,
0000
2002
0000
0000
,
0000
3003
0000
0000
,
0000
0000
0000
0000
,
0000
0000
0000
0110
,
0000
0000
0000
0000
,
0000
0000
0000
1001
,
0000
0000
0000
0000
,
0000
0000
0000
0110
,
0000
0000
0000
0000
,
0000
0000
0000
1001
,
0000
0000
0000
0000
,
0000
0000
0000
0001
,
0000
0000
0000
0001
,
0000
0000
0000
1000
,
0000
0000
0000
1000
,
0000
0000
0000
0010
,
0000
0000
0000
1000
,
0000
0000
0000
0002
,
0000
0000
0000
0000
,
0000
0003
0000
0001
,
0000
0000
0000
0100
,
0000
0000
0000
0001
,
0000
0000
0000
1000
,
0000
0000
0000
1000
,
0000
0000
0000
0010
,
0000
0000
0000
0010
,
0000
0000
0000
0000
,
0000
0000
0000
1001
,
0000
0000
0000
0001
,
0000
0000
0000
1000
,
0000
0000
0000
0001
,
0000
0000
0000
0100
,
0000
0000
0000
0010
,
0000
0010
0000
0010
,
0000
0000
0000
1000
,
0000
0000
0000
1000
,
0000
0000
0000
0010
,
0000
0000
0000
1000
,
0000
0000
0000
0100
,
0000
0100
0000
0100
,
0000
0000
0000
1000
,
0000
0000
0000
0001
,
0000
0000
0000
1000
,
0000
0000
0000
1001
,
0000
0100
0000
0000
,
0000
1001
0000
0010
,
0000
0000
0000
1000
,
0000
1000
0000
1000
,
0000
1000
0000
0001
,
0000
0001
0000
0001
,
0000
0001
0000
0200
,
0000
0000
0000
0000
,
0000
0300
0000
0000
0000
0000
0000
0000
;

//--------------- dance-single - Alex ----------------
#NOTES:
     dance-single:
     Alex:
     Easy:
     3:
     0,0,0,0,0:
0000
0000
0000
0000
,
0000
0000
0000
0000
,
0000
0000
0000
0000
,
0000
0000
0000
0000
,
0000
0000
0000
0000
,
0000
0000
0000
0000
,
0000
0000
0000
0000
,
0000
0000
0000
0000
,
0010
0020
0000
0030
,
0010
0020
0000
0030
,
0010
0010
1000
1000
,
0001
0002
0000
0003
,
0001
0001
0100
0100
,
0010
0010
1000
1000
,
0100
0200
0000
0000
,
0300
1001
0000
1001
,
0000
0110
0000
0110
,
0000
1001
0000
0220
,
0000
0000
0000
0000
,
0000
0330
0100
2002
,
0000
0000
0000
0000
,
0000
3003
0000
1001
,
0000
1001
0000
0110
,
0000
0110
0000
2002
,
0000
0000
0000
0000
,
0000
3003
0000
1000
,
0000
1000
0000
0001
,
0001
0001
0000
0100
,
0000
0010
0000
0100
,
0100
0100
0000
0001
,
0000
1000
0000
0001
,
0000
1000
0000
2002
,
0000
0000
0000
0000
,
0000
3003
0010
0110
,
0000
0100
0000
0001
,
0000
1000
0000
0001
,
0000
0001
0000
1001
,
0000
1001
0000
0001
,
0001
0001
0000
1000
,
1000
1000
0000
2002
,
0000
0000
0000
0000
,
0000
3003
0000
1000
,
0000
1000
0000
0001
,
0000
0100
0000
0010
,
0000
0100
0000
0001
,
0000
1000
0000
0001
,
0100
0001
0000
1000
,
0010
1000
0010
1000
,
0000
0001
0000
0100
,
0000
0010
0000
0100
,
0000
0001
0000
1000
,
0000
1000
0000
0001
,
0100
0001
0000
0100
,
0010
0100
0010
0100
,
0000
1001
0000
0010
,
0000
1001
0000
1000
,
0000
0001
0000
1000
,
0000
0001
0000
0202
,
0303
0100
0100
0010
,
0010
2020
3030
1000
,
1000
0001
0001
1001
,
0000
1001
0000
0110
,
0000
0110
0000
1001
,
0000
0011
0000
1001
,
0000
1100
0000
2002
,
0000
0000
0000
0000
0000
0000
0000
3003
,
0000
1001
0000
0000
0000
0000
0000
0000
;

//--------------- dance-single - Alex ----------------
#NOTES:
     dance-single:
     Alex:
     Medium:
     6:
     0,0,0,0,0:
0000
0000
0000
0000
,
0000
0000
0000
0000
,
0000
0000
0000
0000
,
0000
0000
0000
0000
,
0000
0000
0000
0000
,
0000
0000
0000
0000
,
0000
0000
0000
0000
,
0000
0000
0000
0000
,
1001
2002
0000
3003
,
1001
2002
0000
3003
,
0110
0110
1001
1001
,
0110
0220
0000
0330
,
1001
1001
0110
0110
,
0101
0101
1010
1010
,
1001
2002
0000
0000
,
3003
1001
0000
1001
,
0000
0110
0110
0011
,
1100
0011
0110
2002
,
0000
0000
0000
0000
,
0000
3003
0110
0220
,
0000
0000
0000
0000
,
0000
0330
0000
0001
,
0010
0100
1000
0001
,
0100
0010
0110
2002
,
0000
0000
0000
0000
,
0000
3003
1001
0001
,
0100
0010
0100
0001
,
0001
1000
1000
0001
,
0010
0100
1000
0001
,
0001
0100
0100
0010
,
1000
0100
0010
0100
,
1000
0001
1000
2002
,
0000
0000
0000
0000
,
0000
3003
1001
1000
,
0010
0000
1000
0000
0001
0000
0100
0001
,
0100
0000
0010
1000
0010
0000
1000
0000
,
0001
0010
0001
0001
,
0101
0100
1010
1000
,
1000
0000
0010
0000
0010
0000
1000
0001
,
1000
0000
0001
0100
0001
0000
0100
0000
,
0100
0001
0001
1000
,
1000
2002
3003
0001
,
1000
0000
0001
1000
0001
0000
0100
0000
,
0010
1000
0100
0010
,
0100
0000
1000
0000
1000
0000
0001
0100
,
0001
0000
1000
0010
1000
0000
0001
0000
,
0010
0001
0100
0110
,
0000
1001
0000
0000
0110
0000
0010
0000
,
1000
0000
0100
0010
0100
0000
1000
0000
,
0001
0100
0010
1000
,
0001
0000
0010
0000
0001
0000
0100
0001
,
0100
0000
0010
1000
0010
0000
1000
0000
,
1000
0001
0001
0100
,
0101
0100
0110
0010
,
0010
1000
1000
0001
,
0001
0100
0010
0100
,
0001
0010
0100
1000
,
0001
0100
0010
2020
,
3030
0000
0010
1000
0010
0000
1000
0010
,
1000
0000
2020
0000
3030
0000
1000
0001
,
1000
0000
0001
0100
0001
0000
0110
0000
,
1001
0110
1001
0011
,
1100
0011
1100
1010
,
0101
0011
0110
1001
,
0110
1001
0110
2002
,
0000
0000
0000
0000
0000
0000
0000
3003
,
0000
1001
0000
0000
0000
0000
0000
0000
;

//--------------- dance-single - Alex ----------------
#NOTES:
     dance-single:
     Alex:
     Hard:
     9:
     0,0,0,0,0:
0000
0000
0000
0000
,
0000
0000
0000
0000
,
0000
0000
0000
0000
,
0000
0000
0000
0000
,
0000
0000
0000
0000
,
0000
0000
0000
0000
,
0000
0000
0000
0000
,
0000
0000
0000
0000
,
0001
1000
0001
2000
0000
0000
0000
0000
0000
3000
0000
0000
,
0010
0100
0010
0200
0000
0000
0000
0000
0000
0300
0000
0000
,
0001
0010
0001
0020
0000
0030
0001
0100
0001
0200
0000
0300
,
0010
1000
0010
2000
0000
0000
0000
0000
3000
0000
0000
0000
,
0001
1000
0001
2000
0000
3000
0001
0100
0001
0200
0000
0300
,
0010
1000
0010
2000
0000
3000
0100
0010
0100
0020
0000
0030
,
0001
0100
0001
0100
0000
0010
0000
0100
0000
0001
0000
1000
,
0000
0000
0010
0000
0000
0000
1000
0000
0000
0010
0000
0000
1000
0000
0000
0000
0000
0000
1010
0000
0000
0000
0000
0000
,
0010
1000
0001
0100
0010
0000
0100
0001
,
0010
0000
1000
0010
0200
0300
0002
0003
,
2000
3000
0002
0003
0200
0300
0020
0030
,
2000
3000
0100
0010
0001
0100
0020
0030
,
2000
3000
0002
0003
0020
0030
0002
0003
,
2000
3000
0010
1000
0002
0003
0100
0001
,
0010
0100
1000
0001
0100
0010
1000
0100
,
0010
0001
0200
0000
0000
0300
0002
0003
,
2000
3000
0200
0300
2000
3000
0002
0003
,
0200
0300
0010
1000
0200
0300
1000
0001
,
0100
0001
1000
0010
1000
0000
0001
0010
,
0001
0000
0100
0010
0100
0000
0001
0010
,
0100
1000
0001
0100
0010
0000
0100
0001
,
0100
0000
0001
1000
0001
0000
1000
0010
,
1000
0000
0001
0100
0010
0100
0001
1000
,
0010
0000
1000
0100
0010
0001
0202
0000
,
0000
0000
0000
0000
,
0000
0000
0303
0000
1001
0000
1000
0001
,
1000
0010
1000
0001
1000
0000
0001
0100
,
0001
0100
0110
0000
0101
0000
0001
0010
,
0100
1000
0001
0100
0010
1000
0001
0100
,
0020
0030
1000
0100
2000
3000
0001
0100
,
0010
0100
0001
0010
0100
0000
1000
0001
,
1000
0000
0001
0100
0001
0100
0220
0000
,
0000
0000
0000
0000
,
0000
0330
1001
0000
0000
0000
0001
1000
,
0010
1000
0001
0100
0001
0000
1000
0100
,
1100
0000
1000
0010
1010
0000
0010
1000
,
0001
0100
0010
0100
0001
0100
0001
0010
,
0100
1000
0001
1000
0010
0000
1000
0100
,
0010
0000
0100
0000
1000
0000
0001
0000
0100
0000
0000
0000
0010
1000
0000
1000
,
0010
0000
0010
0100
0000
0100
0001
0000
1001
0000
0000
0000
0001
0000
0100
0000
,
0010
0100
0001
0010
0100
0000
1000
0001
,
0100
0000
0001
1000
0010
0000
1000
1000
,
0001
0100
0010
0010
0100
0001
1000
0100
,
1000
0001
0100
0010
0100
0000
0001
0100
,
0001
0000
1000
0000
0010
0000
1000
0000
0001
0000
0100
0000
0010
0100
0000
0100
,
0001
0000
0001
1000
0000
1000
0010
0000
1010
0000
0000
0000
0010
0000
1000
0000
,
0100
1000
0010
1000
0100
0000
1000
0001
,
0100
0000
0001
1000
0010
0000
1000
0001
,
1000
0001
0100
0010
0100
0000
0001
0010
,
0001
0000
0000
0000
0000
0000
0000
0000
0100
0000
0000
0000
0010
0000
0000
0000
0100
0000
0000
0000
0000
0000
0000
0000
0001
0000
0000
0001
0000
0000
0001
0000
,
0000
1000
1000
0000
0001
0000
0100
0000
0010
0000
1000
0000
0100
0000
0010
0000
,
0001
0000
0000
0000
0100
0000
0000
0000
0010
0000
0000
0010
0000
0000
0010
0000
0000
0000
0100
0000
0100
0000
0000
0000
0001
0000
0000
0000
1000
0000
0000
0000
,
0010
0100
0001
1000
0100
0010
0001
0000
,
0202
0303
0010
0000
2020
3030
1000
0000
,
2002
3003
0001
0000
0202
0303
0110
0000
,
0101
0011
1001
1010
,
1100
0110
0011
0202
,
0000
0000
0000
0000
0000
0000
0000
0303
,
0000
1001
0000
0000
0000
0000
0000
0000
;

//--------------- dance-single - Alex ----------------
#NOTES:
     dance-single:
     Alex:
     Challenge:
     12:
     0,0,0,0,0:
0000
0000
0000
0000
,
0000
0000
0000
0000
,
0000
0000
0000
0000
,
0000
0000
0000
0000
,
0000
0000
0000
0000
,
0000
0000
0000
0000
,
0000
0000
0000
0000
,
0000
0000
0000
0000
,
0001
1000
0010
2020
0000
0000
0000
0000
0000
3030
0000
0000
,
1000
0001
0100
0202
0000
0000
0000
0000
0000
0303
0000
0000
,
0001
1000
0010
2020
0000
3030
0001
1000
0001
2002
0000
3003
,
0100
0010
0100
0202
0000
0000
0000
0000
0000
0303
0000
0000
,
0001
1000
0001
0022
0000
0033
0001
0100
0010
0220
0000
0330
,
0010
1000
0100
2200
0000
3300
1000
0001
1000
2002
0000
3003
,
0001
0100
0010
0110
0000
0101
0000
0011
0000
1001
0000
1010
,
0000
0000
0000
0000
1001
0000
0000
0000
0000
0000
0000
0000
0100
0000
0000
0001
0000
0000
0100
0000
0000
0001
0000
0000
0100
0000
0000
0000
0000
0000
0000
0000
0000
0000
0000
0000
0110
0000
0000
0000
0000
0000
0000
0000
0000
0010
0000
0000
,
1000
0100
1000
0010
1000
0010
1000
0000
1000
0000
0001
1000
0010
0100
0001
0000
,
0100
0000
0000
0001
0000
0000
0100
0000
0000
0001
0000
0000
0010
0000
0000
0100
0000
0000
1000
0000
0000
0001
0000
0000
2000
0000
0000
0000
0000
0000
0000
0000
0000
0000
0000
0000
3010
0000
0000
0000
0100
0000
0000
0000
0001
0000
0000
0000
,
0100
0010
1000
0100
0010
0001
1000
0010
1000
0001
0010
0001
,
0100
0000
0000
0000
0010
0000
0000
0000
0100
0000
0000
0000
0001
0000
0000
0010
0000
0000
0100
0000
0000
1000
0000
0000
0002
0000
0000
0000
0000
0000
0000
0000
0000
0000
0000
0000
1003
0000
0000
0000
0010
0000
0000
0000
1000
0000
0000
0000
,
0010
1000
0001
1000
0001
0100
0010
0100
0010
1000
0001
0100
,
0001
0000
0000
0000
1000
0000
0000
0000
0010
0000
0000
0000
1000
0000
0000
0001
0000
0000
1000
0000
0000
0010
0000
0000
2000
0000
0000
0000
0000
0000
0000
0000
0000
3000
0000
0000
0001
0000
0000
0100
0000
0000
0001
0000
0000
0010
0000
0000
,
0100
1000
0001
1000
0010
1000
0100
0010
0100
1000
0001
0100
0010
0100
0001
1000
,
0010
0000
0000
1000
0000
0000
0001
0000
0000
1000
0000
0000
0010
0000
0000
1000
0000
0000
0001
0000
0000
0100
0000
0000
0020
0000
0000
0000
0000
0000
0000
0000
0000
0030
0000
0000
0100
0000
0000
0000
0001
0000
0000
0000
0100
0000
0000
0000
,
0001
0010
0001
0100
0001
0100
0010
0100
0010
1000
0100
1000
,
0010
0000
0000
0000
1000
0000
0000
0000
0001
0000
0000
0000
1000
0000
0000
0010
0000
0000
1000
0000
0000
0001
0000
0000
2000
0000
0000
0000
0000
0000
0000
0000
0000
3000
0000
0000
0001
0000
0000
0000
0000
0000
0100
0000
0000
0000
0000
0000
,
0010
0100
0001
0010
0100
1000
0001
0100
0010
0000
1000
0000
0100
0000
1000
0000
,
0001
0100
0010
0100
0001
1000
0010
0100
0001
0000
1000
0000
0001
0000
0010
0000
,
0001
0100
0010
0100
0001
0010
0100
1000
0010
0000
1000
0000
0100
0000
1000
0000
,
0001
1000
0010
1000
0001
1000
0001
0100
0001
0000
1000
0000
0010
0000
0100
0000
,
0001
0010
0100
1000
0001
0100
0001
0100
0010
0000
1000
0000
0100
0000
1000
0000
,
0010
1000
0010
1000
0100
1000
0010
0100
0002
0000
0000
0003
1000
0100
0010
0001
,
1000
0100
0010
0001
1000
0001
0100
0010
1000
0010
0100
0001
0010
0001
0100
0010
,
0100
0001
1000
0010
1000
0000
0000
0000
1001
0000
0000
0000
0001
0010
0100
1000
,
0001
0100
0010
1000
0100
0010
0001
0100
0010
0100
0001
1000
0010
1000
0010
0000
,
1000
0000
1001
0000
0001
0010
0001
0000
0100
0000
0110
0000
0010
1000
0100
1000
,
0010
1000
0001
1000
0010
1000
0001
0010
0001
0100
0010
0100
0001
0010
0100
1000
,
2020
0000
0000
3030
0100
0001
1000
0001
2002
0000
0000
3003
0001
0100
0010
0100
,
0001
0010
0001
1000
0010
1000
0001
1000
0001
0100
0010
1000
0001
0010
0001
0000
,
0100
0000
0000
0000
0000
0000
0101
0000
0000
0000
0000
0000
0001
0000
0000
1000
0000
0000
0010
0000
0000
0000
0000
0000
1000
0000
0000
0000
0000
0000
1100
0000
0000
0000
0000
0000
1000
0000
0100
0000
1000
0000
0100
0000
0000
0000
0000
0000
,
1000
0010
1000
0010
0000
0000
1000
0001
1000
0001
0000
0000
0100
0001
0100
0001
0000
0000
0100
0010
0100
0010
0100
0010
,
0100
0000
0001
0000
0100
0000
0001
0000
0100
0000
0001
0000
0200
0000
0000
0000
0000
0000
0000
0000
0000
0000
0000
0000
0000
0000
0000
0000
0000
0000
0300
0000
0000
0000
0000
0000
0010
0000
0000
1000
0000
0000
0010
0000
0000
0000
0000
0000
,
1000
0100
1000
0000
0001
0100
0001
0000
0100
0010
0100
0000
0001
0010
0100
1000
,
0001
0000
1000
0000
0010
1000
0001
0100
0010
0000
0100
0000
0001
0010
0100
1000
,
0001
0010
0001
1000
0010
1000
0001
1000
0100
0010
0001
0100
0010
0100
0001
0100
,
0001
0010
0100
1000
0001
1000
0010
1000
0100
0010
0100
1000
0001
0000
0100
0000
,
0010
0100
0010
0000
1000
0000
0100
0000
0010
0001
0100
0000
0001
0100
0000
0100
,
0001
0000
0001
1000
0000
1000
0010
0000
2020
0000
3030
0000
1000
0010
1000
0000
,
0001
0000
0100
0000
0010
0100
0010
0000
1000
0000
0001
0000
0100
0010
0100
0001
,
0010
0000
0001
0000
1000
0010
1000
0001
1000
0000
0001
0000
1000
0100
0010
0001
,
1000
0010
1000
0010
0100
0010
0100
0001
0100
0001
0010
0100
1000
0001
0100
0001
,
1000
0010
1000
0001
0010
0001
0100
0010
0100
0001
0010
0100
1000
0000
0001
0000
,
0100
0010
0100
0000
0001
0000
1000
0000
0001
1000
0001
0000
1000
0001
0000
0001
,
1000
0000
1000
0010
0000
0010
1000
0000
2002
0000
3003
0000
0001
1000
0001
0000
,
1000
0010
1000
0000
0001
0100
0001
0000
0100
0010
0100
0000
0001
0010
0100
1000
,
0001
0100
0010
0100
0001
1000
0010
1000
0001
0010
0001
0000
0100
0010
0100
0000
,
0001
0010
0001
0000
1000
0010
1000
0000
0100
1000
0100
0000
1000
0001
0100
0010
,
0100
0000
0001
0000
1000
0000
0100
0000
1000
0000
0001
0000
0100
0000
0001
0000
0100
0000
0010
0000
0100
0000
0000
0000
0110
0000
0000
0101
0000
0000
1001
0000
,
0000
1010
1100
0000
1000
0001
0100
0010
1000
0001
0010
0100
1000
0001
0100
0010
,
1000
0000
0001
0000
0100
0000
0000
0000
0101
0000
0000
0011
0000
0000
1001
0000
0000
0000
1010
0000
1001
0000
0000
0000
1000
0000
0001
0000
1000
0000
0001
0000
,
1000
0001
0100
0001
1000
0010
1000
0001
0010
0100
1000
0010
0220
0000
0330
0000
,
2020
3030
2200
3300
0022
0033
0202
0303
,
0220
0000
0330
0000
0202
0000
0303
0000
0022
0000
0033
0000
0001
0100
0001
0100
,
0010
0100
0010
0100
0010
1000
0010
1000
0010
1000
0010
1000
0001
0100
0001
0100
,
0001
0100
0010
0100
0010
0100
0010
0100
0001
1000
0001
1000
2002
0000
0000
0000
,
0000
0000
0000
0000
0000
0000
0000
3003
,
0000
1111
0000
0000
0000
0000
0000
0000
;
