#TITLE:Final Audition Episode 1;
#SUBTITLE:;
#ARTIST:Banya;
#TITLETRANSLIT:;
#SUBTITLETRANSLIT:;
#ARTISTTRANSLIT:;
#GENRE:;
#CREDIT:;
#MUSIC:Final Audition Episode 1.ogg;
#BANNER:Final Audition Episode 1.png;
#BACKGROUND:Final Audition Episode 1-BG.png;
#CDTITLE:;
#SAMPLESTART:33.666;
#SAMPLELENGTH:14.444;
#SELECTABLE:YES;
#OFFSET:-0.055;
#BPMS:0.000=189.000;
#STOPS:;
#BGCHANGES:;
#FGCHANGES:;

//--------------- dance-single - Alex ----------------
#NOTES:
     dance-single:
     Alex:
     Beginner:
     1:
     0,0,0,0,0:
0000
0000
0000
0000
,
0000
0000
0000
0000
,
0000
0000
0000
0000
,
0000
0000
0000
0000
,
0000
0000
0000
0000
,
0000
0000
0000
0000
,
0000
0000
0000
0000
,
0000
0000
0000
0000
,
0000
0000
0000
0000
,
0000
0000
0100
0000
,
0000
0000
0100
0000
,
0000
0000
0010
0000
,
0000
0000
1000
0000
,
0000
0000
0001
0000
,
0000
0000
0001
0000
,
0000
0000
1000
0000
,
0000
0000
1000
0000
,
0000
0000
1001
0000
,
0000
0000
0001
0000
,
0000
0000
1000
0000
,
0000
0000
0010
0000
,
0000
0000
0100
0000
,
0000
0000
0100
0000
,
0000
0000
0010
0000
,
0000
0000
0010
0000
,
0000
0000
1001
0000
,
0000
0000
0100
0000
,
0000
0000
0001
0000
,
0000
0000
0001
0000
,
0000
0000
1000
0000
,
0000
0000
1000
0000
,
0000
0000
0001
0000
,
0000
0000
1000
0000
,
0000
0000
0010
0000
,
0000
0000
0010
0000
,
0000
0000
1000
0000
,
0000
0000
0001
0000
,
0000
0000
1000
0000
,
0000
0000
1000
0000
,
0000
0000
0100
0000
,
0000
0000
1000
0000
,
0000
0000
0001
0000
,
0000
0000
1001
0000
,
0000
0000
0001
0000
,
0000
0000
1000
0000
,
0000
0000
0001
0000
,
0000
0000
0100
0000
,
0000
0000
0010
0000
,
0000
0000
1000
0000
,
0000
0000
1000
0000
,
0000
0000
0100
0000
,
0000
0000
1000
0000
,
0000
0000
0001
0000
,
0000
0000
1000
0000
,
0000
0000
0010
0000
,
0000
0000
0010
0000
,
0000
0000
0100
0000
,
0000
0000
0010
0000
,
0000
0000
1001
0000
,
0000
0000
0001
0000
,
0000
0000
1000
0000
,
0000
0000
0010
0000
,
0000
0000
1000
0000
,
0000
0000
0001
0000
,
0000
0000
1000
0000
,
0000
0000
1000
0000
,
0000
0000
0001
0000
,
0000
0000
0001
0000
,
0000
0000
1000
0000
,
0000
0000
1000
0000
,
0000
0000
0010
0000
,
0000
0000
0100
0000
,
0000
0000
0001
0000
,
0000
0000
1000
0000
,
0000
0000
0000
0000
,
0000
0000
0000
1001
0000
0000
0000
0000
;

//--------------- dance-single - Alex ----------------
#NOTES:
     dance-single:
     Alex:
     Easy:
     4:
     0,0,0,0,0:
0000
0000
0000
0000
,
0000
0000
0000
0000
,
0000
0000
0000
0000
,
0000
0000
0000
0000
,
0000
0000
0000
0000
,
0000
0000
0000
0000
,
0000
0000
0000
0000
,
0000
0000
0000
0000
,
0000
0000
0000
0000
,
0000
0000
0010
0000
,
0010
0000
0010
0000
,
0000
0000
1000
0000
,
1000
0000
1000
0000
,
0000
0000
0001
0000
,
0001
0000
0001
0000
,
0000
0000
1000
0000
,
1000
0000
1000
0000
,
0000
0000
0010
0000
,
0010
0000
0010
0000
,
0000
0000
0100
0000
,
0100
0000
0100
0000
,
0000
0000
0001
0000
,
0001
0000
0001
0000
,
0000
0000
1000
0000
,
0001
0000
1000
0000
,
0001
0000
1001
0000
,
0000
0000
0010
0000
,
0100
0000
0010
0000
,
0100
0000
0001
0000
,
1000
0000
0001
0000
,
1000
0000
0010
0000
,
1000
0000
0001
0000
,
1000
0000
0001
0000
,
0001
0000
0100
0000
,
0100
0000
0010
0000
,
0100
0000
0001
0000
,
0010
0000
0001
0000
,
1000
0000
0001
0000
,
1000
0000
0100
0000
,
0100
0000
1000
0000
,
1000
0000
0010
0000
,
1000
0000
0001
0000
,
0100
0000
0010
0000
,
0100
0000
0001
0001
,
0001
0000
1000
0000
,
0001
0000
1000
1000
,
1000
0000
0010
0000
,
1000
0000
0100
0100
,
0100
0000
1000
0000
,
0001
0000
0010
0010
,
0010
0000
0001
0000
,
0100
0000
0010
0100
,
0010
0000
0100
0000
,
0001
0000
1000
0001
,
1000
0000
0001
0000
,
0100
0000
0010
0100
,
0010
0000
0001
0000
,
1000
0000
0001
0100
,
0001
0000
1000
0100
,
1000
0000
0001
0100
,
0001
0000
1000
0010
,
1000
0000
0001
0010
,
0001
0000
1000
0100
,
1000
0000
0010
1000
,
0010
0000
0100
0001
,
0100
0000
0001
0010
,
0001
0000
1000
0010
,
0100
0000
0001
0010
,
0100
0000
1000
0001
,
0100
0000
0001
1000
,
0010
0000
1000
0001
,
0010
0000
0001
0100
,
0010
0000
0100
0001
,
1000
0000
1001
0000
,
0000
0000
0000
0000
,
0000
0000
0000
1001
0000
0000
0000
0000
;

//--------------- dance-single - Alex ----------------
#NOTES:
     dance-single:
     Alex:
     Medium:
     6:
     0,0,0,0,0:
0000
0000
0000
0000
,
0000
0000
0000
0000
,
0000
0000
0000
0000
,
0000
0000
0000
0000
,
0000
0000
0000
0000
,
0000
0000
0000
0000
,
0000
0000
0000
0000
,
0000
0000
0000
0000
,
0000
0000
0000
0000
,
0000
0000
1000
0000
,
0001
0000
1000
0000
,
0001
0100
0001
0000
,
1000
0000
0010
0000
,
1000
0100
1000
0000
,
0001
0000
0100
0000
,
0010
0100
0010
0000
,
0100
0000
0001
0000
,
1000
0100
2000
0000
,
3010
0000
0100
0000
,
0001
0010
0002
0000
,
1003
0000
0001
0000
,
1000
0010
2000
0000
,
3001
0000
0100
0000
,
0010
0100
0001
0001
,
1000
1000
0001
0010
,
0100
1000
1001
0000
,
0000
0000
0001
1000
,
0001
0001
1000
0010
,
1000
1000
0001
0100
,
0010
0100
0001
0010
,
0100
1000
1000
0001
,
1000
0010
1000
0001
,
0010
0001
0100
0100
,
0001
0001
0010
0100
,
1000
0001
1000
1000
,
0010
0100
0001
1000
,
0100
0010
0100
1000
,
0001
0100
0010
0100
,
0001
0001
1000
0001
,
0010
0001
1000
0010
,
1000
0001
1000
0100
,
0010
0100
1000
0001
,
0100
0010
0110
0100
,
0001
0010
0100
1000
,
0001
0100
0001
0001
,
1000
0010
1000
0001
,
1000
0100
1000
1000
,
0001
0100
0010
0100
,
0001
0010
0100
0010
,
0001
1000
0010
0010
,
1000
1000
0001
1000
,
0100
1000
0001
1000
,
0010
1000
0001
0010
,
0001
0100
0100
0100
,
0001
0001
1000
0010
,
0010
1000
1000
0001
,
0100
0010
0100
0001
,
1000
0100
0010
0001
,
1000
0001
0100
0010
,
0100
0010
0100
0000
0001
0000
1000
0000
,
0001
1000
0001
0000
1000
0000
0010
0000
,
1000
0010
1000
0000
0001
0000
0010
0000
,
0001
0010
0001
0000
0100
0000
0100
0000
,
0001
1000
0001
0000
1000
0000
0100
0000
,
1000
0100
1000
0000
0001
0000
0100
0000
,
0010
0100
0010
0000
1000
0000
0010
0000
,
1000
0010
1000
0000
0001
0000
0010
0000
,
0001
0010
0001
0000
0100
0000
0100
0000
,
0001
1000
0001
0000
1000
0000
0001
0000
,
1000
0100
1000
0000
0001
0000
0100
0000
,
0010
0100
0010
0000
1000
0000
0001
0000
,
0010
0001
0010
0000
0001
0000
0100
0000
,
0001
0100
0001
0000
1000
0000
0100
0000
,
1000
0100
1000
0000
1001
0000
0000
0000
,
0000
0000
0000
0000
,
0000
0000
0000
0110
0000
0000
0000
0000
;

//--------------- dance-single - Alex ----------------
#NOTES:
     dance-single:
     Alex:
     Hard:
     9:
     0,0,0,0,0:
0000
0000
0000
0000
,
0000
0000
0000
0000
,
0000
0000
0000
0000
,
0000
0000
0000
0000
,
0000
0000
0000
0000
,
0000
0000
0000
0000
,
0000
0000
0000
0000
,
0000
0000
0000
0000
,
0000
0000
0000
0000
,
0000
0000
0001
0000
,
1000
0000
0001
0000
,
1000
0010
1000
0000
,
0001
0000
1000
0000
,
0001
0100
0001
0000
,
0100
0000
0010
0000
,
0100
0010
0100
0000
,
0001
0000
1000
0000
,
0001
0000
1000
0000
1001
0000
0000
0010
,
0100
0000
0000
0000
0001
0000
0000
1000
,
0100
0000
0000
0000
1001
0000
0000
0010
,
0100
0000
0000
0000
0001
0000
0000
1000
,
0100
0000
0000
0000
1001
0000
0000
0010
,
0100
0000
0000
0000
0001
0000
0000
0010
,
0001
0000
1000
0010
,
0100
0000
0001
0000
1000
0100
0010
0001
,
0100
0010
0100
0001
2002
0000
0000
0000
,
3003
0000
1001
0110
,
0010
0100
0001
0000
1001
0000
1100
0000
,
1000
0100
1000
0000
1001
0000
0011
0000
,
0001
0010
0001
0000
0101
0000
0110
0000
,
0010
0100
0010
0000
1010
0000
1100
0000
,
1000
0010
1000
0000
1001
0000
0011
0000
,
0001
0010
0001
0000
0101
0000
0110
0000
,
0100
0010
0100
0000
0101
0000
0011
0000
,
0001
0100
0001
0000
1001
0000
1010
0000
,
0010
1000
0010
0000
1010
0000
0101
0000
,
0001
0100
0001
0000
1100
0000
1010
0000
,
0010
0100
0001
0000
0011
0000
0101
0000
,
0100
0010
0100
0000
0101
0000
1010
0000
,
0010
1000
0010
0000
1001
0000
0110
0000
,
0010
0100
0001
0000
0011
0000
0101
0000
,
0100
0010
0100
0000
1001
0000
0110
0000
,
0010
0100
0001
0000
1000
0100
1000
0100
,
1000
0000
0001
0000
0100
0010
0100
0010
,
0100
0000
0001
0000
0010
0001
0010
0001
,
0010
0000
0001
0000
1000
0001
1000
0001
,
1000
0000
0001
0000
0100
0010
0100
0010
,
0100
0000
0001
0000
0010
0100
0010
0100
,
0010
0000
0001
0000
1000
0010
1000
0010
,
1000
0000
0001
0000
0100
0001
0100
0001
,
0100
0000
0001
0000
0010
0001
0010
0001
,
0010
0000
0001
0000
1000
0001
1000
0001
,
1000
0000
0010
0000
1000
0100
1000
0100
,
1000
0000
0001
0000
0100
0010
0100
0010
,
0100
0000
0001
0000
1000
0100
0010
0100
,
1000
0000
0001
0000
0100
0010
0100
0001
,
0010
0000
0001
0000
1000
0010
1000
0001
,
1000
0000
0001
0000
0100
0001
0010
0001
,
0100
0000
0010
0000
1000
0100
0010
0001
,
0100
0010
0100
0000
0001
0010
0100
1000
,
0001
0100
0010
0000
1000
0010
1000
0001
,
1000
0010
1000
0000
0001
0010
0001
0100
,
0001
0010
0001
0000
0100
0010
0100
0001
,
0010
0100
1000
0000
0001
1000
0010
0100
,
0001
0100
0001
0000
1000
0100
1000
0010
,
1000
0100
1000
0000
0001
0100
0010
0100
,
0001
0100
0010
0000
1000
0001
0010
0001
,
1000
0010
1000
0000
0001
0100
0001
0100
,
0010
0100
0001
0000
0010
0100
1000
0001
,
0100
0010
1000
0000
0001
0010
0001
0100
,
0001
1000
0010
0000
1000
0100
1000
0010
,
1000
0100
1000
0000
0001
0100
0010
0100
,
0001
0100
0010
0000
1000
0001
0010
0100
,
1000
0001
0100
0000
1001
0000
0000
0000
,
0000
0000
0000
0000
,
0000
0000
0000
1111
0000
0000
0000
0000
;

//--------------- dance-single - Alex ----------------
#NOTES:
     dance-single:
     Alex:
     Challenge:
     12:
     0,0,0,0,0:
0000
0000
0000
0000
,
0000
0000
0000
0000
,
0000
0000
0000
0000
,
0000
0000
0000
0000
,
0000
0000
0000
0000
,
0000
0000
0000
0000
,
0000
0000
0000
0000
,
0000
0000
0000
0000
,
0000
0000
0000
0000
,
0000
0000
0011
0000
,
0101
0000
0110
0000
,
1010
1100
0110
0000
,
0011
0000
0101
0000
,
0110
0101
0011
0000
,
1001
0000
0110
0000
,
1100
1010
0101
0000
,
0011
0000
0101
0000
,
0110
0000
0101
0000
2002
0000
0000
0010
,
3013
0000
0000
0000
1001
0000
0000
0110
,
0110
0000
1001
0000
0202
0000
0000
0010
,
0313
0000
0000
0000
0011
0000
0000
0101
,
0101
0000
0110
0000
2020
0000
0000
0100
,
3130
0000
0000
0000
1100
0000
0000
0011
,
0011
0101
0110
1010
,
1001
0000
0011
0000
0001
0100
0010
0100
,
0001
1000
0010
0100
0001
1000
0200
0020
0000
0000
0000
0000
0000
0000
0000
0000
,
0000
0330
0000
0000
0000
0000
0000
0000
0001
0000
0100
0000
0010
0000
0100
0000
,
0001
0100
0001
0000
1000
0000
0100
0000
0010
0000
0001
0000
1000
0000
0010
0000
,
1000
0010
1000
0000
0001
0000
0100
0000
0010
0000
0100
0000
0001
0000
0010
0000
,
0100
0010
0100
0000
1000
0000
0001
0000
0100
0000
0001
0000
1000
0000
0010
0000
,
1000
0001
1000
0000
0001
0000
0100
0000
0010
0000
0100
0000
0001
0000
1000
0000
,
0010
0100
0010
0000
1000
0000
1000
0000
0001
0000
1000
0000
0010
0000
1000
0000
,
0001
0010
0001
0000
0100
0000
0100
0000
0001
0000
1000
0000
0010
0000
0100
0000
,
0001
1000
0001
0000
0100
0000
0001
0000
1000
0000
0100
0000
0010
0000
0100
0000
,
1000
0100
1000
0000
0001
0000
0100
0000
0010
0000
0100
0000
0001
0000
1000
0000
,
0010
0100
0010
0000
1000
0000
0001
0000
0010
0000
0100
0000
1000
0000
0001
0000
,
1000
0001
1000
0000
0001
0000
0100
0000
0001
0000
0100
0000
0010
0000
0100
0000
,
0001
0010
0001
0000
0100
0000
0010
0000
0100
0000
0001
0000
1000
0000
0100
0000
,
0010
0001
0010
0000
0001
0000
0100
0000
0010
0000
0100
0000
0001
0000
1000
0000
,
0010
1000
0010
0000
1000
0000
0001
0000
1000
0000
0010
0000
1000
0000
0001
0000
,
0010
0001
0010
0000
0001
0000
0100
0000
0010
0000
0100
0000
0001
0000
0010
0000
,
0100
0010
0100
0000
0010
0000
0001
0000
1000
0000
0010
0000
0100
0000
0001
0000
,
1000
0001
1000
0001
1000
0001
0100
0010
0100
0000
0001
0000
0010
0000
0100
0000
,
1000
0001
0100
0010
1000
0000
0001
0000
0010
0000
0001
0000
1000
0000
0010
0000
,
1000
0001
0100
0001
1000
0000
0001
0000
0100
0000
0010
0000
0100
0000
0001
0000
,
0010
0100
1000
0001
0100
0000
0010
0000
0100
0000
0001
0000
0010
0000
0001
0000
,
1000
0010
1000
0001
1000
0000
0100
0000
1000
0000
0001
0000
0100
0000
0010
0000
,
0100
0001
0100
0001
0100
0000
0001
0000
0010
0000
0010
0000
0001
0000
1000
0000
,
0010
1000
0001
0100
0010
0000
0100
0000
0001
0000
1000
0000
0100
0000
0010
0000
,
0100
1000
0001
0100
0010
0000
0100
0000
0001
0000
0010
0000
0001
0000
1000
0000
,
0010
1000
0001
0100
0010
0000
0100
0000
0001
0000
0010
0000
0001
0000
1000
0000
,
0100
1000
0001
0100
0001
0000
1000
0000
0010
0000
0100
0000
0001
0000
0010
0000
,
0001
0100
0001
0100
0001
0000
0100
0000
0100
0000
0001
0000
1000
0000
0010
0000
,
0100
0001
1000
0100
0010
0000
0001
0000
0100
0000
0010
0000
0100
0000
0001
0000
,
1000
0010
1000
0010
1000
0000
0001
0000
0001
0000
0100
0000
0001
0000
1000
0000
,
0010
0100
0001
0100
0010
0000
0100
0000
0001
0000
0010
0000
0100
0000
1000
0000
,
0001
1000
0001
1000
0001
0000
0100
0000
0100
0000
0001
0000
1000
0000
0100
0000
,
0010
0001
0100
0010
0100
0000
0001
0000
0010
0000
0100
0000
1000
0000
0001
0000
,
1000
0010
1000
0001
1000
0000
0001
0000
0101
0000
0100
0000
0010
0000
0100
0001
,
0000
0001
0100
0000
0100
0001
0010
0100
1000
0000
0001
0000
1000
0000
0010
1000
,
0000
1000
0010
0000
0100
0001
1000
0100
0010
0000
0001
0000
0100
0000
0010
0100
,
0000
0100
0010
0000
1000
0001
0010
0001
1000
0000
0001
0000
0100
0000
0001
0010
,
0000
0010
0001
0000
1000
0010
1000
0010
1000
0000
0001
0000
1000
0000
0100
0010
,
0000
0010
0100
0000
1000
0001
0100
0010
0100
0000
0001
0000
0001
0000
0010
0001
,
0000
0001
0010
0000
0001
0100
0001
0100
0001
0000
1000
0000
1000
0000
0001
1000
,
0000
1000
0001
0000
0100
0010
0100
0001
0010
0000
0001
0000
1000
0000
0010
1000
,
0000
1000
0010
0000
1000
0001
1000
0001
1000
0000
0001
0000
0100
0000
0010
0100
,
0000
0100
0010
0000
0100
0001
0010
0100
1000
0000
0001
0000
0100
0000
0010
1000
,
0000
1000
0010
0000
1000
0100
1000
0001
1000
0000
0001
0000
0100
0000
0001
0100
,
0000
0100
0001
0000
1000
0001
1000
0001
1000
0000
0001
0000
0100
0000
0010
1000
,
0000
1000
0100
0000
1000
0010
1000
0100
1000
0000
0001
0000
0100
0000
0001
0010
,
0000
0010
0001
0000
0100
0010
0100
0010
0100
0000
0001
0000
0010
0000
0001
0010
,
0000
0010
0001
0000
1000
0001
1000
0001
1000
0000
0001
0000
0100
0000
0010
1000
,
0000
1000
0010
0000
0100
0001
1000
0001
1001
0000
0000
0000
0000
0000
0000
0000
,
0000
0000
0000
0000
,
0000
0000
0000
1111
0000
0000
0000
0000
;
