#TITLE:Final Audition 3 U.F;
#SUBTITLE:;
#ARTIST:Banya;
#TITLETRANSLIT:;
#SUBTITLETRANSLIT:;
#ARTISTTRANSLIT:;
#GENRE:;
#CREDIT:;
#MUSIC:Final Audition 3 U.F.ogg;
#BANNER:Final Audition 3 U.F.png;
#BACKGROUND:Final Audition 3 U.F-BG.png;
#CDTITLE:;
#SAMPLESTART:64.334;
#SAMPLELENGTH:13.745;
#SELECTABLE:YES;
#OFFSET:-0.024;
#BPMS:0.000=130.500;
#STOPS:;
#BGCHANGES:;
#FGCHANGES:;

//--------------- dance-single - Alex ----------------
#NOTES:
     dance-single:
     Alex:
     Beginner:
     1:
     0,0,0,0,0:
0000
0000
0000
0000
,
0000
0000
0000
0000
,
0000
0000
0000
0000
,
1000
0000
0000
0000
,
0010
0000
0000
0000
,
0100
0000
0000
0000
,
0100
0000
0000
0000
,
0001
0000
0000
0000
,
0010
0000
0000
0000
,
0001
0000
0000
0000
,
1000
0000
0000
0000
,
0010
0000
0000
0000
,
0100
0000
0000
0000
,
0001
0000
0000
0000
,
1001
0000
0000
0000
,
1000
0000
0000
0000
,
0001
0000
0000
0000
,
1000
0000
0000
0000
,
0001
0000
0000
0000
,
0100
0000
0100
0000
,
0100
0000
0000
0000
,
0010
0000
0010
0000
,
0010
0000
0000
0000
,
1001
0000
0000
0000
,
0010
0000
0000
0000
,
0100
0000
0000
0000
,
0001
0000
0000
0000
,
1000
0000
0000
0000
,
1000
0000
0000
0000
,
0010
0000
0000
0000
,
1000
0000
0000
0000
,
0001
0000
0000
0000
,
0001
0000
0000
0000
,
0100
0000
0100
0000
,
0100
0000
0000
0000
,
0110
0000
0000
0000
,
0001
0000
0000
0000
,
1000
0000
0000
0000
,
0010
0000
0000
0000
,
0001
0000
0000
0000
,
0001
0000
0000
0000
,
1000
0000
0000
0000
,
0100
0000
0000
0000
,
0010
0000
0000
0000
,
1000
0000
0000
0000
,
0001
0000
0000
0000
,
1000
0000
0000
0000
,
0010
0000
0000
0000
,
0100
0000
0000
0000
,
0100
0000
0000
0000
,
0001
0000
0000
0000
,
1001
0000
0000
0000
,
1000
0000
0000
0000
,
0010
0000
0010
0000
,
0010
0000
0000
0000
;

//--------------- dance-single - Alex ----------------
#NOTES:
     dance-single:
     Alex:
     Easy:
     4:
     0,0,0,0,0:
0000
0000
0000
0000
,
0000
0000
0000
0000
,
0000
0000
0000
0000
,
1000
0000
1000
1000
,
0001
0000
0001
0001
,
0100
0000
0100
0100
,
0010
0000
0010
0010
,
1001
0000
1001
0000
,
0110
0000
0110
0000
,
0100
0000
0001
0000
,
1000
0000
0001
0000
,
1000
1000
1000
0000
,
0001
0001
0001
0000
,
1000
0001
1000
0001
,
2002
0000
3003
0000
,
0010
0000
0010
0000
,
1000
0000
1000
0000
,
0001
0001
0001
0000
,
1000
1000
1000
0000
,
1001
0000
1001
0000
,
0220
0000
0330
0000
,
0110
0000
0110
0000
,
2002
0000
3003
0000
,
0001
0001
0001
0000
,
1000
0000
0100
0000
,
1000
1000
1000
0000
,
0010
0000
1000
0000
,
0001
0001
0001
0000
,
0100
0000
0010
0000
,
0100
0100
0100
0000
,
0001
0000
1000
0000
,
0001
0001
0001
0000
,
1000
0000
0100
0000
,
0110
0000
1001
0000
,
0220
0000
0330
0000
,
0010
0010
0010
0000
,
1000
1000
1000
0000
,
0010
0100
0010
0000
,
0100
0001
0100
0000
,
0001
0001
1000
0000
,
0010
0010
0100
0000
,
0001
0010
0001
0010
,
0001
1000
0001
1000
,
2002
0000
3003
0000
,
0001
1000
0001
0000
,
1000
0010
1000
0000
,
0001
0100
0001
0000
,
1000
0100
0010
0000
,
0001
1000
0100
0000
,
1000
1000
0001
0000
,
0100
0010
0100
0000
,
0001
0000
1000
0000
,
0001
0000
0001
0000
,
1000
1000
0001
0001
,
1001
0000
0000
0000
;

//--------------- dance-single - Alex ----------------
#NOTES:
     dance-single:
     Alex:
     Medium:
     6:
     0,0,0,0,0:
0000
0000
0000
0000
,
0000
0000
0000
0000
,
0000
0000
0000
0000
,
0001
0001
0100
0100
,
0001
0001
1000
1000
,
0010
0010
1000
1000
,
0100
0100
1000
1000
,
1001
0000
0001
0000
0100
0010
0100
0000
,
0001
0000
1000
0000
0100
1000
0100
0000
,
1000
0000
0010
0000
1000
0010
1000
0000
,
0001
0000
0010
0000
0001
0010
0001
0000
,
1000
0100
1000
0000
0001
0100
0001
0000
,
1000
0010
1000
0000
0001
0010
0001
0000
,
1000
0001
1000
0001
1000
0001
1000
0000
,
2002
0000
3003
0000
,
0001
0100
0001
0001
,
1000
0010
1000
1000
,
0001
0001
0001
1001
,
1000
1000
1000
1001
,
0001
0000
0000
0001
0000
0000
0001
0000
0000
0000
0100
0000
0100
0000
0000
0000
,
0010
1000
0100
1000
,
0001
0000
0000
0001
0000
0000
0001
0000
0000
0000
1000
0000
1000
0000
0000
0000
,
0001
0100
0220
0330
,
0010
0000
1000
0000
0010
1000
0010
0000
,
1000
0001
0100
0010
,
0100
0000
0001
0000
0010
0001
0010
0000
,
0001
1000
0100
1000
,
0001
0000
1000
0000
0010
1000
0010
0000
,
1000
0001
0010
0001
,
1000
0000
0100
0000
1000
0100
1000
0000
,
0010
0100
0001
0010
,
1001
0000
0001
0000
0100
0010
0100
0000
,
0001
1000
0100
0010
,
0011
0000
1100
0000
,
2002
0000
0000
0000
0000
3003
0000
0000
,
1001
0000
0001
0000
0100
0010
0100
0000
,
0001
0000
0010
0000
0001
0010
0001
0000
,
1000
0000
0100
0000
1000
0100
1000
0000
,
0010
0000
1000
0000
0001
1000
0001
0000
,
1000
0000
0010
0000
0100
0010
0100
0000
,
0001
0000
0010
0000
0001
0010
0001
0000
,
1000
0000
0100
0000
1000
0100
1000
0000
,
0001
0000
0100
0000
0010
0100
0010
0000
,
0220
0000
0330
0100
,
0100
0000
0001
0000
1000
0010
1000
0000
,
0001
0000
0010
0000
0001
0010
0001
0000
,
1000
0000
0100
0000
1000
0100
1000
0000
,
0010
0000
0100
0000
0001
0010
0001
0000
,
0100
0000
0001
0000
1000
0010
1000
0000
,
0001
0000
1000
0000
0001
0100
0010
0000
,
0100
0000
0001
0000
1000
0100
1000
0000
,
1000
1000
0001
1001
,
0001
1000
0001
0101
,
0100
0100
0001
1001
,
0220
0000
0330
0000
;

//--------------- dance-single - Alex ----------------
#NOTES:
     dance-single:
     Alex:
     Hard:
     8:
     0,0,0,0,0:
0000
0000
0000
0000
,
0000
0000
0000
0000
,
0000
0000
0000
0000
,
0001
0000
1000
0000
0010
0000
0000
1000
0000
0001
0100
0000
0001
0000
0000
0000
,
0010
0000
0100
0000
1000
0000
0000
0001
0000
1000
0010
0000
1000
0000
0000
0000
,
0001
0000
0010
0000
0001
0000
0000
1000
0000
0100
1000
0000
0100
0000
0000
0000
,
1000
0000
0010
0000
1000
0000
0000
0001
0000
1000
0001
0000
0100
0000
0000
0000
,
0001
0000
0010
0000
0100
0000
0000
1000
0000
0100
1000
0000
1100
0000
0000
0000
,
0100
0000
1000
0000
0010
0000
0000
1000
0000
0000
0001
0000
1001
0000
0000
0000
,
0001
0000
0100
0000
0010
0000
0000
0100
0000
0001
1000
0000
1001
0000
0000
0000
,
0001
0000
0010
0000
0001
0000
0000
1000
0000
0000
0010
0000
1010
0000
0000
0000
,
0010
0100
0001
0010
0100
1000
0001
0100
,
0010
1000
0100
0010
0100
1000
0001
0100
,
0010
0100
0001
0010
0100
1000
0001
1000
,
2002
0000
0000
0000
0000
3003
0000
0000
,
0001
1000
0010
1000
0002
0000
0003
0000
,
1000
0100
0010
0001
1000
0000
0001
0000
,
0100
0010
0100
0001
2000
0000
3000
0000
,
0001
0010
0100
1000
0001
0000
1000
0000
,
0010
0000
0000
0010
0000
0000
0010
0000
0000
0000
0100
0000
0001
0000
0000
0000
,
1000
0000
0100
0000
0010
0000
0000
0001
0000
0000
1000
0000
0001
0000
0000
0000
,
0100
0000
0000
0100
0000
0000
0100
0000
0000
0000
0001
0000
1000
0000
0000
0000
,
0001
0000
0010
0000
0001
0000
1000
0000
0010
0100
0010
0100
0010
0000
0000
0000
,
0100
0000
0001
0000
1000
0000
0000
0001
0000
1000
0010
0000
0010
0000
0000
0000
,
1000
0000
0001
0000
0010
0000
0000
0001
0000
0000
1000
0000
0001
0000
0000
0000
,
0100
0000
0001
0000
0100
0000
0000
0001
0000
1000
0100
0000
1000
0000
0000
0000
,
0010
0000
1000
0000
0001
0000
0000
1000
0000
0000
0001
0000
0100
0000
0000
0000
,
0001
0000
0010
0000
0001
0000
0000
1000
0000
0010
1000
0000
0010
0000
0000
0000
,
1000
0000
0100
0000
1000
0000
0000
0001
0000
0000
1000
0000
0001
0000
0000
0000
,
0100
0000
0010
0000
0100
0000
0000
0001
0000
1000
0001
0000
1000
0000
0000
0000
,
0001
0000
0010
0000
0001
0000
0000
1000
0000
0000
1000
0000
0001
0000
0000
0000
,
0001
0000
0100
0000
0010
0000
0000
0100
0000
0001
1000
0000
1001
0000
0000
0000
,
0001
0000
0010
0000
0001
0000
0000
1000
0000
0000
0010
0000
1010
0000
0000
0000
,
1000
0001
0100
0000
0001
1000
0010
0000
,
2002
0000
0000
0000
0000
3003
0000
0000
,
0001
0100
0001
0000
1000
0100
1000
0000
,
0010
0100
0001
0100
0010
0000
0110
0000
,
0010
1000
0001
0000
1000
0100
0010
0000
,
0001
1000
0001
0100
0001
0000
1001
0000
,
0001
1000
0010
1000
0001
1000
0100
0000
,
1000
0010
0100
0001
0010
0100
1000
0000
,
0001
0100
0010
0100
0001
0010
0100
1000
,
0001
1000
0010
0100
0001
1000
0100
0010
,
2002
0000
0000
3003
0001
0100
0010
0100
,
0001
1000
0100
0010
0001
1000
0010
0100
,
0001
0100
0001
0000
1000
0100
1000
0000
,
0010
0100
0001
0100
0010
0100
0001
0000
,
1001
0000
0110
0000
0010
1000
0100
0000
,
1000
0001
0100
0000
0001
0010
0001
0100
,
0001
1000
0010
0000
0010
1000
0001
0000
,
1000
0001
0100
0001
0010
0100
1100
0000
,
1000
0000
0100
0000
1000
0000
0000
0001
0000
1000
0001
0000
0100
0000
0000
0000
,
0010
0000
0100
0000
0010
0000
0000
1000
0000
0001
0010
0000
0010
0000
0000
0000
,
0001
0000
1000
0000
0010
0000
0000
1000
0000
0100
1000
0000
0100
0000
0000
0000
,
2002
0000
3003
0000
;

//--------------- dance-single - Alex ----------------
#NOTES:
     dance-single:
     Alex:
     Challenge:
     10:
     0,0,0,0,0:
0000
0000
0000
0000
,
0000
0000
0000
0000
,
0000
0000
0000
0000
,
0001
0000
0100
0000
0010
0000
0100
0001
0000
0001
1000
0010
0100
0000
0001
0010
,
0001
0000
1000
0000
0100
0000
0010
0001
0000
0001
1000
0010
0100
0000
0001
1000
,
0100
0000
0010
0000
0100
0000
1000
0001
0000
0001
0100
0010
0100
0000
0001
0010
,
0001
0000
1000
0000
0010
0000
1000
0010
0000
0010
1000
0001
0100
0000
0001
1000
,
0010
0000
1000
0000
1010
0000
0010
1000
0000
1000
0010
0100
0001
0000
0100
0000
,
0001
0000
1000
0000
1001
0000
0001
1000
0000
1000
0001
0100
0010
0000
0100
0000
,
0001
0000
1000
0000
1010
0000
0010
1000
0000
1000
0100
0010
0001
0000
0100
0000
,
0010
0000
1000
0000
1001
0000
0001
1000
0000
1000
0010
1000
0001
0000
1000
0000
,
0100
0010
0001
0100
0010
0100
0001
0010
0100
1000
0001
1000
0001
1000
0001
0100
,
0001
0100
0010
0100
0001
0010
0100
0010
0001
0100
0010
0100
0001
0010
0100
1000
,
0001
1000
0010
1000
0100
1000
0010
0100
0010
0100
0001
1000
0100
0010
0001
2000
,
0020
0000
0000
0000
0000
3030
0000
0000
,
0010
1000
0010
1000
0010
0000
1000
0000
0001
0100
0001
0100
0002
0000
0003
0000
,
1000
0100
0010
0001
1000
0000
0010
0000
0100
0000
0001
0000
0010
0000
0100
0000
,
1000
0000
1000
0100
0000
0100
1000
0000
1000
0010
0000
0010
0200
0000
0300
0000
,
0001
0000
0010
0001
0000
0001
0010
0000
0001
0100
0000
0100
0020
0000
0030
0000
,
1001
0000
0000
0110
0000
0000
0101
0000
0000
0000
1010
0000
1100
0000
0000
0000
,
1000
0000
0100
0000
0010
0000
0001
0100
0000
0100
0010
0100
0001
0000
1000
0000
,
1001
0000
0000
0011
0000
0000
0101
0000
0000
0000
0110
0000
1010
0000
0000
0000
,
0010
0000
1000
0000
0001
0000
1000
0000
0010
0100
0001
0010
0100
1000
0001
1000
,
0010
0000
0100
0000
0001
0000
0100
0001
0000
0001
1000
0010
0100
0000
0001
0010
,
0001
0000
1000
0000
0100
0000
1000
0100
0000
0100
1000
0000
0010
0000
1000
0000
,
0001
0000
0010
0000
0001
0000
0100
0001
0000
0100
0010
1000
0001
0000
1000
0100
,
0010
0000
0001
0000
0100
0000
0010
0100
0000
0100
0010
0000
1000
0000
0001
0000
,
0011
0000
0001
0000
1000
0000
0010
1000
0000
1000
0001
0100
0010
0000
0100
0000
,
0001
0000
0001
0000
0010
0000
0001
0100
0000
0100
0001
0000
1000
0000
0010
0000
,
1010
0000
0010
0000
1000
0001
1000
0000
1000
0010
0100
0001
0000
0000
0001
0000
,
1000
0000
0100
0000
0010
0000
0000
0001
1000
0000
1000
0000
0010
0000
0100
0000
,
0101
0000
0001
0000
1000
0000
0001
0010
0000
0010
0001
1000
0010
0000
0010
0000
,
1000
0000
0001
0000
1000
0000
0010
1000
0000
1000
0001
0000
0100
0000
0010
0000
,
0110
0000
0100
0000
0001
0000
0010
0001
0000
0001
1000
0000
0001
0000
0000
0000
,
2002
0000
0000
0000
0000
3003
0000
0000
,
0001
0010
0100
1000
0001
0010
0100
1000
0001
1000
0010
1000
0001
0010
0001
0100
,
0010
1000
0100
0010
0100
1000
0001
0100
0010
0100
0001
1000
0010
0100
0001
0010
,
0100
1000
0001
0010
0001
1000
0010
1000
0001
1000
0100
0010
0100
1000
0001
1000
,
0010
1000
0001
0010
0001
0100
0001
0010
0100
1000
0001
1000
0010
1000
0001
0010
,
0001
0100
0010
0100
0001
0010
0100
0010
0001
1000
0010
1000
0001
1000
0100
0010
,
0001
0100
0010
0100
0001
1000
0010
0100
0001
0010
0100
1000
0001
0100
0001
1000
,
0010
1000
0001
1000
0100
0010
0100
1000
0001
1000
0001
0100
0001
1000
0010
0100
,
0010
0100
0001
1000
0100
0010
0001
1000
0010
0100
0001
1000
0001
0010
0001
2000
,
0200
0000
0000
0000
0000
0000
0000
0000
3300
0000
1000
0100
1000
0100
1000
0010
,
1000
0001
1000
0010
1000
0001
0010
0100
1000
0001
0100
0001
0100
0010
0100
0001
,
0010
0100
1000
0001
1000
0010
1000
0100
0010
0001
0100
0010
0100
0001
0010
0100
,
1000
0001
1000
0001
0100
0001
0100
0010
0100
0001
0010
0100
1000
0001
1000
0010
,
0100
0001
0100
0001
0100
0010
0100
0001
0010
0100
1000
0001
1000
0010
1000
0001
,
1000
0010
0100
0001
0010
0100
1000
0001
1000
0010
1000
0001
0100
0001
0010
0100
,
1000
0010
1000
0001
1000
0100
0010
0100
1000
0001
0100
0010
0100
0001
0010
0001
,
1000
0010
0100
0001
1000
0100
0010
0001
1000
0010
0100
0001
1000
0010
0100
0000
,
0101
0000
0001
0000
1000
0000
0010
1000
0000
1000
0100
0010
0001
0000
0001
1000
,
0010
0000
0100
0000
0001
0000
0010
0001
0000
0001
1000
0100
1000
0000
0001
1000
,
0010
0000
0100
0000
0001
0000
0100
0001
0000
0001
0010
0001
1000
0000
0010
2000
,
0200
0000
3300
0000
;
