#TITLE:Final Audition 2;
#SUBTITLE:;
#ARTIST:Banya;
#TITLETRANSLIT:;
#SUBTITLETRANSLIT:;
#ARTISTTRANSLIT:;
#GENRE:;
#CREDIT:;
#MUSIC:Final Audition 2.ogg;
#BANNER:Final Audition 2.png;
#BACKGROUND:Final Audition 2-BG.png;
#CDTITLE:;
#SAMPLESTART:36.983;
#SAMPLELENGTH:13.362;
#SELECTABLE:YES;
#OFFSET:-0.147;
#BPMS:0.000=129.500
,15.000=130.000
,48.000=130.500
;
#STOPS:;
#BGCHANGES:;
#FGCHANGES:;

//--------------- dance-single - Alex ----------------
#NOTES:
     dance-single:
     Alex:
     Beginner:
     1:
     0,0,0,0,0:
0000
0000
0000
0000
,
0000
0000
0000
0000
,
0000
0000
0000
0000
,
0000
0000
0000
0100
,
0000
0000
0000
0001
,
0000
0000
0000
1000
,
0000
0000
0000
0001
,
0000
0000
0000
0100
,
0000
0000
0000
0010
,
0000
0000
0000
1000
,
0000
0000
0000
0001
,
0000
0000
0000
0000
,
1001
0000
0000
0000
,
0010
0000
0000
0000
,
0100
0000
0000
0000
,
0100
0000
0000
0000
,
0001
0000
0000
0000
,
0001
0000
0000
0000
,
1000
0000
0000
0000
,
0010
0000
0000
0000
,
1000
0000
1000
0000
,
1000
0000
0000
0000
,
0001
0000
0001
0000
,
0001
0000
0000
0000
,
0100
0000
0100
0000
,
0100
0000
0000
0000
,
0010
0000
0010
0000
,
0010
0000
0000
0000
,
1001
0000
0000
0000
,
0010
0000
0000
0000
,
0010
0000
0000
0000
,
0100
0000
0000
0000
,
0001
0000
0000
0000
,
0001
0000
0000
0000
,
1000
0000
0000
0000
,
1000
0000
0000
0000
,
0001
0000
0000
0000
,
0010
0000
0000
0000
,
0010
0000
0000
0000
,
0001
0000
0000
0000
,
0100
0000
0000
0000
,
0001
0000
0000
0000
,
1000
0000
0000
0000
,
0010
0000
0000
0000
,
1001
0000
0000
0000
,
0010
0000
0010
0000
,
0010
0000
0000
0000
,
0100
0000
0100
0000
,
0100
0000
0000
0000
,
0001
0000
0000
0000
,
1000
0000
0000
0000
,
0001
0000
0000
0000
;

//--------------- dance-single - Alex ----------------
#NOTES:
     dance-single:
     Alex:
     Easy:
     3:
     0,0,0,0,0:
0000
0000
0000
0000
,
0000
0000
0000
0000
,
0000
0000
0000
0000
,
0000
0000
0000
0110
,
0000
0010
0000
0010
,
0000
1000
1000
1000
,
0000
0001
0000
0100
,
0000
0010
0010
0010
,
0000
0100
0000
0001
,
0000
1000
1000
1000
,
0000
0001
0000
2002
,
0000
3003
0000
0000
,
0001
0000
0001
0000
,
1000
0000
1000
0000
,
0010
0000
0010
0000
,
0100
0000
0001
1000
,
0001
0000
1000
0000
,
1000
0000
0010
0000
,
0010
0000
1000
0000
,
0001
0000
1000
0000
,
0001
0100
0001
0100
,
0010
0000
0010
0000
,
1000
0100
1000
0100
,
1000
0000
1000
0000
,
0001
0001
1000
1000
,
0001
0000
1000
0000
,
0010
0010
0100
0100
,
0220
0000
0330
0000
,
1000
0000
1000
0000
,
0010
0000
0010
0000
,
0100
0000
0100
0000
,
0001
0000
0001
0000
,
1001
0000
1001
0000
,
0010
0010
0010
0010
,
0020
0000
0030
0000
,
0200
0000
0300
0000
,
0001
0000
0001
0000
,
1000
0000
1000
0000
,
0001
0000
0001
0000
,
0100
0000
0100
0000
,
0010
0000
0010
0000
,
1000
0000
1000
0000
,
0001
0000
0001
0000
,
1000
0001
1000
0001
,
1001
0000
0000
0000
,
0001
1000
0001
1000
,
1001
0000
0000
0000
,
0010
0010
0100
0100
,
0010
0000
1000
0000
,
0001
0000
1000
0000
,
0010
0000
0100
0000
,
1001
0000
0000
0000
;

//--------------- dance-single - Alex ----------------
#NOTES:
     dance-single:
     Alex:
     Medium:
     5:
     0,0,0,0,0:
0000
0000
0000
0000
,
0000
0000
0000
0000
,
0000
0000
0000
0000
,
0000
0000
0000
1000
,
0001
1000
1000
0001
,
0100
0010
0010
0100
,
0001
0010
0010
0001
,
1000
0010
0010
1000
,
0100
0010
0001
1000
,
0001
0100
0100
0010
,
1000
0001
0010
2002
,
0000
0000
3003
0000
,
0001
1000
0001
0001
,
0100
0010
0100
0100
,
0001
0010
0100
1000
,
0001
0100
0010
0010
,
1000
1000
0100
0010
,
0001
1000
0001
0010
,
0010
0001
0100
0010
,
0100
0001
1000
0100
,
0010
0001
0010
0001
0010
0001
0010
0000
,
1001
0000
1001
0000
,
0100
0010
0100
0010
0100
0010
0100
0000
,
0110
0000
0110
0000
,
1000
0001
1000
0001
1000
0001
1000
0000
,
1001
0000
1001
0000
,
0010
0100
0010
0100
0010
0100
0010
0000
,
0110
0000
1001
0000
,
0001
1000
0010
1000
,
0001
0100
0001
0000
0001
0100
0001
0000
,
1000
0100
1000
0010
,
1000
0010
1000
0000
0010
1000
0010
0000
,
1010
0000
1010
0000
,
0010
0010
1000
1000
,
0001
0000
1001
0000
,
0110
0000
1001
0000
,
0001
1000
0010
1000
,
0001
0010
0001
0100
,
0010
0100
0001
0010
,
0100
0010
0001
0100
,
0010
0010
1000
1000
,
0001
1000
0001
0001
,
0100
0010
0100
0001
,
0010
0100
1000
0001
,
2002
0000
3003
0000
,
0001
1000
0001
0000
1000
0001
1000
0000
,
2002
0000
3003
0000
,
0001
1000
0001
0000
1000
0001
1000
0000
,
1001
0000
0110
0000
,
1001
0000
0110
1001
,
0110
1001
0110
1001
,
0110
0000
0000
0000
;

//--------------- dance-single - Alex ----------------
#NOTES:
     dance-single:
     Alex:
     Hard:
     7:
     0,0,0,0,0:
0000
0000
0000
0000
,
0000
0000
0000
0000
,
0000
0000
0000
0000
,
0000
0000
0000
0000
0000
0000
0001
1000
,
0010
1000
0001
0000
0000
0000
1000
0100
,
0010
0001
1000
0000
0000
0000
0001
0100
,
0010
1000
0001
0000
0000
0000
1000
0001
,
0010
0001
1000
0000
0000
0000
0010
0100
,
0001
0100
0010
0000
0000
0000
1000
0100
,
0010
0100
1000
0000
0000
0000
0001
0100
,
0010
0000
0100
0001
1000
0000
2002
0000
,
0000
0000
0000
3003
0000
0000
0000
0000
,
0001
1000
0000
1000
0001
1000
0100
0000
,
0010
0001
0000
0001
0100
0010
0100
0000
,
0001
1000
0000
1000
0010
1000
0001
0000
,
1000
0100
0000
0100
1000
0010
0100
0000
,
0001
0010
0000
0010
0001
1000
0010
0000
,
1000
0001
0000
0001
1000
0010
0100
0000
,
0001
0010
0000
0010
0001
0100
0010
0000
,
1000
0100
0000
1000
0010
1000
0001
0000
,
1000
0000
0000
0001
0000
0000
0100
0000
0000
0010
0000
0000
1000
0000
0000
0000
,
0001
0010
0001
0000
1000
0100
1000
0000
,
0001
0000
0000
0001
0000
0000
0100
0000
0000
0100
0000
0000
0010
0000
0000
0000
,
1000
0100
1000
0000
0010
0100
0010
0000
,
0100
0000
0000
0001
0000
0000
1000
0000
0000
0001
0000
0000
0010
0000
0000
0000
,
0001
0100
0010
0000
0001
1000
0100
0000
,
1000
0000
0000
1000
0000
0000
0010
0000
0000
0010
0000
0000
1000
0000
0000
0000
,
0001
0100
0001
1000
1001
0000
0000
0000
,
0001
0100
0001
0000
0010
0001
0010
0000
,
0001
0100
0010
0100
0001
0100
0010
0000
,
1000
0100
0010
0000
0001
1000
0010
0000
,
1000
0001
0010
0100
1000
0001
0100
0010
,
1010
0000
0000
1100
0000
0000
0011
0000
,
1000
0000
0000
0001
0000
0000
0100
0000
0000
0010
0000
0000
1000
0000
0000
0000
,
0001
0100
0001
0000
1001
0000
0000
0000
,
1000
0010
1000
0000
1010
0000
0000
0000
,
0010
1000
0001
0000
0100
0001
1000
0001
,
0010
0100
1000
0001
0100
0010
1000
0001
,
1000
0001
1000
0000
0001
0010
0001
0100
,
0010
0100
0001
0010
0001
0000
0000
0000
,
1000
0100
1000
0000
0001
1000
0010
1000
,
0001
0010
0001
0100
0001
0010
0100
1000
,
0001
0100
0010
0000
1000
0100
0010
0000
,
0001
0100
0010
0100
0101
0000
0000
0000
,
0001
0000
0000
0001
0000
0000
0001
0000
0000
0000
1000
0000
1000
0000
0000
0000
,
0001
0100
0010
0000
0100
0001
1000
0000
,
0010
0000
0000
0010
0000
0000
0010
0000
0000
0000
0100
0000
0100
0000
0000
0000
,
0001
1000
0010
1000
0001
0000
1001
0000
,
0001
0000
0000
0100
0001
0000
0000
0000
1000
0000
0000
0010
1000
0000
0000
0000
,
0001
0000
0000
0100
0001
0000
0000
0000
1000
0000
0000
0010
1000
0000
0000
0000
,
0001
0000
0000
1000
0001
0000
0000
1000
0001
0000
0000
0001
0100
0000
0000
0001
,
0200
0000
0000
0000
,
0300
0000
0000
0000
;

//--------------- dance-single - Alex ----------------
#NOTES:
     dance-single:
     Alex:
     Challenge:
     9:
     0,0,0,0,0:
0000
0000
0000
0000
,
0000
0000
0000
0000
,
0000
0000
0000
0000
,
0000
0000
0000
0000
0000
0000
0001
1000
,
0010
0000
1000
0010
1000
0000
0001
0000
0100
0000
0000
0000
0001
0000
0010
0000
,
0100
0000
0010
0001
0010
0000
0001
0000
1000
0000
0000
0000
0001
0000
1000
0000
,
0010
0000
1000
0010
1000
0000
0001
0000
1000
0000
0000
0000
0001
0000
0100
0000
,
0010
0000
0100
0001
0100
0000
0001
0000
0010
0000
0000
0000
0001
0000
0100
0000
,
0010
0000
0100
0010
0100
0000
0001
0000
1000
0000
0000
0000
0100
0000
0010
0000
,
0001
0000
1000
0010
1000
0000
0001
0000
0010
0000
0000
0000
0001
0000
0100
0000
,
0010
0000
0100
0001
0100
0000
0001
0000
1000
0000
0010
1000
2002
0000
0000
0000
,
0000
0000
3003
0000
,
0001
0000
1000
0000
0010
0000
1000
0010
0000
0010
1000
0000
0001
0000
0000
0000
,
1000
0000
0100
0000
0010
0000
0001
0100
0000
0100
0001
0000
1000
0000
0000
0000
,
0001
0000
0010
0000
0001
0000
0100
0010
0000
0010
0100
0000
0001
0000
0000
0000
,
1000
0000
0100
0000
1000
0000
1000
0001
0000
0001
0010
0000
0001
0000
0000
0000
,
0100
0000
0010
0000
0100
0000
0001
0010
0000
0010
0001
0000
1000
0000
0000
0000
,
0001
0000
1000
0000
0001
0000
1000
0010
0000
0010
1000
0000
0001
0000
0000
0000
,
1000
0000
0100
0000
0010
0000
0001
0100
0000
0100
0010
0000
1000
0000
0000
0000
,
0001
0000
1000
0000
0010
0000
1000
0001
0000
0001
1000
0000
0001
0000
0000
0000
,
0100
0010
0000
0010
0100
0000
0100
0001
0000
0001
1000
0000
2002
0000
3003
0000
,
0001
0000
1000
0000
0010
0000
1000
0010
1000
0000
0001
0000
1000
0000
0000
0000
,
0001
0010
0000
0010
0001
0000
0001
0100
0000
0100
0010
0000
2002
0000
3003
0000
,
0001
0000
1000
0000
0100
0000
0010
0001
0100
0000
0010
0000
0100
0000
0000
0000
,
0001
0010
0000
0010
0001
0000
0001
1000
0000
1000
0010
0000
2020
0000
3030
0000
,
0010
0000
1000
0000
0001
0000
1000
0100
1000
0000
0001
0000
0100
0000
0000
0000
,
0010
0100
0000
0100
0010
0000
0010
1000
0000
1000
0001
0000
0022
0000
0033
0000
,
0001
0000
0100
0000
0010
0000
1000
0001
2002
0000
0000
3003
0000
0000
0000
0000
,
0001
1000
0010
1000
0001
1000
0010
0100
,
0001
0010
0001
0000
1000
0100
1000
0000
0001
0100
0001
0000
1000
0010
1000
0000
,
0001
0010
0100
0010
0001
0100
0010
0100
,
0001
0100
0001
0000
1000
0010
1000
0000
0100
0010
0100
0000
0010
0001
0010
0000
,
0001
1000
0000
1000
0001
0000
0001
0100
0000
0100
0010
0000
0100
0000
0001
0000
,
0010
0001
0000
0001
0010
0000
0001
0100
0000
0100
0001
0000
2020
0000
3030
0000
,
0001
0000
1000
0000
0010
0000
0100
0001
1000
0000
0100
0000
0010
0000
0000
0000
,
0001
0000
0100
0000
0010
0000
0100
0001
0100
0000
0001
0000
1000
0000
0000
0000
,
0001
0010
0100
1000
0001
0100
0010
0100
,
0001
1000
0100
0010
0001
1000
1010
0000
,
0010
0010
1000
1000
0001
0001
0010
0001
,
0100
0010
0100
0001
1000
0100
1100
0000
,
0100
1000
0010
1000
0001
0010
0100
0010
,
0001
0100
0010
0100
0001
0010
0011
0000
,
0001
0100
0001
1000
0010
0001
0010
1000
,
0001
0100
1000
0100
0001
1000
0010
0100
,
0101
0000
0000
0110
0000
0000
1010
0000
0000
0000
1100
0000
1100
0000
0000
0000
,
0100
0000
1000
0000
0010
0000
0100
0001
1000
0100
0010
0000
0011
0000
0000
0000
,
0101
0000
0000
0110
0000
0000
0101
0000
0000
0000
0011
0000
1001
0000
0000
0000
,
0001
0000
1000
0000
0010
0000
0100
0001
1000
0100
0010
0000
1001
0000
0000
0000
,
0001
1000
0000
1000
0001
0000
0100
0010
0000
0010
0100
0000
1001
0000
0000
0000
,
0001
0010
0000
0010
0001
0000
1000
0010
1000
0010
0000
1000
0010
0000
0010
0100
,
0001
0100
0000
0100
0001
0100
0000
0010
0100
0001
1000
0100
0010
0001
1000
0020
,
0200
0000
0000
0000
,
0330
0000
0000
0000
;
