#TITLE:Faster Z;
#SUBTITLE:;
#ARTIST:Yahpp;
#TITLETRANSLIT:;
#SUBTITLETRANSLIT:;
#ARTISTTRANSLIT:;
#GENRE:;
#CREDIT:;
#MUSIC:Faster Z.ogg;
#BANNER:Faster Z.png;
#BACKGROUND:Faster Z-BG.png;
#CDTITLE:;
#SAMPLESTART:24.423;
#SAMPLELENGTH:11.551;
#SELECTABLE:YES;
#OFFSET:-0.014;
#BPMS:0.000=162.000
,150.000=81.000
,164.000=162.000
;
#STOPS:34.000=1.122;
#BGCHANGES:;
#FGCHANGES:;

//--------------- dance-single - Alex ----------------
#NOTES:
     dance-single:
     Alex:
     Beginner:
     2:
     0,0,0,0,0:
0000
0000
0000
0000
,
0000
0000
0000
0000
,
0000
0000
0000
0000
,
0000
0000
0000
0000
,
0000
0000
0000
0000
,
0000
0000
0000
0000
,
0000
0000
0000
0000
,
0000
0000
0000
0000
,
0000
0000
1001
0010
,
0000
0000
0000
1000
,
0000
0000
0000
0001
,
0000
0000
0000
0100
,
0000
0100
0000
0100
,
0000
0000
0000
0001
,
0000
0000
0000
1000
,
0000
0000
0000
0010
,
0000
0000
0000
1000
,
0000
1000
0000
1000
,
0000
0000
0000
0001
,
0000
0000
0000
0100
,
0000
0100
0000
0100
,
0000
0000
0000
0010
,
0000
0000
0000
0001
,
0000
0000
0000
1000
,
0000
0000
0000
0100
,
0000
0000
0000
1000
,
0000
0000
0000
0001
,
0000
0000
0000
0010
,
0000
0000
0000
0001
,
0000
0000
0000
1000
,
0000
0000
0000
1001
,
0000
0000
0000
0001
,
0000
0000
0000
0100
,
0000
0000
0000
0001
,
0000
0000
0000
1001
,
0000
0000
0000
0010
,
0000
0000
0000
0010
,
0000
0000
0000
0000
,
0000
1000
0000
0001
0000
0000
0000
0000
,
0000
0000
0001
0000
,
0100
0000
0000
0000
,
1001
0000
0000
0000
,
0001
0000
0000
0000
,
1000
0000
0000
0000
,
0010
0000
0000
0000
,
0001
0000
0000
0000
,
0100
0000
0000
0000
,
1000
0000
0000
0000
,
0001
0000
0000
0000
,
1000
0000
0000
0000
,
1000
0000
0000
0000
,
0010
0000
0000
0000
,
0010
0000
0000
0000
,
1000
0000
0000
0000
,
0100
0000
0000
0000
,
1001
0000
0000
0000
,
0001
0000
0000
0000
,
1000
0000
1000
0000
,
1000
0000
0000
0000
,
1001
0000
0000
0000
,
0100
0000
0000
0000
,
0001
0000
0001
0000
,
0001
0000
0000
0000
,
1000
0000
0000
0000
,
0001
0000
0000
0000
,
0100
0000
0100
0000
;

//--------------- dance-single - Alex ----------------
#NOTES:
     dance-single:
     Alex:
     Easy:
     4:
     0,0,0,0,0:
0000
0000
0000
0000
,
0000
0000
1001
0000
,
0000
0000
0000
0000
,
0000
0110
0000
0000
0000
0000
0000
0000
,
0000
0000
0000
0000
,
0000
0000
0000
0000
0000
0000
0000
0000
0000
0000
0000
1001
0000
0000
0000
0000
,
0000
0000
0000
0000
,
0000
0000
0000
0000
,
0000
0000
1001
0001
,
0000
0001
0001
1000
,
0000
1000
1000
0010
,
0000
1000
0010
1000
,
0010
1000
0000
0001
,
0000
0100
0100
0010
,
0000
1000
0000
0001
,
0000
0100
0100
0010
,
0000
0010
0000
1000
,
0010
1000
0010
0200
,
0000
0310
0000
0001
,
0000
0001
0000
0100
,
0001
0100
0001
2000
,
0000
3001
0000
1001
,
0000
1001
0000
0220
,
0000
0330
0000
1100
,
0000
1100
0000
0022
,
0000
0033
0000
0101
,
0000
0101
0000
2020
,
0000
3030
0000
0110
,
0000
0110
0000
2002
,
0000
3003
0000
0001
,
0100
0001
0100
0000
,
0100
0010
0000
1000
,
1000
1000
0000
0001
,
0001
0001
0000
1000
,
0010
1000
0010
0000
,
0100
0001
0000
0100
,
0010
0100
0000
0001
,
1000
0001
0200
0000
,
0300
0001
0000
2000
0000
0000
0000
0000
,
0000
3000
0010
0100
,
0020
0000
0000
0000
0000
0030
0000
0000
,
1001
0000
0110
0000
,
0010
0010
0100
0100
,
0001
0000
1000
0000
,
1001
0000
0110
0000
,
0100
0001
0100
0001
,
1000
0000
0010
0000
,
1000
1000
1000
0000
,
0010
0010
0010
0000
,
0100
0001
0100
0001
,
1000
0001
1000
0000
,
0001
0001
0001
0000
,
1000
1000
1000
0000
,
0010
0100
0010
0100
,
0010
0000
0100
0000
,
0001
1000
0001
1000
,
0000
1000
0001
0000
,
0100
0100
0100
0000
,
0001
0001
0001
0000
,
1000
0010
1000
0010
,
0000
0010
1000
0000
,
0001
0001
0001
0000
,
1000
1000
1000
0000
,
0010
0000
0100
0000
,
0001
0000
1000
0001
,
1000
0010
0200
0000
,
0000
0300
0000
0000
;

//--------------- dance-single - Alex ----------------
#NOTES:
     dance-single:
     Alex:
     Medium:
     6:
     0,0,0,0,0:
0000
0000
0000
0000
,
0000
0000
2000
0000
,
0000
0000
0000
0000
0000
0000
0000
3000
,
0000
0002
0000
0000
0000
0000
0000
0000
,
0000
0000
0000
0000
,
0000
0000
0000
0000
0000
0000
0000
0003
0000
0000
0000
0200
0000
0000
0000
0000
,
0000
0000
0000
0000
,
0000
0000
0000
0000
,
0000
0000
0000
0300
0000
0000
0000
0000
1001
0000
0000
0000
0001
0000
0000
0000
,
0001
0100
0010
1000
,
1000
0001
0100
0110
,
1001
0000
0001
0100
0001
0000
1000
0010
,
1000
0001
0001
1000
,
0100
1000
1000
1010
,
0101
0000
0001
0100
0001
0000
0100
0010
,
0100
0010
1000
0001
,
0010
0000
0001
0100
0000
0100
0001
0000
,
1000
0000
0010
0000
1000
0000
0100
1000
,
0100
1000
0200
0000
0300
0000
1001
0000
,
0110
0000
0010
1000
0000
1000
0001
0000
,
0001
0000
1000
0000
1000
0000
0001
0010
,
0001
0010
0002
0000
0003
0000
0100
0000
,
0010
0000
1000
0000
0001
0000
0100
0010
,
0100
0010
0200
0000
0300
0000
0001
0000
,
1000
0000
0001
0000
0100
0000
0010
1000
,
0010
1000
0020
0000
0030
0000
1000
0000
,
0001
0000
1000
0000
0001
0000
0100
0001
,
0100
0001
0200
0000
0300
0000
0001
0000
,
0010
0000
0100
0000
0010
0000
0001
1000
,
0001
1000
0002
0000
0003
0000
1000
0000
,
0010
0000
1010
0000
1000
0010
0000
0010
,
1000
0100
1001
0001
,
0001
0100
0100
0010
,
1000
0000
0010
1000
0010
0000
1000
0000
,
0001
0000
1001
0000
0001
1000
0000
1000
,
0001
0100
0010
1000
,
0100
0010
0001
0100
,
0010
0000
0100
0010
0200
0000
0000
0000
,
0300
0001
0010
0100
2000
0000
0000
0000
,
0000
0000
3000
0000
0001
1000
0010
0100
,
0002
0000
0000
0000
0000
0003
0000
0000
,
1001
1001
0100
0010
,
1000
0001
0010
0001
,
0100
0100
0010
1000
,
1010
1010
1000
0100
,
1000
1000
0001
0100
,
0010
0100
0001
1000
,
0001
0000
0010
0000
0001
0100
0001
0000
,
0100
0000
0010
0000
1000
0010
1000
0000
,
0001
1000
0002
0003
1000
0010
2000
3000
,
0001
0100
0010
1000
,
0001
0000
0001
0000
0100
0001
0100
0000
,
0010
0000
0010
0000
1000
0100
1000
0000
,
0001
0010
0002
0003
0100
0010
0200
0300
,
0010
1000
0001
0100
,
0110
0000
1001
0000
0110
0000
0010
0100
,
0000
0100
0010
0000
1000
0000
1000
0000
,
0001
0100
0010
0100
,
0001
0000
0010
0000
0100
1000
0100
0000
,
1100
0000
0011
0000
1100
0000
1000
0100
,
0000
0100
1000
0000
0001
0000
0001
0000
,
0100
0010
0100
0001
,
1000
0000
0010
0000
1000
0010
1000
0000
,
0001
0100
0001
0000
1000
0100
1000
0000
,
0001
0010
0001
0000
0100
0000
0010
0000
,
1000
1001
0220
0000
,
0000
0330
0000
0000
;

//--------------- dance-single - Alex ----------------
#NOTES:
     dance-single:
     Alex:
     Hard:
     9:
     0,0,0,0,0:
0000
0000
0000
0000
,
0000
0000
0002
0000
,
0000
0000
0000
0000
0000
0000
0000
0003
,
0000
2000
0000
0000
0000
0000
3000
0020
,
0000
0000
0000
0000
,
0000
0000
0000
0000
0000
0000
0030
0000
0000
0000
0000
2002
0000
0000
0000
0000
,
0000
0000
0000
0000
,
0000
0000
0000
0000
,
0000
0000
3003
0000
1001
0000
0001
0010
,
0001
0100
0010
0100
0001
0000
1000
0010
,
1000
0001
1000
0010
1000
0000
1001
0000
,
0110
0000
0010
0100
0001
0100
0010
1000
,
0100
0010
0100
1000
0001
0100
0010
0100
,
0001
0100
0100
0001
1000
0000
0001
0010
,
0001
1000
0010
1000
0001
0100
0001
1000
,
0100
0010
0100
1000
0001
0000
0101
0000
,
1010
0000
0010
1000
0000
1000
0010
0100
,
0001
1000
0100
0010
0100
1000
0001
0100
,
0010
0100
0001
1000
0001
0000
1001
0000
,
0110
0000
0010
0100
0000
0100
0001
0010
,
0100
1000
0001
1000
0001
0001
0100
0010
,
0100
0001
1000
0010
0100
0000
0001
0010
,
0100
0010
0001
0100
0010
1000
0100
0010
,
0001
0100
0020
0000
0030
0100
0100
0001
,
1000
0010
1000
0001
1000
0100
0010
0100
,
1000
0001
0200
0000
0300
0001
0001
0010
,
0100
1000
0001
1000
0001
0100
0010
1000
,
0100
0010
0002
0000
0003
0100
0100
0001
,
0010
0100
0010
0001
0100
0010
1000
0010
,
0100
0001
2000
0000
3000
0000
1001
0000
,
0110
0000
0000
0000
1001
0000
0000
0000
0001
0000
1000
0000
0000
0000
1000
0001
,
1000
0001
0100
0010
0100
0000
0001
0010
,
0100
0010
0001
0100
0010
0100
0001
1000
,
0010
0100
0001
1000
0001
0000
0011
0000
,
0101
0000
0000
0000
0110
0000
0000
0000
0010
0000
1000
0000
0000
0000
0100
1000
,
0100
1000
0010
1000
0001
0000
0001
0100
,
0010
1000
0001
0010
0100
1000
0001
0100
,
0010
1000
0010
0100
0002
0000
0000
0000
,
0003
1000
0010
1000
0002
0000
0000
0000
,
0000
0000
0003
0000
1000
0001
0100
0010
,
0200
0000
0000
0300
,
1001
0000
0110
0000
0010
0100
0000
0100
,
0010
0000
1000
0000
0100
0000
0010
0000
0001
0000
0000
1000
0001
0000
0000
0001
,
0100
0000
0010
0100
0001
0100
0010
0000
,
1010
0000
1100
0000
1000
0100
0000
0100
,
0100
0000
1000
0000
0010
0000
1000
0000
0001
0000
0000
1000
0010
0000
0000
0100
,
0001
0000
0001
0100
0010
1000
0100
0000
,
1000
1000
0001
0100
0010
0100
0001
0010
,
0100
1000
0001
0100
0010
0100
0001
0001
,
1000
0100
0020
0030
0001
0100
0020
0030
,
1000
0001
0010
0001
0100
0010
0100
0001
,
0010
0100
0010
0001
0100
0010
0100
0001
,
1000
0010
1000
1000
0001
0100
0010
0010
,
0100
0001
0020
0030
0001
1000
0002
0003
,
1000
0010
0100
0001
1000
0010
0100
0000
,
0110
0000
1001
0000
0110
0000
0010
0100
,
0000
0000
0100
0001
0100
0000
0001
0000
1000
0000
0000
0000
0010
0000
0000
0000
,
1000
0010
1000
0001
1000
0010
0100
0001
,
0010
0100
1000
0001
0100
0010
0100
0000
,
0101
0000
1010
0000
1100
0000
1000
0010
,
0000
0000
0010
1000
0010
0000
1000
0000
0001
0000
0000
0000
1001
0000
0000
0000
,
0001
0100
0010
0100
0001
0010
0100
0010
,
0001
0100
0010
1000
0100
0010
0001
0001
,
1000
0010
1000
0001
0100
0010
0100
0001
,
0010
0100
1000
0001
0100
0010
1000
1000
,
0001
1001
0220
0000
,
0000
0330
0000
0000
;

//--------------- dance-single - Alex ----------------
#NOTES:
     dance-single:
     Alex:
     Challenge:
     12:
     0,0,0,0,0:
0000
0000
0002
0000
,
0203
0320
2030
0000
,
0000
0000
0000
0000
,
0000
3002
0000
0000
0000
0000
0000
0203
,
0000
0000
0000
0000
0000
0000
0000
0000
0000
0320
0000
0000
0000
2030
0000
0000
,
0000
0000
0000
0000
0000
0000
0000
0000
0000
3000
0000
2002
0000
0000
0000
0000
,
0000
0000
0000
0000
,
0000
0000
0000
0000
,
0000
0000
0000
3003
0000
0000
0000
0000
1111
0000
0000
0000
0001
0000
0100
0000
,
0010
0100
0001
1000
0010
0010
1000
0001
,
0010
0100
1000
0001
0100
0001
1001
0000
,
0110
0000
0010
0100
0001
0100
0010
0100
0001
0010
0100
1000
0001
1000
0010
1000
,
0001
1000
0100
0010
0001
0100
0010
0100
0001
1000
0010
1000
0001
0000
1000
0000
,
0010
1000
0001
0100
0001
0010
0100
1000
,
0001
0000
0100
0010
1000
0100
1000
0010
1000
0010
0100
0001
0100
0001
0010
0100
,
1000
0001
1000
0010
0100
0001
0010
0001
0100
0000
MMMM
0000
MM11
0000
0000
0000
,
M1M1
0000
0000
0000
1M1M
0000
11MM
0000
0000
0000
0100
1000
0010
1000
0100
0010
,
0100
1000
0001
1000
0010
1000
0001
1000
0010
0100
0001
1000
0001
0100
0001
0010
,
0100
1000
0010
0100
0001
0000
1000
0000
1M1M
0000
0000
0000
1MM1
0000
0000
0000
,
M11M
0000
0000
0000
MM11
0000
M1M1
0000
0000
0000
0100
0010
0100
0001
0010
0100
,
1000
0001
1000
0001
0100
0001
1000
0010
1000
0001
1000
0100
0010
0100
1000
0001
,
0100
0001
1000
0010
0100
0000
0010
0000
1000
0000
MMMM
0000
0001
0000
0100
0001
,
0100
0010
0100
0001
1000
0001
0100
0010
0100
0001
1000
0001
0100
0001
1000
0010
,
0100
0000
0001
0000
2000
0000
0000
0000
3000
0000
0001
0000
0100
0000
0010
1000
,
0100
0010
0001
0100
0020
0030
1000
0001
1000
0010
1000
0001
0100
0001
1000
0010
,
0100
0000
0001
0000
0020
0000
0000
0000
0030
0000
0001
0000
0100
0000
0010
0100
,
0001
0100
0010
1000
0001
1000
0010
1000
0001
1000
0010
0100
0001
0010
0100
1000
,
0001
0000
0100
0000
0020
0000
0000
0000
0030
0000
1000
0000
0001
0000
1000
0010
,
1000
0001
1000
0010
0200
0300
0001
0010
0100
1000
0001
0100
0001
1000
0010
0100
,
0001
1000
0200
0000
0300
0100
1MM1
0000
,
M11M
0000
0000
0000
1MM1
0000
0000
0000
M1M1
0000
1M1M
0000
0000
0000
0010
1000
,
0001
0000
1000
0000
1M1M
0000
0000
0000
M1M1
0000
0110
0000
0010
0100
0010
0100
,
0010
1000
0001
1000
0001
0100
0001
0010
0100
1000
0001
0100
0010
1000
0100
0010
,
0001
1000
0010
0100
0001
0000
1000
0000
0100
0000
1000
0000
1MM1
0000
0000
0000
,
MM11
0000
0000
0000
M1M1
0000
0000
0000
1M1M
0000
11MM
0000
0000
0000
1000
0001
,
0100
0000
0010
0000
M11M
0000
0000
0000
1MM1
0000
0110
0000
0010
0100
0001
0100
,
0010
1000
0100
0010
0001
1000
0010
0100
0001
0010
0100
1000
0001
0100
0001
1000
,
0010
1000
0001
1000
0010
0000
0100
0000
0202
0000
0000
0000
0000
0000
0000
0000
,
0303
0000
0001
1000
0010
1000
0001
0100
0220
0000
0000
0000
0000
0000
0000
0000
,
0000
0000
0000
0000
0000
0000
0330
0000
0001
0010
0100
1000
0001
0100
0010
1000
,
2200
0000
0000
3300
,
1001
0000
0001
1000
0010
0000
0010
1000
0100
0000
1000
0000
1000
0000
0001
0100
,
0001
0000
0100
0000
0110
0000
0101
0000
1010
0000
0000
0001
1000
0000
0000
1000
,
0002
0000
0000
0003
0100
0000
0010
0000
0010
0000
1000
0000
0001
0000
0000
0000
,
1001
0000
0001
0100
0001
0000
1000
0010
1000
0000
0001
0000
0100
0000
0010
0100
,
0010
0000
0100
0000
0101
0000
1001
0000
1010
0000
0000
1000
0001
0000
0000
0001
,
2000
0000
0000
3000
0100
0000
1000
0000
0010
0000
1000
0000
1001
0000
0000
0000
,
0001
0100
0010
0100
0001
0000
1000
0000
0001
0000
1000
0010
1000
0001
0100
0001
,
1000
0100
0010
0001
1000
0000
0001
0000
0100
0000
0010
0100
0001
0010
0100
1000
,
0001
1000
0010
0000
2020
0000
3030
0000
1000
0001
1000
0000
2002
0000
3003
0000
,
0001
0100
0010
0100
0001
0010
0100
1000
0001
1000
0010
1000
0001
0000
1001
0000
,
0001
0100
0010
0100
0001
0000
1000
0000
0010
0000
1000
0010
1000
0010
1000
0001
,
1000
0010
0100
0001
1000
0000
0001
0000
0100
0000
0010
0100
0001
0010
0100
1000
,
0001
1000
0001
0000
0202
0000
0303
0000
0010
1000
0010
0000
2020
0000
3030
0000
,
1000
0010
1000
0010
1000
0010
1000
0010
0100
0001
0100
0001
0100
0000
0001
0000
,
1MM1
0000
M11M
0000
1MM1
0000
MM11
M1M1
,
0000
0000
0100
0010
1000
0000
0001
0000
1MM1
0000
0000
0000
0101
0000
0110
0000
,
0010
1000
0100
0010
0001
1000
0010
0100
0001
0100
0010
0100
0001
0010
0001
1000
,
0100
1000
0001
0100
0001
1000
0010
1000
0001
0000
0100
0000
0010
0000
0100
0000
,
M1M1
0000
1M1M
0000
11MM
0000
MM11
M1M1
,
0000
0000
0100
0001
0010
0000
0001
0000
1MM1
0000
0000
0000
0110
0000
1001
0000
,
0001
0100
0010
0100
0001
0010
0100
1000
0001
1000
0100
1000
0010
1000
0010
0100
,
0001
0100
0001
1000
0001
0100
0010
0100
0001
0010
0100
1000
0001
1000
0010
1000
,
0100
0010
0001
0100
0010
0100
0001
0010
0100
1000
0001
1000
0010
1000
0001
0100
,
0010
0100
0001
0100
0001
1000
0010
1000
0001
0000
1000
0000
0010
0000
0010
0000
,
0200
0000
0000
0300
1001
0000
0000
0000
1111
0000
0000
0000
0000
0000
0000
0000
;
