#TITLE:Everybody;
#SUBTITLE:;
#ARTIST:Carlos T.Quila;
#TITLETRANSLIT:;
#SUBTITLETRANSLIT:;
#ARTISTTRANSLIT:;
#GENRE:;
#CREDIT:;
#MUSIC:Everybody.ogg;
#BANNER:Everybody.png;
#BACKGROUND:Everybody-BG.png;
#CDTITLE:;
#SAMPLESTART:12.428;
#SAMPLELENGTH:14.193;
#SELECTABLE:YES;
#OFFSET:0.049;
#BPMS:0.000=110.000;
#STOPS:;
#BGCHANGES:;
#FGCHANGES:;

//--------------- dance-single - Alex ----------------
#NOTES:
     dance-single:
     Alex:
     Beginner:
     1:
     0,0,0,0,0:
0000
0000
0000
0000
,
0000
0000
0000
0000
,
0000
0000
0000
0000
,
0000
0000
0000
0000
,
0000
0000
0000
0000
,
0000
0000
0000
1000
,
0000
0000
0000
0010
,
0000
0000
0000
1000
,
0000
0000
0000
0001
,
0000
0000
0000
0001
,
0000
0000
0000
0100
,
0000
0000
0000
0010
,
0000
0000
0000
0100
,
0000
0100
0000
0100
,
0000
0000
0000
0001
,
0000
0000
0000
1000
,
0000
0000
0000
0010
,
0000
0000
0000
1000
,
0000
0000
0000
0001
,
0000
0000
0000
0001
,
0000
0000
0000
0100
,
0000
0000
0000
1001
,
0000
0000
0000
0000
,
0000
0000
0000
1001
,
0000
0000
0000
0000
,
0000
0000
0000
1000
,
0000
0000
0000
1000
,
0000
0000
0000
0001
,
0000
0000
0000
0100
,
0000
0100
0000
0100
,
0000
0000
0000
0010
,
0000
0000
0000
1000
,
0000
0000
0000
0001
,
0000
0000
0000
1000
,
0000
0000
0000
0010
,
0000
0000
0000
1000
,
0000
0000
0000
0100
,
0000
0100
0000
0100
,
0000
0000
0000
1000
,
0000
0000
0000
0001
,
0000
0000
0000
1000
,
0000
0000
0000
0010
,
0000
0000
0000
0100
,
0000
0000
0000
0001
,
0000
0000
0000
1000
,
0000
0000
0000
1001
;

//--------------- dance-single - Alex ----------------
#NOTES:
     dance-single:
     Alex:
     Easy:
     3:
     0,0,0,0,0:
0000
0000
0000
0000
,
0000
0000
0000
0000
,
0000
0000
0000
0000
,
0000
0000
0000
0000
,
0000
0000
0000
0000
,
0000
0000
0000
0001
,
1000
0001
0000
1000
,
0100
1000
0000
0010
,
0100
0010
0000
1001
,
0000
1001
0000
0001
,
1000
0001
0000
1000
,
0010
1000
0000
0001
,
0100
0001
0000
1001
,
0000
1001
0000
0010
,
0000
0010
0000
1000
,
0000
0001
0000
1000
,
0000
0100
0000
1000
,
0000
1000
1000
1000
,
0000
0001
0000
1000
,
0000
0010
0000
0100
,
0000
0100
0000
0001
,
0000
1000
0001
0200
,
0300
0000
0000
0020
,
0030
0000
0000
2000
,
3000
0000
0000
0002
,
0003
0000
0000
0001
,
0000
0001
0000
1000
,
0000
1000
0000
0010
,
0000
0100
0000
2002
,
0000
3003
0000
0001
,
0001
0001
0000
1000
,
1000
1000
0000
0010
,
0010
0010
0000
0100
,
0100
0100
0000
0001
,
0001
0001
0000
0010
,
0010
0010
0000
1000
,
1000
1000
0000
2002
,
0000
3003
0000
0001
,
1000
0001
0000
1000
,
0100
1000
0000
0001
,
0010
0001
0000
1001
,
0000
1001
0000
0010
,
0010
0010
0000
1000
,
1000
1000
0000
0001
,
0000
0100
0000
0010
,
0000
0100
0100
0110
;

//--------------- dance-single - Alex ----------------
#NOTES:
     dance-single:
     Alex:
     Medium:
     6:
     0,0,0,0,0:
0000
0000
0000
0000
,
0000
0000
0000
0000
,
0000
0000
0000
0000
,
0000
0000
0000
0000
,
0000
0000
0000
0000
,
0000
0000
0000
0010
,
1000
0000
0001
0100
0001
0000
1000
0000
,
0100
0000
1000
0100
1000
0000
0010
0000
,
1000
0000
0001
0010
0001
0000
1000
0000
,
0010
0010
0100
0001
,
1000
0000
0001
0100
0001
0000
1000
0000
,
0001
0000
1000
0010
1000
0000
0001
0000
,
0010
0100
1000
0001
,
1000
0010
0100
0000
2002
3003
0001
0000
,
1000
0001
0001
1000
,
0010
1000
1000
0001
,
0010
0100
0100
0010
,
0001
0000
1000
0010
1000
0010
1000
0000
,
0001
0100
0010
0100
,
0001
1000
1000
0001
,
0010
0001
0001
1000
,
0001
0000
1000
0100
1000
0100
2000
0000
,
0000
0010
3010
0200
,
0000
0001
0301
0020
,
0000
0001
0031
2000
,
0000
0001
3001
0100
,
0010
0200
0300
0001
,
1000
0020
0030
1000
,
0001
0100
0001
1000
,
0010
0220
0330
0100
,
0001
0000
1000
0001
1000
0000
0001
0000
,
0010
0000
0001
0100
0001
0000
0100
0000
,
0100
0000
0010
1000
0010
0000
1000
0000
,
0001
0000
0010
0001
0010
0000
0001
0000
,
1000
0000
0010
1000
0010
0000
1000
0000
,
0001
0000
0100
0001
0100
0000
0001
0000
,
1000
0000
0100
1000
0100
0000
0010
0000
,
0001
2002
3003
0001
,
0001
0000
1000
0010
1000
0000
0001
0000
,
0100
0000
0010
0100
0010
0000
0100
0000
,
0100
0000
0001
0010
0001
0000
1000
0000
,
0100
0010
0100
1000
,
1000
0000
0001
0100
0001
0000
1000
0000
,
0010
0000
0100
0010
0100
0000
0001
0000
,
1000
0100
0010
0001
,
1000
0010
0100
0001
1000
0000
2002
0000
,
0000
0000
3003
0000
;

//--------------- dance-single - Alex ----------------
#NOTES:
     dance-single:
     Alex:
     Hard:
     8:
     0,0,0,0,0:
0000
0000
0000
0000
,
0000
0000
0000
0000
,
0000
0000
0000
0000
,
0000
0000
0000
0000
,
0000
0000
0000
0000
,
0000
0000
0000
0000
0000
0000
0001
1000
,
0010
0000
1000
0000
0001
0000
0100
0002
0000
0000
0003
0000
0010
0000
0100
0000
,
1000
0000
0010
0000
1000
0000
0100
2000
0000
0000
3000
0000
0001
0000
1000
0000
,
0010
0000
1000
0000
0001
0000
0100
0020
0000
0000
0030
0000
0100
0000
0001
0000
,
1000
0000
0010
1000
0000
0001
0000
0020
0000
0000
0030
0000
0001
0000
1000
0000
,
0001
0000
0100
0000
0001
0000
1000
0020
0000
0000
0030
0000
1000
0000
1000
0000
,
0001
0000
0001
0000
0100
0000
0010
0200
0000
0000
0300
0001
1000
0000
0001
0000
,
0010
0000
0001
0000
1000
0000
1000
0000
0010
0000
1000
0001
0000
0200
0000
0300
,
0001
1000
1001
0000
0110
0000
0010
0100
,
0001
0000
0100
0010
0000
0010
0100
0000
0001
0000
0010
0000
0100
0000
1000
0000
,
0001
0000
1000
0010
0000
0010
1000
0000
0001
0000
0010
0000
0001
0000
1000
0000
,
0001
0000
0100
0001
0000
0001
0100
0000
0010
0000
1000
0000
0100
0000
0010
0000
,
0100
0000
1000
0100
0000
0100
1000
0000
0001
0000
0100
0000
0010
0000
0010
0000
,
0100
0000
0100
0001
0000
0001
0100
0000
0010
0000
0010
0000
1000
0000
0001
0000
,
0010
0000
0001
1000
0000
1000
0001
0000
0100
0000
0001
0000
1000
0000
0010
0000
,
1000
0000
0001
0010
0000
0010
0001
0000
0100
0000
0100
0000
0001
0000
0010
0000
,
0100
0000
1000
0100
0000
0100
1000
0000
0001
0000
0100
0000
0210
0000
0000
0000
,
0010
0010
0310
2000
,
0001
0001
3001
0002
,
0010
0010
0013
0200
,
0010
0000
0010
0000
0310
0000
0001
1000
,
0001
0100
0001
1000
0010
0000
1000
0001
,
0010
0100
1000
0001
0100
0000
0001
1000
,
0100
0000
1000
0000
1000
0000
0001
0000
1000
0000
0010
0000
1000
0000
0000
0001
,
0000
0100
0001
0010
0110
0000
1000
0010
,
0100
0001
0010
0001
1000
1000
0001
0100
,
0010
0100
0001
0010
0100
0100
0010
0001
,
1000
0010
1000
0001
0010
0010
0001
1000
,
0100
1000
0001
0100
0010
0100
0001
0010
,
0100
1000
0001
1000
0010
1000
0001
0001
,
0010
0001
0100
0010
0100
0001
1000
0100
,
0010
0100
1000
0001
0100
0010
0110
0000
,
0101
0000
2002
0000
3003
0000
0001
1000
,
0001
0000
0100
0000
0010
0000
0100
0002
0000
0000
0003
0000
0100
0000
0100
0000
,
0010
0000
1000
0000
0001
0000
1000
0020
0000
0000
0030
0000
1000
0000
0001
0000
,
0010
0000
0100
0000
1000
0000
0001
0200
0000
0000
0300
0000
0001
0000
1000
0000
,
0010
0000
1000
0001
0000
1000
0000
0002
0000
0000
0003
0000
0100
0000
0001
0000
,
0010
0000
0001
0000
1000
0000
0010
2000
0000
0000
3000
0000
0001
0000
0001
0000
,
0100
0000
0001
0000
0010
0000
0100
0020
0000
0000
0030
0001
0100
0000
0010
0000
,
0100
0000
0001
0000
0010
0000
0100
0000
1000
0000
0001
1000
0000
0020
0000
0030
,
0100
0001
1001
0000
0110
0000
2002
0000
,
0000
0000
3003
0000
;
