#TITLE:Emperor;
#SUBTITLE:;
#ARTIST:Banya;
#TITLETRANSLIT:;
#SUBTITLETRANSLIT:;
#ARTISTTRANSLIT:;
#GENRE:;
#CREDIT:;
#MUSIC:Emperor.ogg;
#BANNER:Emperor.png;
#BACKGROUND:Emperor-BG.png;
#CDTITLE:;
#SAMPLESTART:32.083;
#SAMPLELENGTH:12.592;
#SELECTABLE:YES;
#OFFSET:-0.133;
#BPMS:0.000=150.000;
#STOPS:;
#BGCHANGES:;
#FGCHANGES:;

//--------------- dance-single - Alex ----------------
#NOTES:
     dance-single:
     Alex:
     Beginner:
     1:
     0,0,0,0,0:
0000
0000
0000
0000
,
0000
0000
0000
0000
,
0000
0000
0000
0000
,
0000
0000
0000
0000
,
1000
0000
0000
0000
,
0010
0000
0000
0000
,
1000
0000
0000
0000
,
0001
0000
0000
0000
,
1000
0000
0000
0000
,
0001
0000
0000
0000
,
0001
0000
0000
0000
,
0100
0000
0000
0000
,
0010
0000
0000
0000
,
1000
0000
0000
0000
,
0001
0000
0000
0000
,
0010
0000
0000
0000
,
0001
0000
0000
0000
,
0100
0000
0000
0000
,
0100
0000
0000
0000
,
0001
0000
0000
0000
,
1001
0000
0000
0000
,
1000
0000
1000
0000
,
1000
0000
0000
0000
,
0000
0000
0000
0000
,
1001
0000
0000
0000
,
0001
0000
0001
0000
,
0001
0000
0000
0000
,
0000
0000
0000
0000
,
0110
0000
0000
0000
,
0010
0000
0010
0000
,
0010
0000
0000
0000
,
0000
0000
0000
0000
,
0110
0000
0000
0000
,
0100
0000
0100
0000
,
0100
0000
0000
0000
,
0000
0000
0000
0000
,
0010
0000
0000
0000
,
0001
0000
0000
0000
,
0100
0000
0000
0000
,
1000
0000
0000
0000
,
0010
0000
0000
0000
,
1000
0000
0000
0000
,
0001
0000
0000
0000
,
1000
0000
0000
0000
,
1001
0000
0000
0000
,
0100
0000
0000
0000
,
0010
0000
0000
0000
,
1000
0000
0000
0000
,
0001
0000
0000
0000
,
0010
0000
0000
0000
,
0001
0000
0000
0000
,
0100
0000
0000
0000
,
0110
0000
0000
0000
,
0010
0000
0010
0000
,
0010
0000
0000
0000
,
0000
0000
0000
0000
,
1001
0000
0000
0000
,
0001
0000
0001
0000
,
0001
0000
0000
0000
,
0000
0000
0000
0000
,
0110
0000
0000
0000
,
0100
0000
0100
0000
,
0100
0000
0000
0000
,
0000
0000
0000
0000
,
1001
0000
0000
0000
,
1000
0000
1000
0000
,
1000
0000
0000
0000
,
0000
0000
0000
0000
,
1001
0000
0000
0000
;

//--------------- dance-single - Alex ----------------
#NOTES:
     dance-single:
     Alex:
     Easy:
     2:
     0,0,0,0,0:
0000
0000
0000
0000
,
0000
0000
0000
0000
,
0000
0000
0000
0000
,
0000
0000
0000
0000
,
0010
0000
0010
0000
,
0010
0000
0000
0000
,
1000
0000
0001
0000
,
1000
0000
0000
0000
,
0001
0000
0001
0000
,
0001
0000
0000
0000
,
1000
0000
0100
0000
,
2000
0000
3000
0000
,
0001
0000
1000
0000
,
0001
0000
0000
0000
,
0100
0000
0100
0000
,
0100
0000
0000
0000
,
0010
0000
0010
0000
,
1000
0000
0000
0000
,
0001
0000
0100
0000
,
0002
0000
0003
0000
,
1001
0000
1001
0000
,
0001
0000
1000
0000
,
0001
0002
0000
0003
,
1000
0000
0000
0000
,
1000
0000
0001
0000
,
1000
0000
0010
0010
,
0010
0020
0000
0000
,
0030
0000
0000
0000
,
0100
0000
0100
0000
,
0001
0000
1000
0000
,
0001
0002
0000
0003
,
1000
0000
0000
0000
,
0010
0000
0010
0000
,
1000
0000
0001
0001
,
0001
0002
0000
0000
,
0003
0000
0000
0000
,
1001
0000
0010
0000
,
0010
0000
0000
0000
,
1000
0000
1000
0000
,
1000
0000
0000
0000
,
0001
0000
1000
0000
,
0001
0000
0000
0000
,
0100
0000
0010
0000
,
0100
0000
0000
0000
,
0001
0000
0001
0000
,
1000
0000
1000
0000
,
0001
0000
1000
0000
,
0001
0000
0000
0000
,
1000
0000
0010
0000
,
1000
0000
1000
0000
,
0001
0001
0001
0000
,
1000
1000
1000
0000
,
0001
0000
0001
0000
,
1000
0000
0010
0000
,
0100
0200
0000
0300
,
0001
0000
0000
0000
,
1000
0000
0001
0000
,
1000
0000
0100
0100
,
0100
0200
0000
0000
,
0300
0000
0000
0000
,
1000
0000
1000
0000
,
0010
0000
0100
0000
,
0001
0002
0000
0003
,
1000
0000
0000
0000
,
0010
0000
1000
0000
,
0001
0001
1000
1000
,
0200
0000
0000
0000
,
0300
0000
0000
0000
,
1001
0000
0000
0000
;

//--------------- dance-single - Alex ----------------
#NOTES:
     dance-single:
     Alex:
     Medium:
     4:
     0,0,0,0,0:
0000
0000
0000
0000
,
0000
0000
0000
0000
,
0000
0000
0000
0000
,
0000
0000
0000
0000
,
0001
0100
0001
0000
,
1000
0010
1000
0000
,
0001
0010
0100
0000
,
1000
0001
0100
0000
,
0001
1000
0001
0000
,
1000
0100
1000
0000
,
0001
0001
1000
1000
,
1001
0000
1001
0000
,
0001
0100
0001
0000
,
0100
0010
0100
0000
,
0001
0010
0001
0000
,
1000
0100
0010
0000
,
0001
1000
0010
0000
,
1000
0001
0100
0000
,
0001
0010
0100
1000
,
0001
0001
1000
1000
,
2002
0000
0000
3003
,
0000
0001
1000
0010
,
0100
0002
0000
1000
,
0000
1000
0000
1003
,
0001
1000
0100
0100
,
0000
1000
0001
0100
,
0010
0020
0000
0100
,
0000
0100
0000
0130
,
0100
0100
0001
0001
,
1000
0010
1000
1000
,
0001
0002
0000
1000
,
0000
1000
0000
1003
,
0001
0001
1000
1000
,
0010
0100
0001
1000
,
0001
0000
1000
0000
,
2002
0000
3003
0000
,
0001
1000
0001
0000
,
1000
0010
1000
0000
,
0001
0001
0100
0000
,
0010
0010
0100
0000
,
1000
0100
1000
0000
,
0001
0010
0001
0000
,
1000
0010
1000
0001
,
0100
0100
1001
0000
,
0110
0000
0110
0000
,
0011
0000
0011
0000
,
1000
0000
0001
0000
,
1000
0000
1000
0000
,
0001
0100
0001
0000
,
1000
0010
1000
0000
,
0001
0010
0100
1000
,
0001
0000
1000
0001
,
2002
0000
0000
3003
,
0000
0001
1000
0010
,
0010
0200
0000
0010
,
0000
0010
0000
0310
,
0100
0100
0001
0001
,
0000
1000
0010
1000
,
0001
2000
0000
0001
,
0000
0001
0000
3001
,
0001
0001
0100
0100
,
0010
1000
0001
1000
,
0010
0020
0000
1000
,
0000
1000
0000
1030
,
1000
0001
1000
1000
,
0001
0100
0010
0100
,
1001
0000
1001
0000
,
0110
0000
0000
1001
,
1001
0000
0000
0000
;

//--------------- dance-single - Alex ----------------
#NOTES:
     dance-single:
     Alex:
     Hard:
     6:
     0,0,0,0,0:
0000
0000
0000
0000
,
0000
0000
0000
0000
,
0000
0000
0000
0000
,
0000
0000
0000
0000
,
0001
0000
1000
0000
0010
1000
0010
0000
,
1000
0000
0001
0000
0010
0001
0010
0000
,
0001
0000
0100
0000
0010
0100
0010
0000
,
0100
0000
0001
0000
1000
0100
1000
0000
,
0001
0000
1000
0000
0010
1000
0010
0000
,
1000
0000
0001
0000
0010
0001
0010
0000
,
0001
0000
1000
0000
0100
1000
0100
0000
,
1001
0110
2002
3003
,
0001
0000
1000
0000
0100
1000
0100
0000
,
1000
0000
0010
0000
1000
0010
1000
0000
,
0001
0000
0010
0000
0001
0010
0001
0000
,
0100
0010
0110
1001
,
0001
0100
0001
0000
1000
0000
0100
0000
,
0010
0001
1000
0000
0010
0000
1000
0000
,
0001
0100
0001
0000
1000
0100
1000
0000
,
0001
0100
0010
1000
,
0001
1000
0010
0000
0100
0000
2002
0000
,
3003
0000
0001
0000
0100
0001
0100
0000
,
0010
1000
0000
1000
,
0010
1000
0001
0000
0000
0000
1001
0000
,
0001
1000
0100
0000
0010
0000
0001
0000
,
0100
0000
0010
0100
0010
0000
1000
0000
,
0011
2200
3300
1010
,
0000
0000
0101
0000
0000
1001
1001
0000
,
0001
0100
0001
0000
1000
0000
0010
0000
,
1010
0100
0011
0100
,
1000
0001
0100
0000
0000
0000
0100
0000
,
0001
0010
0001
0000
0000
0000
1001
0000
,
0001
1000
0010
0000
0100
0000
0001
0000
,
0011
0011
1100
1100
,
1001
0000
0110
0000
,
2002
0000
3003
0000
,
0001
1000
0010
0000
0100
0000
0001
0000
,
1000
0100
0010
0000
0001
0000
0100
0000
,
0010
0100
0010
0000
0100
0000
0100
0000
,
0001
0001
1000
1000
,
0001
0010
0001
0000
1000
0100
1000
0000
,
0010
1000
0001
0100
0010
0000
0000
0000
,
0010
0100
0001
0001
,
1000
0100
1000
0100
1000
0100
1000
0000
,
1100
0000
1100
0000
,
0010
0001
0010
0000
0001
0100
0001
0000
,
0101
0000
1010
0000
,
1000
1000
0001
0001
,
0100
0010
0100
0010
0100
0000
0001
0000
,
1000
0100
1000
0100
1000
0000
0000
0000
,
0001
0010
0001
0010
0001
0000
0001
0000
,
0100
0010
0100
0010
0200
0000
0300
0000
,
0001
1000
0010
0000
0100
0000
0001
0000
,
0000
1000
1001
0110
,
0010
0100
0010
0000
0100
0000
0001
0000
,
0000
0000
0001
0100
0010
0000
0000
0000
,
0001
1000
0001
0000
1000
0000
0001
0000
,
0000
1001
0110
1001
,
0001
0100
0010
0000
0000
0000
1010
0000
,
0000
0000
1100
0000
0000
0011
0011
0000
,
0001
0100
0010
0000
0100
0000
0001
0000
,
1001
0100
1001
0010
,
1000
0010
1000
0000
0001
0000
0001
0000
,
0000
1001
0000
0110
,
0010
0100
0001
0000
0100
0000
0001
0000
,
0011
0100
1010
0100
,
1001
0000
0110
0000
,
0010
0100
0010
0100
0000
0000
0110
0000
,
2002
0000
0000
3003
;
