#TITLE:Elise;
#SUBTITLE:;
#ARTIST:DM Ashura;
#TITLETRANSLIT:;
#SUBTITLETRANSLIT:;
#ARTISTTRANSLIT:;
#GENRE:;
#CREDIT:;
#MUSIC:Elise.ogg;
#BANNER:Elise.png;
#BACKGROUND:Elise-BG.png;
#CDTITLE:;
#SAMPLESTART:90.451;
#SAMPLELENGTH:14.167;
#SELECTABLE:YES;
#OFFSET:-0.127;
#BPMS:0.000=162.000;
#STOPS:;
#BGCHANGES:;
#FGCHANGES:;

//--------------- dance-single - Alex ----------------
#NOTES:
     dance-single:
     Alex:
     Beginner:
     2:
     0,0,0,0,0:
0000
0000
0000
0000
,
0000
0000
0000
0000
,
0000
0000
0000
0000
,
0000
0000
0000
0000
,
0000
0000
0000
0000
,
0000
0000
0000
0000
,
0000
0000
0000
0000
,
0000
0000
0000
0000
,
0000
0000
0000
0000
,
0000
0000
0000
0001
,
0000
0001
0000
0001
,
0000
0000
1000
0000
,
0000
0010
0000
0010
,
0000
0100
0000
0100
,
0000
0000
0001
0000
,
0000
1000
0000
0000
,
0010
0000
0000
1000
,
0000
0000
0001
0000
,
0000
0100
0000
0000
,
0000
0000
0000
0000
,
0000
0100
0100
0100
,
0000
1001
0000
0000
,
0001
0000
0000
1000
,
0000
1000
0000
0010
,
0000
0010
0000
0000
,
1000
0000
0000
0001
,
0000
0000
0000
0000
,
0000
1001
0000
0001
,
0000
0001
0000
1000
,
0000
1000
1000
0000
,
0000
0010
0000
0010
,
0000
0100
0000
0100
,
0000
0001
0001
0000
,
0000
1000
1000
1000
,
1000
0000
0000
0010
,
0010
0010
0010
0000
,
0000
0000
0000
0000
,
0000
0000
0000
0000
,
0000
0001
0000
0001
,
0000
1001
0000
0000
,
0001
0000
0000
1000
,
0000
1000
0000
0001
,
0000
0001
0000
0000
,
0100
0000
0000
0110
,
0000
0000
0010
0000
,
0000
1000
0000
0000
,
1000
0000
0000
0100
,
0000
0000
0100
0000
,
0000
1000
0000
0000
,
0001
0000
0000
0100
,
0000
0000
0010
0000
,
0000
1000
0000
0000
,
0001
0000
0000
0001
,
0000
0000
0100
0000
,
0000
0100
0000
0000
,
0010
0000
0000
1001
,
0000
0000
0000
0110
,
0000
0000
0000
0000
,
0000
0000
0000
0000
,
0000
0000
0000
0000
,
0000
0000
0000
0000
,
0100
0100
0100
0100
,
0000
0000
0001
0000
,
0000
1000
0000
1000
,
0000
0001
0000
0001
,
0000
0000
1000
0000
,
0000
0100
0000
0000
,
0100
0000
0000
1000
,
0000
0000
0010
0000
,
0000
1000
0000
0000
,
0000
0001
0000
0000
,
0000
1000
0000
0001
,
0000
1001
0000
0000
,
0010
0000
0000
1000
,
0000
1000
0000
0001
,
0000
0100
0000
0000
,
0100
0000
0000
0110
;

//--------------- dance-single - Alex ----------------
#NOTES:
     dance-single:
     Alex:
     Easy:
     4:
     0,0,0,0,0:
0000
0000
0000
0000
,
0000
0000
0000
0000
,
0000
0000
0000
0000
,
0000
0000
0000
0000
,
0000
0000
0000
0000
,
0000
0000
0000
0000
,
0000
0000
0000
0000
,
0000
0000
0000
0000
,
0000
0000
0000
0000
,
0000
0000
0000
0001
,
1000
0001
1000
1001
,
0000
0001
0200
0300
,
0010
2000
3000
0001
,
0010
0001
0100
0110
,
0000
0010
2000
3000
,
0100
0020
0030
0001
,
2000
3000
0001
0200
,
0300
0010
0020
0030
,
1000
2000
3000
0000
,
0000
0000
0000
0000
,
0000
0010
0100
0010
,
0100
0110
0000
0100
,
0002
0003
1000
0200
,
0300
1000
0001
0100
,
0001
1001
0000
0001
,
0020
0030
0001
2000
,
0000
3000
1001
1001
,
1001
0001
1000
0010
,
1000
0001
0010
0001
,
0100
0010
0200
0000
,
0310
0010
1000
0001
,
0010
0001
1000
0010
,
1000
0001
0100
0000
,
0000
0110
1001
0110
,
1001
0000
0000
1001
,
0110
1001
0110
0000
,
0000
0000
0000
0000
,
0000
0000
0000
0000
,
0000
1000
0001
1000
,
0001
1001
0000
0001
,
0200
0300
0001
2000
,
3000
0001
0010
0100
,
1000
1100
0000
1000
,
0020
0030
1000
0002
,
0000
0003
0200
0000
,
0300
0020
0000
0030
,
2000
0000
3000
0002
,
0000
0003
0020
0000
,
0030
0002
0003
1000
,
1000
0001
0001
0200
,
0000
0300
0020
0000
,
0030
2000
0000
3000
,
0002
0000
0003
0200
,
0000
0300
0002
0000
,
0003
0020
0030
0001
,
0001
0100
0100
0110
,
0000
0000
0000
1001
,
0000
0000
0000
0020
,
0000
0000
2030
0000
,
3002
0000
0203
0000
,
0000
0000
0300
0000
,
0100
0100
0001
1001
,
0000
0001
0020
0030
,
0001
2000
3000
0001
,
0100
0010
1000
1100
,
0000
1000
0020
0030
,
1000
0002
0003
0100
,
0200
0300
0010
0020
,
0030
1000
0002
0003
,
0010
0200
0300
1000
,
1000
0001
0001
1000
,
1000
0001
0100
0010
,
1000
1001
0001
1000
,
1100
1000
0010
1010
,
0010
0010
1000
0001
,
0100
0110
0100
0001
,
1001
1000
0100
2200
,
0000
0000
0000
0000
,
0000
3300
0000
0000
;

//--------------- dance-single - Alex ----------------
#NOTES:
     dance-single:
     Alex:
     Medium:
     8:
     0,0,0,0,0:
0000
0000
0000
0000
,
0000
0000
0000
0000
,
0000
0000
0000
0000
,
0000
0000
0000
0000
,
0000
0000
0000
0000
,
0000
0000
0000
0000
,
0000
0000
0000
0000
,
0000
0000
0000
0000
,
0000
0000
0000
0000
,
0000
0000
0000
0000
0000
0000
0001
1000
,
0001
1000
0001
1000
0010
0100
0002
0000
,
0003
1000
0100
1000
0020
0000
0030
1000
,
0001
0010
0002
0000
0003
0000
1000
0010
,
1000
0010
1000
0001
0100
0001
2000
0000
,
3000
0001
0010
0001
0200
0000
0300
0001
,
1000
0100
0020
0000
0030
0001
1000
0001
,
0200
0000
0300
0010
0010
1000
0200
0000
,
0300
1000
0001
1000
0002
0000
0003
0100
,
0010
0100
0002
0000
0003
0000
0000
0000
,
0000
0000
0000
0000
,
0000
0000
1000
0001
0100
0001
1000
0010
,
0100
0001
2000
0000
3000
0001
0100
0010
,
0200
0000
0300
0001
1000
0100
0020
0000
,
0030
0000
0001
1000
0010
0100
0001
0010
,
0100
1000
0002
0000
0003
1000
0010
1000
,
0002
0000
0003
1000
0100
1000
0020
0000
,
0000
0030
1001
1001
,
1001
0000
0001
0100
0010
0100
0001
0100
,
0010
0000
1000
0100
0010
0001
1000
0001
,
0100
0010
0100
0001
1000
0000
0001
0000
,
0010
0001
0100
0010
0100
0001
1000
0000
,
0100
0010
0001
0100
0010
0100
0001
0010
,
0100
1000
0001
1000
0001
0000
0000
1000
,
0001
0100
0001
0000
1001
0000
0110
0000
,
1001
0000
0000
0001
1000
0010
1000
0000
,
1010
0110
0101
0000
,
0000
0000
0000
0000
,
0000
0000
0000
0000
0000
0000
1000
0010
,
1000
0010
1000
0001
0010
0100
1000
0001
,
0100
0010
2000
0000
3000
0001
0100
0001
,
0020
0000
0030
0001
1000
0010
0200
0000
,
0300
0000
0001
1000
0001
0100
0010
1000
,
0100
0010
0002
0000
0003
1000
0010
1000
,
0002
0000
0003
1000
0001
0100
0020
0000
,
0000
0030
0200
0300
,
0001
0000
2000
0000
3000
0000
1000
0010
,
2000
3000
0001
0002
,
0000
0003
0200
0300
,
0001
0010
0200
0000
0000
0000
0300
0000
,
1000
0001
0100
0020
,
0000
0030
0200
0300
,
0001
0000
2000
0000
3000
0000
0010
1000
,
0002
0003
0100
0200
,
0000
0300
0020
0030
,
1000
0001
0020
0000
0030
0000
0001
0100
,
0010
1000
0100
0010
0001
1000
1001
0000
,
0000
0000
0000
0110
,
0000
0000
0000
2000
,
0000
0000
3020
0000
,
0230
0000
0302
0000
,
0000
0000
0000
0003
,
1000
0001
0100
0010
1000
0001
0020
0000
,
0030
0001
1000
0010
0200
0000
0300
0001
,
1000
0100
0020
0000
0030
0000
0001
1000
,
0010
1000
0001
0010
0001
0100
0002
0000
,
0003
0100
0100
0001
2000
0000
3000
0100
,
1000
0010
0020
0000
0030
1000
0001
0100
,
0002
0000
0003
1000
0010
1000
0200
0000
,
0300
1000
0001
0010
0200
0000
0300
0010
,
0001
1000
0020
0000
0030
0000
0100
0000
,
0001
1000
0100
1000
,
0001
0000
1000
0001
0100
0001
1000
0010
,
0100
0001
2002
0000
3003
0100
0100
0001
,
0202
0000
0303
0010
1000
0100
2200
0000
,
3300
0000
1000
0010
1000
0010
0100
0001
,
0010
0100
2200
0000
3300
1000
0001
0100
,
0220
0000
0330
0100
0001
0010
2002
0000
,
0000
0000
0000
0000
,
0000
3003
0000
0000
;

//--------------- dance-single - Alex ----------------
#NOTES:
     dance-single:
     Alex:
     Hard:
     10:
     0,0,0,0,0:
0000
0000
0000
0000
,
0000
0000
0000
0000
,
0000
0000
0000
0000
,
0000
0000
0000
0000
,
0000
0000
0000
0000
,
0000
0000
0000
0000
,
0000
0000
0000
0000
,
0000
0000
0000
0000
,
0000
0000
0000
0000
,
0000
0000
0000
0000
0000
0000
0001
1000
,
0010
0100
0001
1000
0100
1000
2200
3300
,
1000
1000
0001
0100
0020
0030
0100
0100
,
0001
1000
0200
0300
1000
0001
0100
0100
,
0001
0001
1000
0010
0100
0001
0101
0000
,
0001
0100
0010
0100
0002
0003
1000
0100
,
0010
0001
2000
3000
0001
1000
0010
0100
,
0020
0030
1000
1000
0001
0010
0002
0003
,
1000
1000
0100
1000
0020
0030
1000
0001
,
0010
0001
2000
3000
0001
0001
1000
1000
,
0010
0010
0100
0001
0010
0100
1000
0001
,
0100
0000
0010
0000
1000
0100
1000
0100
1000
0100
1000
0100
1000
0100
1000
0100
,
1000
0100
1000
0001
0100
0000
0000
0000
0010
0000
0010
0000
0100
0000
0001
0000
,
2000
3000
0001
0001
0010
0001
0200
0300
,
0010
0100
0001
0001
1000
1000
0001
0010
,
0100
1000
0020
0030
0100
0001
0100
0010
,
2000
3000
0001
0010
0001
2000
0020
0000
,
0000
3030
1001
1001
,
1001
0000
0000
0000
0001
0000
0100
0000
0010
0000
0100
0001
0100
0000
0001
0000
,
1000
0000
0010
1000
0010
0000
1000
0000
0001
0000
0010
0001
0010
0000
0001
0000
,
1000
0000
0010
0100
0001
0000
1000
0000
0100
0000
0010
0001
0100
0000
0000
0000
,
0001
0100
0010
0100
0001
0000
1000
0001
1000
0000
0001
0000
0100
0000
0010
0100
,
0010
0000
0100
0000
0001
0000
1000
0100
1000
0000
0001
0000
0100
0000
0010
0100
,
0001
0010
0001
1000
1010
0000
0000
0010
,
0100
0001
1001
0000
0110
0000
1001
0000
,
0110
0000
0000
1000
0001
0010
0011
0000
,
1100
0011
0110
0000
,
0000
0000
0000
0000
,
0000
0000
0000
0001
1000
0010
0100
0001
,
1000
0000
0001
0000
0100
0010
0100
0010
0100
0010
0100
0010
0100
0010
0100
0010
,
0100
0010
0100
0001
1000
0000
0000
0000
0001
0000
0100
0000
0010
0000
0100
0000
,
0002
0003
1000
0100
1000
0010
2000
3000
,
0001
1000
0001
0001
0100
0100
0010
0100
,
0001
1000
0200
0300
1000
0010
1000
0001
,
0020
0030
0001
1000
0010
0100
0002
0000
,
0000
0000
0003
0000
0200
0000
0000
0300
,
0010
0000
0020
0000
0000
0030
1000
0001
,
0020
0000
0000
0030
0001
0000
0200
0000
,
0000
0000
0300
0000
0020
0000
0000
0030
,
1000
0100
2000
0000
0000
3000
0002
0003
,
0200
0300
0020
0030
2000
3000
0002
0000
,
0010
0013
2000
0010
,
0010
0000
3200
0000
0010
0000
0310
0010
,
0002
0010
0100
2003
,
0010
0010
3002
0100
,
0100
0103
0020
0000
0100
0030
0100
0001
,
1000
0001
0100
0010
1000
0001
1001
0000
,
0000
0000
0000
0110
,
0000
0000
0000
0000
0000
0000
0000
0000
0000
0000
0000
0000
0001
1000
0001
1000
,
0001
1000
0001
1000
0001
0100
0010
0100
0010
0100
0010
1000
0001
1000
0001
1000
,
0001
0100
0010
0100
0010
0100
0010
0100
0020
0000
0000
0000
0000
0000
0000
0000
,
0000
0000
0000
0030
,
1000
0001
1000
0001
1000
0001
1000
0001
1000
0001
1000
0001
0100
0000
0000
0000
,
0001
0001
1000
0010
2000
3000
0001
0010
,
0001
0100
0020
0030
0100
0001
0010
0010
,
0100
0100
1000
0001
0100
0010
2000
3000
,
0001
0010
0001
1000
0020
0030
1000
1000
,
0001
0100
0020
0030
1000
0100
0010
0100
,
2000
3000
0001
0100
0010
0100
0002
0003
,
0010
0001
1000
0001
0200
0300
0010
1000
,
0001
0010
0002
0003
1000
1000
0001
0001
,
0100
0100
0010
1000
0100
0010
0001
0100
,
0010
0000
0100
0000
0001
1000
0001
1000
0001
1000
0001
1000
0001
1000
0001
1000
,
0001
1000
0001
1000
0010
0000
0100
0001
0100
0000
0001
0000
1000
0000
0010
0000
,
0100
0000
0001
1000
0100
0000
0010
0000
0001
0000
0100
0000
0010
0000
0100
0001
,
0100
0000
0001
0000
1000
0001
1000
0000
0001
0100
0001
0000
1000
0010
1000
0000
,
0002
0000
0003
0000
1000
0100
1000
0100
1000
0010
1000
0010
1000
0010
0100
0010
,
0100
0001
0100
0001
0100
0001
1000
0001
1000
0010
0100
0002
2000
0000
0000
0000
,
0000
0000
0000
0000
,
0000
3003
0000
0000
;

//--------------- dance-single - Alex ----------------
#NOTES:
     dance-single:
     Alex:
     Challenge:
     12:
     0,0,0,0,0:
0000
0000
0000
0000
,
0000
0000
0000
0000
,
0000
0000
0000
0000
,
0000
0000
0000
0000
,
0000
0000
0000
0000
,
0000
0000
0000
0000
,
0000
0000
0000
0000
,
0000
0000
0000
0000
,
0000
0000
0000
0000
,
0000
0000
0000
0000
0000
0000
0001
1000
,
0010
0100
0001
1000
0100
1000
2200
3300
,
1000
0010
0100
0001
0202
0303
0001
1000
,
0010
1000
2002
3003
0001
0001
1000
1000
,
0010
0010
0100
0001
0010
0001
0202
0303
,
0001
0100
0010
1000
2200
3300
1000
0010
,
0100
0001
0202
0303
0001
1000
0010
0100
,
0101
0001
1000
0100
0001
0100
1100
1000
,
0010
1000
0001
0010
0011
1000
0010
0001
,
0010
1000
1001
0000
0001
0100
0010
0100
,
0001
0000
1000
0000
0001
0000
0001
0000
0100
0000
0100
0000
0010
1000
0010
1000
,
0010
1000
0010
1000
0010
1000
0010
1000
0001
0100
0010
1000
0100
0010
0001
0100
,
0010
0100
0001
1000
1001
0000
0001
0100
0010
0000
1000
0000
0100
0000
0010
0000
,
0011
0000
0001
0100
0010
0000
0100
0000
0001
0000
1000
0000
1001
0000
0001
0100
,
0001
0000
0100
0000
0010
0000
0100
0000
0001
0000
1000
0000
0100
0010
0001
0100
,
0010
1000
0001
0100
0101
0000
0001
0100
0001
0000
1000
0000
0010
0000
1000
0000
,
0001
0000
1000
0100
0010
0000
0001
0000
0100
0000
0010
0000
0220
0000
0000
0000
,
0000
0330
1001
0110
,
1001
0000
0000
0000
0001
0000
0100
0001
0100
0000
0010
1000
0010
0000
1000
0100
,
0010
0000
0001
0100
0010
0000
0100
0001
0010
0000
0001
1000
0010
0000
0100
0001
,
1000
0000
0001
0010
0001
0000
1000
0010
1000
0000
0001
0100
0020
0000
0030
0000
,
1000
0100
0010
0100
1000
0000
0001
0100
0001
0000
1000
0010
1000
0000
0010
0100
,
0010
0000
0100
0001
0100
0000
0001
0010
0100
0000
1000
0010
0100
0000
0001
0100
,
0010
0100
0001
1000
2002
0000
3003
0001
,
0100
0000
0010
0000
1010
0000
0010
1000
0200
0300
0010
0001
0200
0300
0010
1000
,
0002
0000
0000
0000
0003
0000
1000
0000
1000
0000
0010
0000
1010
0000
0010
1000
,
0002
0003
0010
0001
2000
0000
0000
3000
0001
0010
0100
1000
0001
0100
0010
1000
,
0100
0010
0001
0100
0020
0000
0000
0000
0000
0000
0100
0000
0130
0000
0001
0000
,
2000
0000
0000
0000
0000
0000
0010
0000
0100
0000
3010
0000
1000
0001
0010
0100
,
1000
0001
0100
0010
1000
0100
0010
0001
0100
0010
0100
0001
1000
0001
0100
0010
,
1000
0001
0010
0001
0101
0000
0001
0100
0010
0000
0100
0000
0001
0000
0010
0000
,
0110
0000
0010
0001
0100
0000
0010
0000
1000
0000
0100
0000
0110
0000
0010
0001
,
0100
0000
0001
0000
1000
0010
1000
0001
1000
0010
1000
0001
0100
0001
0010
0100
,
1000
0001
0100
0010
1010
0000
0010
1000
0100
0000
1000
0000
0010
0000
0110
0000
,
0010
0100
0001
0010
0100
0010
0001
0100
0010
0100
0001
1000
0020
0000
0000
0000
,
2030
3002
0203
0320
,
2030
3002
0023
0000
0032
0000
2003
3200
,
2300
0000
3020
0000
0230
0302
0203
0000
,
0320
2030
3002
0023
,
0032
0000
2003
0000
3020
0000
0000
0000
0230
0000
0000
0000
0301
1000
0001
0010
,
0100
1000
0001
0100
0010
1000
0100
0010
0001
0100
0010
1000
0002
0000
0000
0000
,
2003
3020
0230
0302
,
2003
3200
2300
0000
3020
0000
0230
0302
,
0203
0000
0320
0000
2030
3002
0023
0000
,
0032
0203
2300
3200
,
0302
0000
0023
0000
0230
0000
0000
0000
0320
0000
0000
0000
0031
0100
0010
0100
,
0001
0010
0100
1000
0001
0100
0010
1000
0001
0010
0001
1000
1010
0000
0000
0000
,
0000
0000
0000
0101
,
0000
0000
0000
0000
0000
0000
0000
0000
0000
0000
0000
0000
0001
0100
0010
1000
,
0100
0010
0100
1000
0001
0100
0010
0100
0001
0010
0100
1000
0001
0100
0010
1000
,
0001
0010
0100
1000
0001
0100
0010
2000
0002
0000
0000
0000
0000
0000
0000
0000
,
0000
0000
0000
3003
,
1000
0001
0100
0010
1000
0100
0010
0001
1000
0001
1000
0010
1010
0000
0010
1000
,
0001
0000
0100
0000
0001
0000
1000
0000
1001
0000
0001
0100
0001
0000
0100
0000
,
0010
0000
1000
0000
1100
0000
0100
1000
0100
0000
1000
0000
0010
1000
0010
1000
,
0001
0010
0100
1000
0010
0100
0001
0010
0100
0010
0001
0100
0101
0000
0001
0100
,
0001
0000
0100
0000
0010
0000
1000
0000
1001
0000
0001
1000
0010
0000
0100
0000
,
0001
0000
1000
0000
1100
0000
0100
1000
0100
0000
0010
0000
0001
0000
0100
0000
,
0110
0000
0010
0100
0001
0000
0010
0000
0001
0000
1000
0000
1001
0000
0001
1000
,
0001
0000
1000
0000
0010
0000
1000
0000
1001
0000
0001
0100
0010
0000
0100
0000
,
0001
0010
0011
0000
0001
0001
0100
0100
,
0010
0010
1000
0100
0001
0100
1000
0001
,
0010
0000
0100
0000
1000
0010
0100
0001
0010
0100
1000
0001
0100
0010
1000
0100
,
0010
0100
1100
0000
1000
0010
1000
0001
0010
0100
1000
0010
0100
0001
0010
0001
,
1000
0010
1000
0001
1000
0100
0010
0100
1000
0001
0100
0010
0100
0001
0010
0100
,
1000
0001
0100
0001
1000
0010
0100
0001
0010
0001
1000
0010
1000
0001
1000
0100
,
0010
0001
0100
0010
0100
0001
0010
0100
1000
0010
1000
0010
0100
0001
0100
0001
,
1000
0001
0010
0001
1000
0010
1000
0001
1000
0100
0010
0002
0200
0000
0000
0000
,
0000
0000
0000
0000
,
0000
0303
0000
0000
;
