#TITLE:Dr. M;
#SUBTITLE:;
#ARTIST:Banya;
#TITLETRANSLIT:;
#SUBTITLETRANSLIT:;
#ARTISTTRANSLIT:;
#GENRE:;
#CREDIT:;
#MUSIC:Dr. M.ogg;
#BANNER:Dr. M.png;
#BACKGROUND:Dr. M-BG.png;
#CDTITLE:;
#SAMPLESTART:6.399;
#SAMPLELENGTH:14.957;
#SELECTABLE:YES;
#OFFSET:-0.037;
#BPMS:0.000=145.000;
#STOPS:;
#BGCHANGES:;
#FGCHANGES:;

//--------------- dance-single - Alex ----------------
#NOTES:
     dance-single:
     Alex:
     Beginner:
     1:
     0,0,0,0,0:
0000
0000
0000
0000
,
0000
0000
0000
0000
,
0000
0000
0000
0000
,
0000
0000
0000
0000
,
0010
0000
0000
0000
,
1000
0000
0000
0000
,
1000
0000
0000
0000
,
0010
0000
0000
0000
,
0001
0000
0000
0000
,
0100
0000
0000
0000
,
1000
0000
0000
0000
,
0001
0000
0001
0000
,
0001
0000
0001
0000
,
0000
0000
1000
0000
,
0000
0000
0010
0000
,
0000
0000
1000
0000
,
0000
0000
0001
0000
,
0100
0000
0000
0000
,
0010
0000
0000
0000
,
1000
0000
0000
0000
,
0001
0000
0000
0000
,
0100
0000
0000
0000
,
0010
0000
0010
0000
,
0010
0000
0010
0000
,
0010
0000
0000
0000
,
0000
0000
0000
0000
,
1000
0000
0000
0000
,
0001
0000
0000
0000
,
1000
0000
0000
0000
,
0100
0000
0000
0000
,
1000
0000
0000
0000
,
0001
0000
0000
0000
,
1000
0000
1000
0000
,
1000
0000
0000
0000
,
0001
0000
0000
0000
,
1000
0000
0000
0000
,
0001
0000
0000
0000
,
0100
0000
0000
0000
,
0010
0000
0000
0000
,
0010
0000
0000
0000
,
1000
0000
0000
0000
,
0100
0000
0000
0000
,
1000
0000
1000
0000
,
1000
0000
1000
0000
,
0001
0000
0001
0000
,
0001
0000
0001
0000
,
1000
0000
0000
0000
,
0010
0000
0000
0000
,
1000
0000
0000
0000
,
0001
0000
0000
0000
,
0100
0000
0000
0000
,
0010
0000
0000
0000
,
1000
0000
0000
0000
,
0001
0000
0000
0000
,
0010
0000
0000
0000
,
0001
0000
0000
0000
,
0100
0000
0000
0000
,
0010
0000
0010
0000
,
0010
0000
0000
0000
;

//--------------- dance-single - Alex ----------------
#NOTES:
     dance-single:
     Alex:
     Easy:
     3:
     0,0,0,0,0:
0000
0000
0000
0000
,
0000
0000
0000
0000
,
0000
0000
0000
0000
,
0000
0000
0000
0000
,
0010
0000
1000
0000
,
0001
0000
0001
0000
,
1000
0000
0100
0000
,
1000
0000
0001
0000
,
1000
1000
1000
0000
,
0001
0001
0001
0000
,
1000
0000
0001
0000
,
1000
1000
0001
0001
,
1000
0001
1001
0000
,
1001
0000
0010
0000
,
0010
0000
0100
0000
,
0100
0000
0001
0000
,
0001
0000
1000
1000
,
1000
0000
0001
0000
,
0010
0000
0001
0000
,
0100
0000
0010
0000
,
0100
0000
0100
0000
,
0010
0000
0010
0000
,
1000
1000
1000
0000
,
0001
0001
0001
0000
,
1000
0001
1000
0001
,
1001
0000
0000
0000
,
0010
0000
0010
0000
,
1000
0000
0001
0000
,
1000
0000
1000
0000
,
0001
0000
0100
0000
,
0010
0010
0010
0000
,
0100
0100
0100
0000
,
0001
0000
1000
0000
,
0001
1000
0001
0000
,
1000
1000
1000
1000
,
1000
0000
0000
0000
,
0001
0001
0001
0001
,
0001
0000
0100
0000
,
0010
0000
0010
0000
,
1000
0000
0001
0000
,
1000
0000
0010
0000
,
0110
0000
0000
0000
,
0100
0100
0100
0000
,
0001
0001
0001
0000
,
1000
1000
1000
0000
,
0001
0001
0001
0000
,
0010
0000
0001
0000
,
0100
0000
0100
0000
,
0001
0000
1000
0000
,
1001
0000
0000
0000
,
0001
0000
0001
0000
,
1000
0000
1000
0000
,
0010
0000
0010
0000
,
1000
0000
1000
0000
,
0001
0001
0001
0000
,
1000
1000
1000
0000
,
0001
0000
0100
0000
,
0010
0000
0000
0000
,
1001
0000
0000
0000
;

//--------------- dance-single - Alex ----------------
#NOTES:
     dance-single:
     Alex:
     Medium:
     5:
     0,0,0,0,0:
0000
0000
0000
0000
,
0000
0000
0000
0000
,
0000
0000
0000
0000
,
0000
0000
0000
0000
,
1000
0001
1000
0000
,
0001
0100
0001
0000
,
0100
0010
0100
0000
,
0001
1000
0001
0000
,
1000
0010
1000
0000
,
0001
0010
0100
1000
,
0001
0000
1000
0000
,
0001
0001
1000
1000
,
0001
0001
1000
0001
,
1000
0000
0001
0100
,
0001
0000
0010
0001
,
0010
0000
0001
1000
,
0010
0000
0100
0001
,
1000
1000
0001
0001
,
0100
0100
0010
0010
,
1000
1000
0100
0100
,
1000
0001
0010
0001
,
0100
0010
0100
0000
,
0001
1000
0100
0100
,
1000
0001
1000
0010
,
0010
0100
0001
1000
,
1001
0000
0000
0000
,
0001
1000
0001
0000
,
1000
0001
1000
0000
,
0010
0100
0010
0000
,
0100
0010
0100
0000
,
0001
0010
0100
0010
,
0001
0100
0010
0100
,
0001
1000
0100
0010
,
0001
1000
0010
0000
,
0100
0001
1000
0010
,
1001
0000
0000
0000
,
0001
1000
0100
1000
,
0001
0100
0000
0001
,
1000
0000
0001
1000
,
0001
0000
1000
0010
,
1000
0001
0100
0100
,
1001
0000
0000
0000
,
0001
0010
0100
1000
,
0001
0100
0010
0100
,
0001
1000
0100
1000
,
0001
1000
0010
0010
,
1000
0001
0010
0100
,
0010
0001
0100
0010
,
0100
0001
0010
0100
,
1000
0001
1000
0000
,
0010
0100
0010
0000
,
1000
0001
0010
0000
,
0001
1000
0100
0000
,
1000
0100
1000
0000
,
0001
1000
0001
0000
,
1000
0001
1000
0010
,
0100
0000
0001
0000
,
1001
0000
0110
0000
,
1001
0000
0000
0000
;

//--------------- dance-single - Alex ----------------
#NOTES:
     dance-single:
     Alex:
     Hard:
     7:
     0,0,0,0,0:
0000
0000
0000
0000
,
0000
0000
0000
0000
,
0000
0000
0000
0000
,
0000
0000
0000
0000
0000
0000
0000
1000
,
0001
0100
0010
0100
0001
1000
0000
0001
,
0010
0100
1000
0001
0100
0000
0000
0010
,
1000
0100
0010
0100
1000
0001
0000
1000
,
0010
1000
0001
0010
0001
0000
0000
0100
,
0001
0100
0010
0100
0001
0100
0000
0010
,
1000
0100
0010
0001
1000
0010
0100
0001
,
1000
0000
0001
0000
,
1000
1001
0001
1001
,
1000
0000
1001
0000
0001
1000
0001
1000
,
0001
0000
0000
1000
0010
1000
0001
1000
,
0100
1000
0000
0000
0001
0100
0010
0100
,
0001
0000
0000
1000
0100
0010
0001
1000
,
0010
0100
0000
0000
0001
0010
0100
1000
,
0001
0001
1000
1000
,
0010
0010
0100
0100
,
0001
0010
0100
1000
,
1100
1000
0010
0100
,
0001
1000
1001
0000
,
0001
0100
0010
0100
0001
0000
0000
0000
,
1000
0010
0100
0010
1000
0000
0000
0000
,
0001
0010
0100
0000
1000
0010
0100
0000
,
1001
0000
0000
0000
0000
0000
0000
0001
,
1000
0010
1000
0001
0100
0010
0000
0000
,
1000
0100
0010
0001
1000
0000
0000
0001
,
0100
0010
0100
0001
1000
0001
0000
0000
,
1000
0010
1000
0001
1000
0000
0000
0000
,
0001
0010
0100
1000
0001
0010
0001
1000
,
0010
0100
0001
1000
0100
0010
0001
0100
,
0010
0100
0001
0010
0001
1000
0100
0010
,
0100
1000
0001
0100
0010
0000
0000
0000
,
1000
0001
0010
0001
1000
0010
0100
0001
,
0100
0000
0000
0000
,
0001
1000
0100
1000
0001
1000
0001
0100
,
0010
0000
0000
0100
0000
0000
0010
0000
,
0100
0001
1000
0100
,
0010
0100
1000
1000
,
0001
0100
0010
0100
,
1001
0000
0000
0000
,
0001
1000
0010
1000
0001
0010
0001
1000
,
0100
0010
0001
1000
0010
0100
0001
0010
,
0100
1000
0001
0100
0001
1000
0010
0100
,
0001
1000
0001
1000
0100
1000
0100
1000
,
0010
1000
0010
0000
1000
0001
1000
0000
,
0001
0010
0001
0000
0100
0010
0100
0000
,
0001
0010
0100
0010
0001
0100
0010
0100
,
0001
1000
0010
0100
0001
0000
0000
1000
,
0100
0010
0001
1000
0010
1000
0000
0000
,
0001
0010
0001
0100
0001
0000
0000
0100
,
0010
0100
0001
0100
0010
0100
0000
0001
,
1000
0001
1000
0100
1000
0000
0000
0001
,
1000
0010
0100
0001
1000
0100
0000
0010
,
0001
0100
0010
0100
0001
0010
0100
1000
,
0001
0000
1000
0000
,
1001
0110
1001
0110
,
1001
0000
0000
0000
;

//--------------- dance-single - Alex ----------------
#NOTES:
     dance-single:
     Alex:
     Challenge:
     9:
     0,0,0,0,0:
0000
0000
0000
0000
,
0000
0000
0000
0000
,
0000
0000
0000
0000
,
0000
0000
0000
0000
0000
0000
0000
0000
0000
0000
0000
0000
0000
0000
0001
1000
,
0010
0000
0100
0001
1000
0000
0100
0010
0001
0000
1001
0000
0000
0000
0001
0100
,
0010
0000
1000
0010
0100
0000
0001
0010
0100
0000
0010
0000
0001
0000
0100
0010
,
0100
0000
0001
0010
0001
0000
1000
0100
1000
0000
1001
0000
0000
0000
0001
1000
,
0010
0000
0100
0001
1000
0000
0100
0010
0001
0000
0100
0000
0010
0000
1000
0010
,
0100
0000
0001
0000
0010
0000
0100
0000
1000
0000
0001
0000
0100
0000
0010
1000
,
0100
0000
0010
0000
0100
0000
1000
0000
0001
0000
0100
0000
0010
0100
0001
0100
,
0010
0000
0100
0000
,
0011
0101
0110
1010
,
1100
0000
0110
0000
0011
1001
0101
1001
,
1010
0000
0000
0000
0000
0000
0010
1000
0001
0000
1000
0001
0100
0000
0001
0010
,
0100
0000
0010
0000
0000
0000
0001
0100
0010
0000
0100
0001
0010
0000
0001
1000
,
0100
0000
1000
0000
1000
0000
0010
1000
0100
0000
1000
0010
0100
0000
0001
0010
,
0100
0000
0010
0000
0000
0000
0001
0100
0010
0000
0100
0001
1000
0000
0001
1000
,
0010
0100
0001
0010
0100
0010
0001
0100
,
1000
0100
0001
1000
0010
0001
0010
1000
,
0001
0010
0001
1000
0010
1000
0001
1000
,
1010
0010
0100
0001
0010
0100
1100
1000
,
1010
0000
0010
0000
0110
0000
0100
0000
0101
0000
0001
0000
1000
0000
0010
0100
,
0001
0010
0001
0100
0001
0001
1000
1000
,
0001
0100
0010
0100
0001
0010
0100
1000
,
1000
0010
1000
0001
0100
0010
1000
0001
,
1001
0000
0000
0000
0110
0000
0000
0000
1001
0000
0000
0000
0000
0000
0001
1000
,
0001
0000
1000
0001
1000
0000
0001
0100
0001
0000
0010
0000
0000
0000
0001
0100
,
0001
0000
0100
0010
0100
0000
0010
1000
0010
0000
1000
0000
0000
0000
0001
1000
,
0100
0000
1000
0001
0100
0000
0001
0010
0001
0000
0100
0000
0000
0000
0010
1000
,
0001
0000
0010
0001
1000
0000
0010
0100
0001
0000
0000
0000
0000
0000
0000
0000
,
1000
0001
1000
0001
1000
0000
0001
0000
0100
0001
0100
0001
0100
0000
0010
0000
,
0100
0010
0100
0010
0100
0000
0001
0000
0010
0001
0010
0001
0010
0000
0001
0000
,
1000
0100
1000
0100
1000
0000
0001
0000
0100
0010
0100
0010
0100
0000
0001
0000
,
0010
0100
1000
0001
0010
0100
1000
0001
1000
0000
0000
0000
0000
0000
0000
0000
,
0001
0100
0010
0100
0001
1000
0100
1000
,
1010
0101
0011
0101
,
0100
0100
0001
0001
0010
0100
1000
0001
,
1000
0010
0100
0000
0001
0000
0010
0001
,
0100
0000
0010
0000
1000
0000
0001
1000
,
0010
0000
0100
0001
1000
0000
0100
0010
,
0001
0000
0100
0010
1000
0000
0001
1000
,
0100
1000
0001
0100
1001
0000
0000
0000
,
0001
0010
0001
0100
0001
0010
0001
0100
0001
0000
0001
1000
0001
0000
1000
0000
,
0100
1000
0010
1000
0100
1000
0010
1000
0100
0000
0100
1000
0010
0000
0100
0000
,
0001
1000
0010
0100
0001
1000
0100
0010
0001
1000
0010
0100
0001
0010
0100
1000
,
0001
1000
0010
0100
0001
1000
0100
0010
0001
0000
1000
0001
0100
0001
1000
0000
,
0010
0000
0100
0001
0100
0000
0001
0000
1000
0000
0100
1000
0100
0000
1000
0000
,
0010
0000
1000
0010
1000
0000
0001
0000
0010
0000
0001
0010
0001
0000
0100
0000
,
0001
0000
1000
0010
0100
0000
0001
0000
0010
0000
0100
1000
0100
0000
1000
0000
,
0001
0100
0001
0100
0001
0100
0001
0100
0001
0000
0000
0000
0000
0000
1000
0010
,
1000
0000
0001
0010
0001
0000
0100
0001
0100
0000
0010
0000
0000
0000
1000
0100
,
0010
0000
0001
1000
0010
0000
0100
0001
0010
0000
0001
0000
1000
0000
0010
1000
,
0010
0000
1000
0001
1000
0000
0001
0100
0001
0000
0010
0000
0000
0000
0001
0100
,
0010
0000
0100
0001
1000
0000
0100
0010
0001
0000
1000
0000
0010
0000
0100
0001
,
1000
0000
0001
0000
0010
0000
0100
0000
1000
0000
0001
0000
0100
0000
0010
0100
,
0001
0000
0010
0000
0001
0000
1000
0000
0010
0000
0100
0000
0001
1000
0100
0010
,
0001
1000
0010
0100
0001
0010
0100
1000
,
0001
0000
1000
0001
1000
0000
0001
1000
0001
0000
1000
0001
1000
0001
1000
0001
,
1001
0000
0000
0000
;
